osu file format v12

[General]
AudioFilename: Nasa Iyo Na Ang Lahat by Daniel Padilla (Official Music Video).mp3
AudioLeadIn: 0
PreviewTime: -1
Countdown: 1
SampleSet: None
StackLeniency: 0.7
Mode: 0
LetterboxInBreaks: 1

[Editor]
DistanceSpacing: 0.8
BeatDivisor: 12
GridSize: 32

[Metadata]
Title:Nasa Iyo Na Ang Lahat
TitleUnicode:Nasa Iyo Na Ang Lahat
Artist:Daniel Padilla
ArtistUnicode:Daniel Padilla
Creator:
Version:Easy
Source:
Tags:
BeatmapID:250703
BeatmapSetID:92777

[Difficulty]
HPDrainRate:0
CircleSize:2
OverallDifficulty:0
ApproachRate:0
SliderMultiplier:1.4
SliderTickRate:1

[Events]
//Background and Video events
Video,3583,"Nasa Iyo Na Ang Lahat Lyrics- Daniel Padilla.wmv"
0,0,"876.jpg",1,1
//Break Periods
//Storyboard Layer 0 (Background)
//Storyboard Layer 1 (Fail)
//Storyboard Layer 2 (Pass)
//Storyboard Layer 3 (Foreground)
//Storyboard Sound Samples
//Background Colour Transformations
3,100,163,162,255

[TimingPoints]
9752,400.00421887803,4,2,0,50,1,0
51486,-100,4,2,0,55,0,0
78593,-100,4,2,0,60,0,1
114573,-100,4,2,0,55,0,0
141410,-100,4,2,0,60,0,1
153601,-100,4,2,0,60,0,0
165551,-100,4,2,0,65,0,1
189441,-100,4,2,0,65,0,0
201541,-100,4,2,0,65,0,1
205641,-100,4,2,0,65,0,0

[Colours]
Combo1 : 255,192,0
Combo2 : 0,202,0
Combo3 : 18,124,255
Combo4 : 242,24,57

[HitObjects]
192,192,9952,1,0,0:0:0:0:
256,192,10618,1,4,0:0:0:0:
320,192,11252,1,0,0:0:0:0:
384,192,11852,1,4,0:0:0:0:
192,288,12718,5,0,0:0:0:0:
256,288,13385,1,4,0:0:0:0:
224,160,14085,1,0,0:0:0:0:
288,160,14885,1,4,0:0:0:0:
288,192,15785,5,0,0:0:0:0:
224,192,15952,1,0,0:0:0:0:
160,192,16185,1,0,0:0:0:0:
96,192,16552,1,0,0:0:0:0:
96,288,16918,1,0,0:0:0:0:
160,288,17218,1,0,0:0:0:0:
224,288,17418,2,0,P|384:288|320:192,1,350
288,192,18752,5,0,0:0:0:0:
224,192,18919,1,0,0:0:0:0:
160,192,19086,1,0,0:0:0:0:
96,192,19685,1,0,0:0:0:0:
96,288,19885,1,0,0:0:0:0:
160,288,20251,1,0,0:0:0:0:
224,288,20451,2,0,P|384:288|320:192,1,350
288,64,21852,5,0,0:0:0:0:
224,64,22019,1,0,0:0:0:0:
160,64,22252,1,0,0:0:0:0:
96,64,22619,1,0,0:0:0:0:
32,96,22985,1,0,0:0:0:0:
64,160,23285,1,0,0:0:0:0:
128,160,23485,2,0,L|320:160,1,186.666666666667
288,192,24385,5,0,0:0:0:0:
224,128,24552,1,0,0:0:0:0:
160,192,24785,1,0,0:0:0:0:
96,256,25152,1,0,0:0:0:0:
160,320,25452,1,0,0:0:0:0:
224,288,26018,2,0,P|384:288|320:192,1,350
288,192,27752,5,0,0:0:0:0:
224,192,27919,1,0,0:0:0:0:
160,192,28152,1,0,0:0:0:0:
96,192,28519,1,0,0:0:0:0:
96,288,28885,1,0,0:0:0:0:
160,288,29185,1,0,0:0:0:0:
224,288,29385,2,0,P|384:288|320:192,1,350
288,192,30751,5,0,0:0:0:0:
224,192,30918,1,0,0:0:0:0:
160,192,31085,1,0,0:0:0:0:
96,192,31685,1,0,0:0:0:0:
96,288,31885,1,0,0:0:0:0:
160,288,32318,1,0,0:0:0:0:
224,288,32518,2,0,P|384:288|320:192,1,350
256,128,33885,5,0,0:0:0:0:
192,128,34085,1,0,0:0:0:0:
128,128,34285,1,0,0:0:0:0:
64,128,34652,1,0,0:0:0:0:
64,224,35018,1,0,0:0:0:0:
128,224,35352,1,0,0:0:0:0:
192,224,35585,2,0,L|384:224,1,186.666666666667
288,192,36385,5,0,0:0:0:0:
224,128,36585,1,0,0:0:0:0:
160,192,36818,1,0,0:0:0:0:
96,256,37118,1,0,0:0:0:0:
160,320,37452,1,0,0:0:0:0:
224,288,37718,2,0,P|384:288|320:192,1,350
288,192,39685,5,0,0:0:0:0:
224,192,39852,1,0,0:0:0:0:
160,192,40085,1,0,0:0:0:0:
96,192,40452,1,0,0:0:0:0:
96,288,40818,1,0,0:0:0:0:
160,288,41118,1,0,0:0:0:0:
224,288,41318,2,0,P|384:288|320:192,1,350
288,192,42785,5,0,0:0:0:0:
224,192,42952,1,0,0:0:0:0:
160,192,43119,1,0,0:0:0:0:
96,192,43585,1,0,0:0:0:0:
96,288,43918,1,0,0:0:0:0:
160,288,44284,1,0,0:0:0:0:
224,288,44484,2,0,P|384:288|320:192,1,350
288,192,45885,5,0,0:0:0:0:
224,128,46120,1,0,0:0:0:0:
160,192,46353,1,0,0:0:0:0:
96,256,46752,1,0,0:0:0:0:
160,320,47020,1,0,0:0:0:0:
224,320,47219,2,0,P|352:320|256:224,1,326.666666666667
288,160,48719,5,0,0:0:0:0:
256,64,48985,1,0,0:0:0:0:
160,64,49452,1,0,0:0:0:0:
96,128,49952,1,0,0:0:0:0:
32,192,50252,1,0,0:0:0:0:
64,256,50585,1,0,0:0:0:0:
128,288,50852,2,0,P|192:320|352:320,1,233.333333333333
384,224,51785,5,0,0:0:0:0:
320,224,52019,1,0,0:0:0:0:
256,224,52385,1,0,0:0:0:0:
192,224,52919,1,0,0:0:0:0:
128,224,53152,1,0,0:0:0:0:
64,224,53485,2,0,P|64:160|256:128,1,303.333333333333
160,160,54819,5,0,0:0:0:0:
160,224,55019,1,0,0:0:0:0:
160,288,55219,1,0,0:0:0:0:
256,288,55552,5,0,0:0:0:0:
320,288,55752,1,0,0:0:0:0:
384,288,55952,1,0,0:0:0:0:
384,224,56219,5,0,0:0:0:0:
384,160,56419,1,0,0:0:0:0:
384,96,56585,2,0,L|288:96,1,93.3333333333333
224,96,57785,5,0,0:0:0:0:
160,96,58119,1,0,0:0:0:0:
96,96,58419,1,0,0:0:0:0:
96,160,58752,1,0,0:0:0:0:
96,224,59152,1,0,0:0:0:0:
96,288,59519,1,0,0:0:0:0:
160,288,59919,2,0,L|320:288,1,151.666666666667
352,352,60719,5,0,0:0:0:0:
416,320,60919,1,0,0:0:0:0:
480,288,61119,1,0,0:0:0:0:
480,192,61752,5,0,0:0:0:0:
480,128,61985,1,0,0:0:0:0:
416,128,62318,2,0,L|320:128,2,93.3333333333333
352,128,63252,5,0,0:0:0:0:
288,128,63452,1,0,0:0:0:0:
224,128,63985,1,0,0:0:0:0:
160,128,64619,2,0,P|96:128|160:256,1,291.666666666667
224,256,66085,1,0,0:0:0:0:
288,256,66285,1,0,0:0:0:0:
352,256,66819,1,0,0:0:0:0:
448,256,67119,5,0,0:0:0:0:
448,192,67485,1,0,0:0:0:0:
448,128,67819,1,0,0:0:0:0:
384,128,68052,2,0,L|288:128,1,93.3333333333333
224,128,68552,2,0,P|160:128|128:256,1,210
192,256,69385,5,0,0:0:0:0:
256,256,70019,1,0,0:0:0:0:
320,256,70552,1,0,0:0:0:0:
384,256,70985,1,0,0:0:0:0:
448,256,71519,1,0,0:0:0:0:
448,160,71919,5,0,0:0:0:0:
384,160,72319,1,0,0:0:0:0:
320,160,72752,1,0,0:0:0:0:
256,160,73086,1,0,0:0:0:0:
192,160,73352,2,0,P|128:160|96:256,1,175
160,256,74052,2,0,L|288:256,1,128.333333333333
352,256,75052,5,0,0:0:0:0:
416,256,75386,1,0,0:0:0:0:
416,192,75719,1,0,0:0:0:0:
416,128,76086,1,0,0:0:0:0:
416,64,76486,1,0,0:0:0:0:
352,64,76919,1,0,0:0:0:0:
288,192,78652,5,0,0:0:0:0:
224,192,78819,1,0,0:0:0:0:
160,192,79052,1,0,0:0:0:0:
96,192,79419,1,0,0:0:0:0:
96,288,79785,1,0,0:0:0:0:
160,288,80085,1,0,0:0:0:0:
224,288,80285,2,0,P|384:288|320:192,1,350
288,192,81719,5,0,0:0:0:0:
224,192,81886,1,0,0:0:0:0:
160,192,82053,1,0,0:0:0:0:
96,192,82652,1,0,0:0:0:0:
96,288,82852,1,0,0:0:0:0:
160,288,83218,1,0,0:0:0:0:
224,288,83418,2,0,P|384:288|320:192,1,350
256,128,84852,5,0,0:0:0:0:
192,128,85019,1,0,0:0:0:0:
128,128,85252,1,0,0:0:0:0:
64,128,85619,1,0,0:0:0:0:
64,224,85985,1,0,0:0:0:0:
128,224,86285,1,0,0:0:0:0:
192,224,86485,2,0,L|384:224,1,186.666666666667
288,192,87352,5,0,0:0:0:0:
224,128,87519,1,0,0:0:0:0:
160,192,87752,1,0,0:0:0:0:
96,256,88119,1,0,0:0:0:0:
160,320,88419,1,0,0:0:0:0:
224,288,88985,2,0,P|384:288|320:192,1,350
224,192,90819,5,0,0:0:0:0:
160,192,91052,1,0,0:0:0:0:
96,192,91252,1,0,0:0:0:0:
96,288,91686,1,0,0:0:0:0:
160,288,91986,1,0,0:0:0:0:
224,288,92218,2,0,P|384:288|320:192,1,350
288,192,93685,5,0,0:0:0:0:
224,192,93852,1,0,0:0:0:0:
160,192,94019,1,0,0:0:0:0:
96,192,94618,1,0,0:0:0:0:
96,288,94818,1,0,0:0:0:0:
160,288,95184,1,0,0:0:0:0:
224,288,95384,2,0,P|384:288|320:192,1,350
288,192,96853,5,0,0:0:0:0:
224,128,97020,1,0,0:0:0:0:
160,192,97253,1,0,0:0:0:0:
96,256,97620,1,0,0:0:0:0:
160,320,97920,1,0,0:0:0:0:
224,320,98119,2,0,P|352:320|256:224,1,326.666666666667
288,160,99319,5,0,0:0:0:0:
256,64,99552,1,0,0:0:0:0:
160,64,99886,1,0,0:0:0:0:
96,128,100119,1,0,0:0:0:0:
32,192,100486,1,0,0:0:0:0:
96,256,100786,1,0,0:0:0:0:
160,224,101352,2,0,P|320:224|256:128,1,350
256,192,102786,12,0,105453,0:0:0:0:
288,160,105786,5,0,0:0:0:0:
256,64,106052,1,0,0:0:0:0:
160,64,106519,1,0,0:0:0:0:
96,128,106953,1,0,0:0:0:0:
32,192,107319,1,0,0:0:0:0:
64,256,107652,1,0,0:0:0:0:
128,288,107919,2,0,P|192:320|352:320,1,233.333333333333
256,192,108886,12,0,111453,0:0:0:0:
288,160,111786,5,0,0:0:0:0:
256,64,112052,1,0,0:0:0:0:
160,64,112519,1,0,0:0:0:0:
96,128,112953,1,0,0:0:0:0:
32,192,113319,1,0,0:0:0:0:
64,256,113652,1,0,0:0:0:0:
128,288,113919,2,0,P|192:320|352:320,1,233.333333333333
384,224,114853,5,0,0:0:0:0:
320,224,115087,1,0,0:0:0:0:
256,224,115453,1,0,0:0:0:0:
192,224,115987,1,0,0:0:0:0:
128,224,116220,1,0,0:0:0:0:
64,224,116553,2,0,P|64:160|256:128,1,303.333333333333
160,160,117819,5,0,0:0:0:0:
160,224,118019,1,0,0:0:0:0:
160,288,118286,1,0,0:0:0:0:
256,288,118619,5,0,0:0:0:0:
320,288,118819,1,0,0:0:0:0:
384,288,119052,1,0,0:0:0:0:
384,224,119319,5,0,0:0:0:0:
384,160,119519,1,0,0:0:0:0:
384,96,119685,2,0,L|288:96,1,93.3333333333333
224,96,120686,5,0,0:0:0:0:
160,96,121020,1,0,0:0:0:0:
96,96,121486,1,0,0:0:0:0:
96,160,121753,1,0,0:0:0:0:
96,224,122119,1,0,0:0:0:0:
96,288,122453,1,0,0:0:0:0:
160,288,122820,2,0,L|320:288,1,151.666666666667
352,352,123686,5,0,0:0:0:0:
416,320,123886,1,0,0:0:0:0:
480,288,124086,1,0,0:0:0:0:
480,192,124686,5,0,0:0:0:0:
480,128,124952,1,0,0:0:0:0:
416,128,125285,2,0,L|320:128,2,93.3333333333333
352,128,126319,5,0,0:0:0:0:
288,128,126519,1,0,0:0:0:0:
224,128,127052,1,0,0:0:0:0:
160,128,127686,2,0,P|96:128|160:256,1,291.666666666667
224,256,129086,1,0,0:0:0:0:
288,256,129352,1,0,0:0:0:0:
352,256,129886,1,0,0:0:0:0:
448,256,130153,5,0,0:0:0:0:
448,192,130552,1,0,0:0:0:0:
448,128,130886,1,0,0:0:0:0:
384,128,131119,2,0,L|288:128,1,93.3333333333333
224,128,131619,2,0,P|160:128|128:256,1,210
192,256,132419,5,0,0:0:0:0:
256,256,133086,1,0,0:0:0:0:
320,256,133619,1,0,0:0:0:0:
384,256,134052,1,0,0:0:0:0:
448,256,134586,1,0,0:0:0:0:
448,160,134986,5,0,0:0:0:0:
384,160,135386,1,0,0:0:0:0:
320,160,135819,1,0,0:0:0:0:
256,160,136153,1,0,0:0:0:0:
192,160,136419,2,0,P|128:160|96:256,1,175
160,256,137119,2,0,L|288:256,1,128.333333333333
352,256,138119,5,0,0:0:0:0:
416,256,138453,1,0,0:0:0:0:
416,192,138786,1,0,0:0:0:0:
416,128,139153,1,0,0:0:0:0:
416,64,139553,1,0,0:0:0:0:
352,64,139986,1,0,0:0:0:0:
288,64,140553,6,0,L|288:256,1,186.666666666667
288,192,141453,5,0,0:0:0:0:
224,192,141620,1,0,0:0:0:0:
160,192,141853,1,0,0:0:0:0:
96,192,142220,1,0,0:0:0:0:
96,288,142586,1,0,0:0:0:0:
160,288,142886,1,0,0:0:0:0:
224,288,143086,2,0,P|384:288|320:192,1,350
288,192,144520,5,0,0:0:0:0:
224,192,144687,1,0,0:0:0:0:
160,192,144854,1,0,0:0:0:0:
96,192,145453,1,0,0:0:0:0:
96,288,145653,1,0,0:0:0:0:
160,288,146019,1,0,0:0:0:0:
224,288,146219,2,0,P|384:288|320:192,1,350
256,128,147653,5,0,0:0:0:0:
192,128,147820,1,0,0:0:0:0:
128,128,148053,1,0,0:0:0:0:
64,128,148420,1,0,0:0:0:0:
64,224,148786,1,0,0:0:0:0:
128,224,149086,1,0,0:0:0:0:
192,224,149286,2,0,L|384:224,1,186.666666666667
288,192,150153,5,0,0:0:0:0:
224,128,150320,1,0,0:0:0:0:
160,192,150553,1,0,0:0:0:0:
96,256,150920,1,0,0:0:0:0:
160,320,151220,1,0,0:0:0:0:
224,288,151786,2,0,P|384:288|320:192,1,350
224,192,153620,5,0,0:0:0:0:
160,192,153853,1,0,0:0:0:0:
96,192,154053,1,0,0:0:0:0:
96,288,154487,1,0,0:0:0:0:
160,288,154787,1,0,0:0:0:0:
224,288,155019,2,0,P|384:288|320:192,1,350
288,192,156486,5,0,0:0:0:0:
224,192,156653,1,0,0:0:0:0:
160,192,156820,1,0,0:0:0:0:
96,192,157419,1,0,0:0:0:0:
96,288,157619,1,0,0:0:0:0:
160,288,157985,1,0,0:0:0:0:
224,288,158185,2,0,P|384:288|320:192,1,350
288,192,159654,5,0,0:0:0:0:
224,128,159821,1,0,0:0:0:0:
160,192,160054,1,0,0:0:0:0:
96,256,160421,1,0,0:0:0:0:
160,320,160721,1,0,0:0:0:0:
224,320,160920,2,0,P|352:320|256:224,1,326.666666666667
288,160,162120,5,0,0:0:0:0:
256,64,162353,1,0,0:0:0:0:
160,64,162687,1,0,0:0:0:0:
96,128,162920,1,0,0:0:0:0:
32,192,163287,1,0,0:0:0:0:
96,256,163587,1,0,0:0:0:0:
256,192,163920,12,0,165353,0:0:0:0:
288,192,165586,5,0,0:0:0:0:
224,192,165753,1,0,0:0:0:0:
160,192,165986,1,0,0:0:0:0:
96,192,166353,1,0,0:0:0:0:
96,288,166719,1,0,0:0:0:0:
160,288,167019,1,0,0:0:0:0:
224,288,167219,2,0,P|384:288|320:192,1,350
288,192,168653,5,0,0:0:0:0:
224,192,168820,1,0,0:0:0:0:
160,192,168987,1,0,0:0:0:0:
96,192,169586,1,0,0:0:0:0:
96,288,169786,1,0,0:0:0:0:
160,288,170152,1,0,0:0:0:0:
224,288,170352,2,0,P|384:288|320:192,1,350
256,128,171786,5,0,0:0:0:0:
192,128,171953,1,0,0:0:0:0:
128,128,172186,1,0,0:0:0:0:
64,128,172553,1,0,0:0:0:0:
64,224,172919,1,0,0:0:0:0:
128,224,173219,1,0,0:0:0:0:
192,224,173419,2,0,L|384:224,1,186.666666666667
288,192,174286,5,0,0:0:0:0:
224,128,174453,1,0,0:0:0:0:
160,192,174686,1,0,0:0:0:0:
96,256,175053,1,0,0:0:0:0:
160,320,175353,1,0,0:0:0:0:
224,288,175919,2,0,P|384:288|320:192,1,350
224,192,177753,5,0,0:0:0:0:
160,192,177986,1,0,0:0:0:0:
96,192,178186,1,0,0:0:0:0:
96,288,178620,1,0,0:0:0:0:
160,288,178920,1,0,0:0:0:0:
224,288,179152,2,0,P|384:288|320:192,1,350
288,192,180619,5,0,0:0:0:0:
224,192,180786,1,0,0:0:0:0:
160,192,180953,1,0,0:0:0:0:
96,192,181552,1,0,0:0:0:0:
96,288,181752,1,0,0:0:0:0:
160,288,182118,1,0,0:0:0:0:
224,288,182318,2,0,P|384:288|320:192,1,350
288,192,183787,5,0,0:0:0:0:
224,128,183954,1,0,0:0:0:0:
160,192,184187,1,0,0:0:0:0:
96,256,184554,1,0,0:0:0:0:
160,320,184854,1,0,0:0:0:0:
224,320,185053,2,0,P|352:320|256:224,1,326.666666666667
288,160,186253,5,0,0:0:0:0:
256,64,186486,1,0,0:0:0:0:
160,64,186820,1,0,0:0:0:0:
96,128,187053,1,0,0:0:0:0:
32,192,187420,1,0,0:0:0:0:
96,256,187720,1,0,0:0:0:0:
160,224,188286,2,0,P|320:224|256:128,1,350
256,192,189720,12,0,192253,0:0:0:0:
288,160,192720,5,0,0:0:0:0:
256,64,192986,1,0,0:0:0:0:
160,64,193453,1,0,0:0:0:0:
96,128,193887,1,0,0:0:0:0:
32,192,194253,1,0,0:0:0:0:
64,256,194586,1,0,0:0:0:0:
128,288,194853,2,0,P|192:320|352:320,1,233.333333333333
256,192,195820,12,0,198220,0:0:0:0:
288,160,198720,5,0,0:0:0:0:
256,64,198986,1,0,0:0:0:0:
160,64,199453,1,0,0:0:0:0:
96,128,199887,1,0,0:0:0:0:
32,192,200253,1,0,0:0:0:0:
64,256,200586,1,0,0:0:0:0:
128,288,200853,2,0,P|192:320|352:320,1,233.333333333333
288,192,201854,5,0,0:0:0:0:
224,192,202021,1,0,0:0:0:0:
160,192,202254,1,0,0:0:0:0:
96,192,202621,1,0,0:0:0:0:
96,288,202987,1,0,0:0:0:0:
160,288,203287,1,0,0:0:0:0:
224,288,203487,2,0,P|384:288|320:192,1,350
