osu file format v12

[General]
AudioFilename: Daniel Kim - Pop Danthology 2012.mp3
AudioLeadIn: 2012
PreviewTime: 299072
Countdown: 1
SampleSet: Normal
StackLeniency: 0.7
Mode: 0
LetterboxInBreaks: 0

[Editor]
Bookmarks: 50,16112,19891,35009,50127,57686,65245,72805,87923,103041,110600,118159,125718,133277,141277,149277,165277,181277,189277,197277,205277,213277,220855,230961,241066,251171,261277,268836,274505,276395,283954,287733,299072,302851,306631,314190,321749,329308,344426,359544,374662,389780,393560,401119,404899,420017,431355,435135,438914,442694,446473,450253
DistanceSpacing: 0.8
BeatDivisor: 4
GridSize: 4

[Metadata]
Title:Pop Danthology 2012
TitleUnicode:Pop Danthology 2012
Artist:Daniel Kim
ArtistUnicode:Daniel Kim
Creator:SapphireGhost
Version:SG
Source:
Tags:
BeatmapID:201459
BeatmapSetID:68504

[Difficulty]
HPDrainRate:5
CircleSize:4
OverallDifficulty:8
ApproachRate:8
SliderMultiplier:1.92
SliderTickRate:2

[Events]
//Background and Video events
0,0,"thinkofthecopyright.jpg",0,0
Video,-200,"blissfulyoshi.avi"
//Break Periods
2,1194,15362
2,35209,49377
2,133277,140527
2,148977,180527
2,197477,212527
2,213477,220105
2,221055,260527
2,263166,268086
2,269036,275172
2,280374,293834
2,306831,311550
2,331162,462731
//Storyboard Layer 0 (Background)
//Storyboard Layer 1 (Fail)
//Storyboard Layer 2 (Pass)
//Storyboard Layer 3 (Foreground)
//Storyboard Sound Samples
//Background Colour Transformations
3,100,255,255,255

[TimingPoints]
50,472.44094488189,4,1,0,69,1,0
994,472.44094488189,4,1,0,69,1,0
133277,500,4,1,0,69,1,0
146277,-100,4,1,0,59,0,0
146777,-100,4,1,0,49,0,0
147277,-100,4,1,0,39,0,0
147777,-100,4,1,0,29,0,0
148277,-100,4,1,0,19,0,0
148777,-100,4,1,0,9,0,0
149277,-100,4,2,0,69,0,0
181277,-100,4,1,0,69,0,0
213277,631.578947368421,4,1,0,69,1,0
261277,472.44094488189,4,1,0,69,1,0

[HitObjects]
120,272,50,6,0,B|188:312|256:268|256:268|324:312|392:272,1,288,2|0,0:2|0:2,0:0:0:0:
448,192,994,5,4,0:0:0:0:
256,192,16112,5,4,0:0:0:0:
348,192,19891,6,0,P|302:205|256:192,1,96,2|0,0:0|0:0,0:0:0:0:
210,342,20364,2,0,P|256:329|302:342,1,96,2|0,0:0|0:0,0:0:0:0:
120,264,20836,1,2,0:0:0:0:
120,264,21072,2,0,P|74:277|28:264,1,96,2|0,0:0|0:0,0:0:0:0:
72,96,21545,2,0,P|164:72|256:96,1,192,2|0,0:0|0:0,0:0:0:0:
392,50,22253,2,0,P|405:96|392:142,1,96,2|0,0:0|0:0,0:0:0:0:
304,264,22726,2,0,P|212:288|120:264,1,192,2|0,0:0|0:0,0:0:0:0:
28,352,23434,1,0,0:0:0:0:
32,168,23671,6,0,B|69:194|121:186|121:166|121:146|173:138|209:166,1,192,4|0,0:0|0:0,0:0:0:0:
292,116,24379,1,0,0:0:0:0:
352,192,24616,2,0,P|387:160|402:114,1,96,8|0,0:0|0:0,0:0:0:0:
488,288,25088,2,0,P|393:301|318:359,1,192,4|0,0:0|0:0,0:0:0:0:
256,284,25797,1,0,0:0:0:0:
168,328,26033,2,0,P|155:282|167:236,1,96,8|0,0:0|0:0,0:0:0:0:
204,136,26505,1,4,0:0:0:0:
316,116,26742,1,0,0:0:0:0:
316,116,26860,1,0,0:0:0:0:
316,116,26978,1,8,0:0:0:0:
256,36,27214,5,0,0:0:0:0:
406,146,27450,2,0,P|419:192|406:238,1,96,2|0,0:0|0:0,0:0:0:0:
256,284,27923,2,0,P|243:238|256:192,1,96,2|0,0:0|0:0,0:0:0:0:
120,56,28395,1,2,0:0:0:0:
120,56,28631,2,0,P|133:102|120:148,1,96,2|0,0:0|0:0,0:0:0:0:
36,284,29104,2,0,P|12:192|36:100,1,192,2|0,0:0|0:0,0:0:0:0:
100,344,29812,2,0,P|146:357|192:344,1,96,2|0,0:0|0:0,0:0:0:0:
256,284,30285,2,0,L|400:284,1,144,2|0,0:0|0:0,0:0:0:0:
456,329,30757,2,0,P|472:284|456:238,1,96,2|0,0:0|0:0,0:0:0:0:
388,172,31230,6,0,P|316:164|272:112,1,144,4|0,0:0|0:0,0:0:0:0:
244,44,31702,2,0,L|148:44,1,96,8|0,0:0|0:0,0:0:0:0:
196,152,32175,2,0,L|100:152,1,96,8|0,0:0|0:0,0:0:0:0:
0,116,32647,1,2,0:0:0:0:
0,116,32765,1,0,0:0:0:0:
0,116,32883,1,0,0:0:0:0:
48,248,33119,6,0,P|68:312|132:352,1,144,4|0,0:0|0:0,0:0:0:0:
188,304,33592,2,0,P|256:284|324:304,1,144,8|0,0:0|0:0,0:0:0:0:
380,352,34064,2,0,P|432:324|454:295,1,96,8|0,0:0|0:0,0:0:0:0:
500,212,34537,1,0,0:0:0:0:
476,184,34655,1,0,0:0:0:0:
452,156,34773,1,0,0:0:0:0:
428,128,34891,1,0,0:0:0:0:
400,100,35009,5,4,0:0:0:0:
168,88,50127,6,0,P|256:56|344:88,1,192,4|8,0:0|0:0,0:0:0:0:
424,144,50836,1,0,0:0:0:0:
372,224,51072,2,0,P|368:276|392:324,1,96,2|0,0:0|0:0,0:0:0:0:
276,256,51545,2,0,P|204:312|112:284,1,192,2|4,0:0|0:0,0:0:0:0:
52,212,52253,1,0,0:0:0:0:
143,177,52490,2,0,P|167:134|168:89,1,96,8|0,0:0|0:0,0:0:0:0:
284,164,52962,2,0,P|276:256|312:348,1,192,2|2,0:0|0:0,0:0:0:0:
388,288,53671,1,0,0:0:0:0:
460,348,53907,5,4,0:0:0:0:
512,212,54143,1,0,0:0:0:0:
400,124,54379,2,0,P|420:80|460:48,1,96,8|0,0:0|0:0,0:0:0:0:
316,72,54852,2,0,P|252:136|160:120,1,192,2|2,0:0|0:0,0:0:0:0:
64,140,55560,2,0,P|124:212|248:232,1,192,2|0,0:0|0:0,0:0:0:0:
268,320,56269,6,0,L|360:288,1,96,8|0,0:0|0:0,0:0:0:0:
456,300,56742,2,0,L|420:212,1,96,0|8,0:0|0:0,0:0:0:0:
436,116,57214,2,0,L|344:148,1,96,8|0,0:0|0:0,0:0:0:0:
256,68,57686,5,4,0:0:0:0:
256,68,58159,1,8,0:0:0:0:
106,146,58631,2,0,P|93:192|106:238,1,96
185,284,59104,2,0,P|198:238|185:192,1,96,8|0,0:0|0:0,0:0:0:0:
25,100,59576,6,0,P|1:192|25:284,1,192,4|8,0:0|0:0,0:0:0:0:
107,353,60285,1,0,0:0:0:0:
184,284,60521,2,0,L|278:302,1,96,2|0,0:0|0:0,0:0:0:0:
328,100,60994,2,0,L|233:81,1,96,8|0,0:0|0:0,0:0:0:0:
162,174,61466,6,0,L|350:210,1,192,2|8,0:0|0:0,0:0:0:0:
384,300,62175,1,0,0:0:0:0:
468,252,62411,2,0,P|481:206|468:160,1,96,2|8,0:0|0:0,0:0:0:0:
396,96,62883,2,0,P|304:112|256:192,1,192,2|4,0:0|0:0,0:0:0:0:
188,148,64773,5,2,2:2:0:0:
196,156,65245,6,0,P|256:122|316:156,1,144,2|2,0:0|2:0,0:0:0:0:
316,228,65718,2,0,P|256:262|196:228,1,144,8|2,0:0|2:0,0:0:0:0:
256,192,66190,1,0,0:0:0:0:
164,340,66427,1,0,0:0:0:0:
348,340,66663,2,0,P|372:298|413:274,1,96,8|0,0:0|0:0,0:0:0:0:
460,192,67135,5,0,0:0:0:0:
460,192,67253,1,8,0:0:0:0:
440,88,67490,1,0,0:0:0:0:
412,108,67608,2,0,P|364:101|327:72,1,96,8|0,0:0|0:0,0:0:0:0:
236,40,68080,1,0,0:0:0:0:
168,108,68316,1,0,0:0:0:0:
80,72,68553,2,0,P|36:116|48:192,1,144,2|2,2:1|2:2,2:0:0:0:
96,248,69025,6,0,L|192:248,1,96,4|0,0:0|0:0,0:0:0:0:
304,340,69497,2,0,L|208:340,1,96,8|0,0:0|0:0,0:0:0:0:
360,248,69970,2,0,L|456:248,1,96,0|8,0:0|0:0,0:0:0:0:
408,104,70442,2,0,L|312:104,1,96,8|0,0:0|0:0,0:0:0:0:
104,104,70915,5,4,2:2:0:0:
104,104,71387,2,0,L|200:104,1,96,6|0,0:1|2:0,2:0:0:0:
160,192,71860,2,0,L|256:192,1,96,2|2,1:0|1:0,2:0:0:0:
216,280,72332,2,0,L|312:280,1,96,0|2,2:0|1:0,2:0:0:0:
408,280,72805,5,4,0:0:0:0:
448,192,73041,1,0,0:0:0:0:
360,104,73277,1,8,0:0:0:0:
280,48,73513,1,0,0:0:0:0:
200,104,73749,2,0,L|104:104,1,96,0|0,0:0|0:0,0:0:0:0:
40,212,74222,1,8,0:0:0:0:
80,300,74458,1,0,0:0:0:0:
160,248,74694,6,0,P|228:240|288:280,1,144
336,336,75167,1,8,0:0:0:0:
384,252,75403,1,0,0:0:0:0:
472,292,75639,1,0,0:0:0:0:
485,258,75757,1,8,0:0:0:0:
498,225,75875,1,0,0:0:0:0:
412,136,76112,2,0,L|376:44,1,96,8|0,0:0|0:0,0:0:0:0:
292,92,76584,6,0,P|228:64|164:92,1,144,4|0,0:0|0:0,0:0:0:0:
116,148,77056,1,8,0:0:0:0:
24,120,77293,1,0,0:0:0:0:
52,212,77529,2,0,P|36:256|52:300,1,96,0|0,0:0|0:0,0:0:0:0:
152,368,78001,1,8,0:0:0:0:
220,300,78238,1,0,0:0:0:0:
308,264,78474,6,0,P|360:218|354:149,1,144,0|0,0:0|0:0,0:0:0:0:
290,190,78946,1,8,0:0:0:0:
256,100,79182,1,0,0:0:0:0:
176,152,79419,1,0,0:0:0:0:
140,169,79537,1,0,0:0:0:0:
101,169,79655,1,0,0:0:0:0:
66,151,79773,1,0,0:0:0:0:
44,119,79891,1,8,0:0:0:0:
4,216,80127,1,0,0:0:0:0:
28,244,80245,1,8,0:0:0:0:
56,268,80364,6,0,L|152:268,1,96,4|0,0:0|0:0,0:0:0:0:
272,268,80836,1,8,0:0:0:0:
336,340,81072,1,0,0:0:0:0:
400,268,81308,2,0,P|416:224|400:180,1,96,0|0,0:0|0:0,0:0:0:0:
512,136,81781,2,0,P|496:180|512:224,1,96,8|0,0:0|0:0,0:0:0:0:
476,328,82253,6,0,L|322:211,1,192,0|8,0:0|0:0,0:0:0:0:
248,152,82962,1,0,0:0:0:0:
204,236,83198,1,0,0:0:0:0:
120,192,83434,2,0,L|24:192,2,96,0|8|0,0:0|0:0|0:0,0:0:0:0:
248,152,84143,6,0,P|252:76|304:20,1,144,6|0,0:0|0:0,0:0:0:0:
416,100,84852,2,0,P|335:160|248:152,1,192,2|8,0:0|0:0,0:0:0:0:
160,100,85560,1,8,0:0:0:0:
160,100,85797,1,0,0:0:0:0:
120,192,86033,6,0,P|81:257|95:333,1,144,6|0,0:0|0:0,0:0:0:0:
232,327,86742,2,0,P|196:232|119:191,1,192,2|8,0:0|0:0,0:0:0:0:
0,172,87450,1,8,0:0:0:0:
128,28,87923,6,0,P|168:84|240:84,1,144,4|2,0:0|2:2,0:0:0:0:
284,28,88395,2,0,L|376:56,1,96,8|0,0:0|0:0,0:0:0:0:
468,28,88868,2,0,L|440:169,1,144,0|2,0:0|2:2,0:0:0:0:
486,228,89340,2,0,P|441:244|395:228,1,96,8|0,0:0|0:0,0:0:0:0:
344,312,89812,6,0,P|280:284|216:312,1,144,0|2,0:0|2:2,0:0:0:0:
160,264,90285,2,0,P|116:280|72:264,1,96,8|0,0:0|0:0,0:0:0:0:
8,192,90757,1,2,0:0:0:0:
116,128,90993,1,0,0:0:0:0:
24,96,91230,1,8,0:0:0:0:
132,32,91466,1,0,0:0:0:0:
216,76,91702,6,0,L|368:192,1,192,4|8,0:0|0:0,0:0:0:0:
456,256,92411,1,0,0:0:0:0:
456,256,92529,1,8,0:0:0:0:
456,256,92647,2,0,L|372:320,1,96
288,284,93119,1,8,0:0:0:0:
204,328,93356,6,2,P|136:264|152:172,1,192,2|2,0:0|0:0,0:0:0:0:
40,192,94064,2,0,P|56:152|40:104,1,96,8|2,0:0|0:0,0:0:0:0:
120,40,94537,2,0,L|256:88,1,144,2|2,0:0|0:2,0:0:0:0:
312,44,95009,2,0,P|328:84|312:132,1,96,8|0,0:0|0:0,0:0:0:0:
440,128,95482,6,0,P|412:192|440:256,1,144,4|2,2:1|0:0,2:0:0:0:
312,320,96190,1,8,0:0:0:0:
256,240,96427,2,0,L|112:240,1,144,4|2,0:0|0:0,0:0:0:0:
204,128,97135,1,8,0:0:0:0:
113,105,97371,2,0,P|151:46|220:35,1,144,4|2,0:0|0:0,0:0:0:0:
360,72,98080,1,8,0:0:0:0:
444,120,98316,2,0,L|395:202,1,96,2|0,0:0|0:0,0:0:0:0:
492,204,98789,2,0,L|443:286,1,96,8|0,0:0|0:0,0:0:0:0:
424,320,99143,1,0,0:0:0:0:
404,352,99261,6,0,L|308:352,1,96,4|0,0:0|0:0,0:0:0:0:
216,320,99734,2,0,P|164:340|68:304,1,144,8|2,0:0|0:0,0:0:0:0:
52,292,100206,2,0,P|38:247|52:202,1,96,8|2,0:0|0:0,0:0:0:0:
0,120,100679,1,8,0:0:0:0:
40,32,100915,1,2,0:0:0:0:
104,104,101151,5,4,1:0:0:0:
104,104,101623,2,0,L|200:104,1,96,6|0,0:1|2:0,2:0:0:0:
160,192,102096,2,0,L|256:192,1,96,2|2,1:0|1:0,2:0:0:0:
216,280,102568,2,0,L|312:280,1,96,0|2,2:0|1:0,2:0:0:0:
408,280,103041,5,4,0:0:0:0:
440,192,103277,1,0,0:0:0:0:
408,104,103513,2,0,P|344:132|280:104,1,144,8|2,0:0|0:2,0:0:0:0:
256,80,103986,2,0,L|160:104,1,96
104,24,104458,1,8,0:0:0:0:
24,80,104694,1,0,0:0:0:0:
64,168,104931,6,0,P|84:236|64:304,1,144,4|2,0:0|0:2,0:0:0:0:
40,328,105403,2,0,L|128:368,1,96,8|0,0:0|0:0,0:0:0:0:
216,328,105875,1,0,0:0:0:0:
216,328,105993,1,8,0:0:0:0:
288,264,106230,2,0,P|352:272|408:328,1,144,8|0,0:0|0:0,0:0:0:0:
476,260,106820,6,0,P|456:192|476:124,1,144,4|2,0:0|0:2,0:0:0:0:
496,96,107293,2,0,L|416:40,1,96,8|0,0:0|0:0,0:0:0:0:
336,96,107765,1,0,0:0:0:0:
256,144,108001,1,0,0:0:0:0:
304,224,108238,1,8,0:0:0:0:
208,224,108474,2,0,P|168:304|72:312,1,192
112,224,109182,2,0,P|88:184|88:136,1,96,8|0,0:0|0:0,0:0:0:0:
152,48,109655,5,0,0:0:0:0:
152,48,109773,1,8,0:0:0:0:
152,48,109891,1,0,0:0:0:0:
256,88,110127,1,8,0:0:0:0:
360,48,110364,1,0,0:0:0:0:
404,132,110600,5,4,0:0:0:0:
483,190,110836,1,0,0:0:0:0:
453,283,111072,2,0,P|406:296|375:333,1,96,8|0,0:0|0:0,0:0:0:0:
308,264,111545,2,0,L|213:282,1,96,2|8,0:0|0:0,0:0:0:0:
196,356,111899,2,0,P|143:310|149:241,1,144,0|2,0:0|0:0,0:0:0:0:
184,152,112490,5,4,0:0:0:0:
256,88,112726,2,0,L|350:69,1,96,0|8,0:0|0:0,0:0:0:0:
444,44,113198,1,0,0:0:0:0:
416,136,113434,2,0,P|420:183|450:221,1,96,2|8,0:0|0:0,0:0:0:0:
492,156,113789,2,0,P|528:212|500:280,1,144,0|2,0:0|0:0,0:0:0:0:
432,344,114379,5,4,0:0:0:0:
360,280,114616,1,2,0:0:0:0:
360,280,114852,1,8,0:0:0:0:
268,304,115088,1,0,0:0:0:0:
192,244,115324,2,0,L|152:156,1,96,2|8,0:0|0:0,0:0:0:0:
101,218,115679,2,0,L|42:86,1,144,0|8,0:0|0:0,0:0:0:0:
152,56,116269,6,0,P|240:24|328:56,1,192,4|2,2:1|2:0,2:0:0:0:
424,40,116978,2,0,P|392:128|300:148,1,192,2|0,2:0|1:0,0:0:0:0:
341,236,117686,2,0,P|293:240|255:270,1,96,8|0,0:0|0:0,0:0:0:0:
208,352,118159,5,4,0:0:0:0:
104,192,118631,1,8,0:0:0:0:
256,76,119104,1,2,0:0:0:0:
210,160,119340,2,0,P|256:172|302:160,1,96,0|8,0:0|0:0,0:0:0:0:
352,76,119812,2,0,P|444:80|496:160,1,192,2|0,0:0|0:0,0:0:0:0:
440,236,120521,2,0,P|428:282|440:328,1,96,8|0,0:0|0:0,0:0:0:0:
348,360,120994,1,2,0:0:0:0:
296,280,121230,1,8,0:0:0:0:
208,316,121466,2,0,P|160:309|122:281,1,96,8|0,0:0|0:0,0:0:0:0:
40,236,121938,6,0,P|92:192|96:120,1,144,4|2,0:0|0:0,0:0:0:0:
256,24,122647,2,0,P|216:108|256:192,1,192,2|0,0:0|0:0,0:0:0:0:
328,256,123356,1,8,0:0:0:0:
456,164,123592,2,0,L|408:360,1,192,2|2,0:0|0:0,0:0:0:0:
216,350,124301,2,0,L|186:235,1,96,8|0,0:0|0:0,0:0:0:0:
112,312,124773,2,0,P|40:256|44:160,1,192,2|8,0:0|0:0,0:0:0:0:
52,68,125482,1,0,0:0:0:0:
136,116,125718,5,4,0:0:0:0:
136,116,126190,2,2,P|256:48|376:116,1,288,2|2,0:0|0:0,0:0:0:0:
336,304,127371,2,2,P|256:349|176:304,1,192,2|2,0:0|0:0,0:0:0:0:
256,192,128080,1,2,0:0:0:0:
136,116,128316,1,0,0:0:0:0:
304,56,128553,1,2,0:0:0:0:
320,68,129025,1,8,0:0:0:0:
336,80,129497,5,4,0:0:0:0:
376,268,129970,6,2,P|256:336|136:268,1,288,2|2,0:0|0:0,0:0:0:0:
176,80,131151,2,2,P|256:35|336:80,1,192,2|2,0:0|0:0,0:0:0:0:
256,192,131860,1,2,0:0:0:0:
376,268,132096,1,0,0:0:0:0:
208,328,132332,1,2,0:0:0:0:
304,328,132568,1,0,0:0:0:0:
136,268,132805,1,8,0:0:0:0:
256,192,141277,5,4,0:0:0:0:
200,272,141527,1,0,0:0:0:0:
112,236,141777,2,0,P|100:190|112:144,1,96,2|0,0:0|0:0,0:0:0:0:
88,236,142277,2,0,P|76:190|88:144,1,96,2|0,0:0|0:0,0:0:0:0:
132,60,142777,1,8,0:0:0:0:
256,96,143027,6,0,P|348:104|420:40,1,192,2|2,0:0|0:0,0:0:0:0:
464,140,143777,2,0,P|432:168|412:216,1,96,8|2,0:0|0:0,0:0:0:0:
392,312,144277,2,0,B|364:292|324:304|324:312|324:320|284:332|256:312,1,144,2|0,0:0|0:0,0:0:0:0:
200,264,144777,2,0,L|92:264,1,96,8|0,0:0|0:0,0:0:0:0:
40,152,145277,5,4,0:0:0:0:
120,72,145527,1,0,0:0:0:0:
232,100,145777,6,0,P|220:146|232:192,1,96,2|0,0:0|0:0,0:0:0:0:
442,146,146277,2,0,P|454:100|442:54,1,96,2|0,0:0|0:0,0:0:0:0:
256,100,146777,6,0,P|244:146|256:192,1,96,2|0,0:0|0:0,0:0:0:0:
418,146,147277,2,0,P|430:100|418:54,1,96,2|0,0:0|0:0,0:0:0:0:
280,100,147777,6,0,P|268:146|280:192,1,96,2|0,0:0|0:0,0:0:0:0:
391,146,148277,2,0,P|403:100|391:54,1,96,2|0,0:0|0:0,0:0:0:0:
332,268,148777,5,2,0:0:0:0:
104,192,181277,6,0,L|200:192,1,96,4|2,0:0|0:0,0:0:0:0:
268,260,181777,1,8,0:0:0:0:
316,124,182027,1,0,0:0:0:0:
380,196,182277,2,0,P|408:108|348:36,1,192,2|8,0:0|0:0,0:0:0:0:
256,52,183027,6,0,L|76:124,1,192,6|0,0:0|0:0,0:0:0:0:
44,140,183652,1,0,0:0:0:0:
12,152,183777,2,0,P|0:200|12:244,1,96,8|0,0:0|0:0,0:0:0:0:
64,324,184277,2,0,P|152:344|216:272,1,192,2|8,0:0|0:0,0:0:0:0:
312,316,185027,6,0,P|312:220|376:152,1,192,6|0,0:0|0:0,0:0:0:0:
481,148,185777,2,0,L|436:64,1,96,8|0,0:0|0:0,0:0:0:0:
344,36,186277,2,0,P|256:68|168:36,1,192,2|8,0:0|0:0,0:0:0:0:
0,192,187027,6,0,P|88:160|176:192,1,192,6|0,0:0|0:0,0:0:0:0:
244,260,187777,1,8,0:0:0:0:
332,224,188027,1,0,0:0:0:0:
392,300,188277,2,0,P|440:296|472:260,1,96,2|0,0:0|0:0,0:0:0:0:
512,176,188777,1,8,0:0:0:0:
440,112,189027,1,0,0:0:0:0:
348,132,189277,5,4,0:0:0:0:
256,360,189777,1,2,0:0:0:0:
72,192,190277,1,2,0:0:0:0:
336,36,190777,1,8,0:0:0:0:
177,146,191277,6,0,P|255:100|335:148,1,192,2|0,0:0|0:0,0:0:0:0:
256,284,192027,2,0,P|177:239|178:145,1,192,2|0,0:0|0:0,0:0:0:0:
256,192,192777,1,8,0:0:0:0:
334,146,193027,2,0,P|335:239|256:284,1,192,2|0,0:0|0:0,0:0:0:0:
88,272,193777,2,0,L|177:236,1,96,2|0,0:0|0:0,0:0:0:0:
0,192,194277,2,0,L|89:156,1,96,2|0,0:0|0:0,0:0:0:0:
176,112,194777,1,8,0:0:0:0:
96,60,195027,1,0,0:0:0:0:
256,60,195277,6,0,P|344:44|412:112,1,192,4|0,0:0|0:0,0:0:0:0:
508,96,196027,2,0,P|477:180|384:205,1,192,2|0,0:0|0:0,0:0:0:0:
349,193,196652,1,0,0:0:0:0:
312,181,196777,1,8,0:0:0:0:
276,191,196902,1,0,0:0:0:0:
250,219,197027,1,0,0:0:0:0:
242,256,197152,1,0,0:0:0:0:
256,292,197277,5,4,0:0:0:0:
256,192,213277,5,4,0:0:0:0:
256,192,220855,5,4,0:0:0:0:
256,192,261277,5,4,0:0:0:0:
256,192,268836,5,4,0:0:0:0:
172,56,275922,5,2,2:2:0:0:
256,100,276158,1,0,2:1:0:0:
340,56,276395,6,0,P|368:144|340:232,1,144,4|0,0:0|0:0,0:0:0:0:
344,228,276867,2,0,L|440:228,1,96,8|0,0:0|0:0,0:0:0:0:
388,328,277339,2,0,L|244:328,1,144,2|0,0:0|0:0,0:0:0:0:
204,328,277812,2,0,P|162:304|138:262,1,96,8|0,0:0|0:3,0:0:0:0:
28,288,278284,6,0,P|56:224|28:160,1,144,2|0,0:0|0:0,0:0:0:0:
0,132,278757,2,0,L|67:64,1,96,8|0,0:0|0:0,0:0:0:0:
188,104,279229,2,0,L|255:36,1,96,2|0,0:0|0:0,0:0:0:0:
376,72,279702,1,8,0:0:0:0:
352,180,279938,1,0,0:0:0:0:
256,224,280174,5,4,0:0:0:0:
56,144,294584,6,0,L|96:52,2,96,8|8|0,0:0|0:0|0:0,0:0:0:0:
20,232,295292,6,0,P|64:280|140:280,1,144,4|8,0:0|0:0,0:0:0:0:
256,364,296001,1,8,0:0:0:0:
332,304,296237,2,0,P|352:240|332:168,1,144,4|8,0:0|0:0,0:0:0:0:
452,88,296946,1,8,0:0:0:0:
328,64,297182,6,2,P|237:87|163:31,1,192,2|2,0:0|0:0,0:0:0:0:
92,192,297891,2,0,P|185:195|255:257,1,192,2|0,0:0|0:0,0:0:0:0:
276,292,298481,1,0,0:0:0:0:
300,324,298599,2,0,L|416:324,1,96,8|0,0:0|0:0,0:0:0:0:
256,192,299072,12,4,300962,0:0:0:0:
304,292,301434,6,0,P|348:308|392:292,1,96,8|0,0:0|0:0,0:0:0:0:
440,192,301906,2,2,B|404:216|348:200|348:192|348:184|292:168|256:192,1,192,2|2,0:0|0:0,0:0:0:0:
72,192,302851,5,4,0:0:0:0:
184,96,303088,5,2,0:0:0:0:
256,192,303324,1,0,0:0:0:0:
360,136,303560,1,2,0:0:0:0:
340,264,303796,2,2,P|256:304|172:264,1,192,2|2,0:0|0:0,0:0:0:0:
80,288,304505,1,0,0:0:0:0:
72,192,304741,6,0,P|96:104|184:96,1,192,4|2,0:0|0:0,0:0:0:0:
440,192,305686,2,0,P|416:104|328:96,1,192,2|0,0:0|0:0,0:0:0:0:
256,304,306631,5,4,0:0:0:0:
256,60,312300,5,4,0:0:0:0:
256,60,313245,1,0,0:0:0:0:
256,156,313481,1,0,0:0:0:0:
256,192,313599,1,0,0:0:0:0:
256,228,313717,1,8,0:0:0:0:
164,256,313954,1,0,0:0:0:0:
232,324,314190,6,0,P|296:332|368:268,1,144
376,256,314662,1,8,0:0:0:0:
436,332,314899,1,0,0:0:0:0:
468,192,315135,2,0,P|444:152|436:104,1,96,0|2,0:0|0:0,0:0:0:0:
352,56,315607,1,8,0:0:0:0:
300,136,315843,1,2,0:0:0:0:
216,92,316080,6,0,P|148:84|80:140,1,144,4|0,0:0|0:0,0:0:0:0:
68,156,316552,1,8,0:0:0:0:
80,252,316788,1,2,0:0:0:0:
180,208,317025,2,0,L|156:300,1,96,2|0,0:0|0:0,0:0:0:0:
332,160,317497,2,0,L|356:252,1,96,8|0,0:0|0:0,0:0:0:0:
328,344,317969,6,0,P|400:340|448:284,1,144,4|2,0:0|0:0,0:0:0:0:
460,256,318442,1,8,0:0:0:0:
416,160,318678,1,2,0:0:0:0:
488,88,318914,2,0,L|400:52,1,96,0|2,0:0|0:0,0:0:0:0:
256,132,319387,2,0,L|240:36,1,96,8|2,0:0|0:0,0:0:0:0:
136,88,319859,6,0,P|96:144|108:216,1,144,4|0,0:0|0:0,0:0:0:0:
124,244,320332,2,0,L|52:308,1,96,8|2,0:0|0:0,0:0:0:0:
156,352,320804,1,2,0:0:0:0:
256,276,321040,1,0,0:0:0:0:
384,312,321276,2,0,L|364:216,1,96,8|0,0:0|0:0,0:0:0:0:
468,240,321749,6,0,L|444:148,1,96,4|8,0:0|0:0,0:0:0:0:
436,116,322103,2,0,P|364:96|304:124,1,144,0|8,0:0|0:0,0:0:0:0:
216,56,322694,1,0,0:0:0:0:
216,56,322812,1,0,0:0:0:0:
216,56,322930,1,8,0:0:0:0:
140,148,323166,2,0,P|172:184|184:236,1,96,8|0,0:0|0:0,0:0:0:0:
256,320,323639,6,0,L|348:288,1,96,4|8,0:0|0:0,0:0:0:0:
380,276,323993,2,0,P|352:220|368:144,1,144,0|8,0:0|0:0,0:0:0:0:
420,44,324584,1,0,0:0:0:0:
420,44,324702,1,0,0:0:0:0:
420,44,324820,1,8,0:0:0:0:
304,84,325056,1,8,0:0:0:0:
304,84,325292,1,0,0:0:0:0:
204,48,325528,6,0,P|152:60|120:100,1,96,0|2,0:0|0:0,0:0:0:0:
108,120,325883,1,8,0:0:0:0:
256,156,326119,1,8,0:0:0:0:
256,156,326237,2,0,P|324:168|380:124,1,144,2|8,0:0|0:0,0:0:0:0:
396,92,326710,1,2,0:0:0:0:
512,132,326946,1,8,0:0:0:0:
444,232,327182,1,2,0:0:0:0:
336,288,327418,6,0,B|474:327,2,144,4|2|2,0:0|0:0|0:0,0:0:0:0:
176,200,328363,2,0,B|36:236,2,144,4|2|2,0:0|0:0|0:0,0:0:0:0:
240,128,329308,5,6,0:0:0:0:
334,144,329544,1,0,0:0:0:0:
367,234,329780,1,8,0:0:0:0:
367,234,330253,1,0,0:0:0:0:
305,308,330489,1,0,0:0:0:0:
211,291,330725,1,8,0:0:0:0:
178,201,330962,1,0,0:0:0:0:
392,272,463481,6,0,B|324:312|256:268|256:268|188:312|120:272,1,288,0|2,0:0|0:2,0:0:0:0:
