osu file format v14

[General]
AudioFilename: Draw with Me - Daniel James.mp3
AudioLeadIn: 0
PreviewTime: 65661
Countdown: 0
SampleSet: Soft
StackLeniency: 0.7
Mode: 3
LetterboxInBreaks: 0
SpecialStyle: 0
WidescreenStoryboard: 1

[Editor]
DistanceSpacing: 0.8
BeatDivisor: 4
GridSize: 8
TimelineZoom: 1.4

[Metadata]
Title:Draw with Me
TitleUnicode:Draw with Me
Artist:Daniel James
ArtistUnicode:Daniel James
Creator:Awang411
Version:Easy
Source:Draw With Me
Tags:sad
BeatmapID:666174
BeatmapSetID:295999

[Difficulty]
HPDrainRate:8
CircleSize:6
OverallDifficulty:8
ApproachRate:5
SliderMultiplier:1.4
SliderTickRate:1

[Events]
//Background and Video events
0,0,"draw with me 2.jpg",0,0
//Break Periods
//Storyboard Layer 0 (Background)
//Storyboard Layer 1 (Fail)
//Storyboard Layer 2 (Pass)
//Storyboard Layer 3 (Foreground)
//Storyboard Sound Samples

[TimingPoints]
23995,666.666666666667,4,2,0,30,1,0

[HitObjects]
42,192,23994,5,4,0:0:0:0:
384,192,23994,1,2,0:0:0:0:
469,192,26661,1,2,0:0:0:0:
298,192,28619,1,2,0:0:0:0:
384,192,29328,1,0,0:0:0:0:
42,192,29328,1,2,0:0:0:0:
213,192,30328,1,2,0:0:0:0:
42,192,33994,1,2,0:0:0:0:
384,192,34661,1,0,0:0:0:0:
213,192,34661,1,2,0:0:0:0:
469,192,35994,1,2,0:0:0:0:
384,192,38661,1,2,0:0:0:0:
213,192,38994,1,2,0:0:0:0:
42,192,39328,1,2,0:0:0:0:
128,192,39994,1,0,0:0:0:0:
384,192,39994,1,2,0:0:0:0:
42,192,42661,1,2,0:0:0:0:
469,192,45328,1,0,0:0:0:0:
384,192,45328,1,0,0:0:0:0:
128,192,45328,1,2,0:0:0:0:
469,192,49328,1,2,0:0:0:0:
384,192,49994,1,2,0:0:0:0:
42,192,50661,1,2,0:0:0:0:
298,192,50661,1,2,0:0:0:0:
469,192,51661,1,2,0:0:0:0:
384,192,52661,1,2,0:0:0:0:
42,192,55328,1,2,0:0:0:0:
128,192,55995,1,2,0:0:0:0:
469,192,55995,1,0,0:0:0:0:
384,192,56995,1,0,0:0:0:0:
469,192,57995,1,0,0:0:0:0:
384,192,59995,1,2,0:0:0:0:
213,192,60661,1,2,0:0:0:0:
128,192,61328,1,2,0:0:0:0:
384,192,61328,1,0,0:0:0:0:
469,192,62328,1,2,0:0:0:0:
42,192,63328,1,2,0:0:0:0:
298,192,65495,128,0,66661:0:0:0:0:
42,192,66661,128,2,67661:0:0:0:0:
384,192,66661,1,4,0:0:0:0:
213,192,67661,128,2,71995:0:0:0:0:
469,192,67661,1,0,0:0:0:0:
42,192,69661,1,2,0:0:0:0:
298,192,70661,1,2,0:0:0:0:
469,192,71328,1,2,0:0:0:0:
469,192,71995,128,2,72995:0:0:0:0:
42,192,71995,1,0,0:0:0:0:
384,192,72995,1,2,0:0:0:0:
128,192,72995,128,0,77328:0:0:0:0:
384,192,75328,1,2,0:0:0:0:
298,192,75995,1,2,0:0:0:0:
213,192,76995,1,2,0:0:0:0:
42,192,77328,1,0,0:0:0:0:
298,192,77328,128,2,78328:0:0:0:0:
213,192,78328,128,2,79328:0:0:0:0:
128,192,78328,1,0,0:0:0:0:
469,192,78661,1,2,0:0:0:0:
128,192,79328,128,0,79995:0:0:0:0:
42,192,79995,128,0,82661:0:0:0:0:
213,192,80661,1,2,0:0:0:0:
298,192,81328,1,2,0:0:0:0:
384,192,81995,1,2,0:0:0:0:
469,192,82661,1,0,0:0:0:0:
298,192,82661,128,2,85328:0:0:0:0:
128,192,85328,128,2,87995:0:0:0:0:
469,192,86661,128,0,87995:0:0:0:0:
42,192,86661,1,2,0:0:0:0:
298,192,87328,1,2,0:0:0:0:
384,192,87995,1,4,0:0:0:0:
213,192,87995,128,2,88995:0:0:0:0:
469,192,88995,128,2,89995:0:0:0:0:
298,192,88995,1,0,0:0:0:0:
213,192,89995,1,0,0:0:0:0:
128,192,89995,128,2,91995:0:0:0:0:
384,192,91995,128,2,92661:0:0:0:0:
298,192,91995,1,0,0:0:0:0:
42,192,92328,1,2,0:0:0:0:
213,192,92661,128,2,93328:0:0:0:0:
469,192,92661,1,0,0:0:0:0:
298,192,93328,1,0,0:0:0:0:
42,192,93328,128,2,94328:0:0:0:0:
384,192,94328,128,2,95328:0:0:0:0:
213,192,94328,1,0,0:0:0:0:
128,192,95328,128,2,97328:0:0:0:0:
469,192,97328,128,2,97995:0:0:0:0:
213,192,97328,1,0,0:0:0:0:
42,192,97995,1,0,0:0:0:0:
298,192,97995,128,2,98661:0:0:0:0:
128,192,98661,1,0,0:0:0:0:
213,192,98661,128,2,102661:0:0:0:0:
469,192,99995,128,0,103995:0:0:0:0:
298,192,102661,128,2,103328:0:0:0:0:
42,192,102661,1,0,0:0:0:0:
213,192,103328,128,2,103995:0:0:0:0:
128,192,103328,1,0,0:0:0:0:
384,192,103995,1,0,0:0:0:0:
42,192,103995,128,2,106661:0:0:0:0:
298,192,104661,1,2,0:0:0:0:
213,192,105328,1,2,0:0:0:0:
128,192,105995,1,2,0:0:0:0:
469,192,106661,1,0,0:0:0:0:
213,192,106661,128,2,109328:0:0:0:0:
298,192,107328,1,2,0:0:0:0:
128,192,107995,1,2,0:0:0:0:
42,192,108661,1,2,0:0:0:0:
298,192,109328,128,2,111995:0:0:0:0:
469,192,109328,1,0,0:0:0:0:
128,192,109661,1,2,0:0:0:0:
42,192,110661,1,2,0:0:0:0:
213,192,111661,1,2,0:0:0:0:
469,192,111995,128,2,114661:0:0:0:0:
128,192,111995,1,0,0:0:0:0:
213,192,113328,1,2,0:0:0:0:
298,192,113995,1,2,0:0:0:0:
42,192,114661,128,0,117328:0:0:0:0:
384,192,114661,1,2,0:0:0:0:
298,192,115661,1,2,0:0:0:0:
298,192,116661,1,2,0:0:0:0:
128,192,116995,1,2,0:0:0:0:
213,192,117328,128,2,119995:0:0:0:0:
469,192,117328,1,0,0:0:0:0:
42,192,118328,1,2,0:0:0:0:
298,192,118661,128,0,119995:0:0:0:0:
128,192,118661,1,2,0:0:0:0:
469,192,119328,1,2,0:0:0:0:
42,192,119995,128,2,125328:0:0:0:0:
384,192,120078,1,0,0:0:0:0:
469,192,120161,1,0,0:0:0:0:
469,192,125328,128,0,149328:0:0:0:0:
128,192,128161,1,0,0:0:0:0:
213,192,128217,1,0,0:0:0:0:
298,192,128328,1,0,0:0:0:0:
384,192,128439,1,0,0:0:0:0:
298,192,131661,1,0,0:0:0:0:
298,192,134203,1,0,0:0:0:0:
42,192,134203,1,0,0:0:0:0:
213,192,135286,1,0,0:0:0:0:
128,192,136370,1,0,0:0:0:0:
42,192,137995,1,0,0:0:0:0:
213,192,138078,1,0,0:0:0:0:
384,192,138161,1,0,0:0:0:0:
298,192,139245,1,0,0:0:0:0:
42,192,142995,1,0,0:0:0:0:
213,192,143050,1,0,0:0:0:0:
384,192,143106,1,0,0:0:0:0:
298,192,144245,1,0,0:0:0:0:
384,192,148120,1,0,0:0:0:0:
42,192,149203,1,0,0:0:0:0:
