osu file format v9

[General]
AudioFilename: Winter_Wrap_Up.mp3
AudioLeadIn: 0
PreviewTime: 40728
Countdown: 0
SampleSet: Soft
StackLeniency: 0.7
Mode: 1
LetterboxInBreaks: 0

[Editor]
Bookmarks: 21742,51627,84742,117833,149568,171755
DistanceSpacing: 2
BeatDivisor: 4
GridSize: 32

[Metadata]
Title:Winter Wrap Up
Artist:Daniel Ingram
Creator:Odaril
Version:Taiko Poni
Source:My Little Pony: Friendship is Magic
Tags:pony Hasbro MLP MLP:FiM FiM Spike Twilight Sparkle Rainbow Dash Pinkie Pie Fluttershy Rarity Applejack cartoon AppleBloom SugarBerry Cherilee Rebecca Shoichet Ashleigh Ball Andrea Libman Shannon Chan-Kent Kazumi Evans

[Difficulty]
HPDrainRate:5
CircleSize:3
OverallDifficulty:5
ApproachRate:5
SliderMultiplier:1.4
SliderTickRate:2

[Events]
//Background and Video events
Video,850,"Winter_Wrap_Up.flv"
0,0,"Taikobackground.png"
//Break Periods
//Storyboard Layer 0 (Background)
//Storyboard Layer 1 (Fail)
//Storyboard Layer 2 (Pass)
//Storyboard Layer 3 (Foreground)
//Storyboard Sound Samples
//Background Colour Transformations
3,100,163,162,255

[TimingPoints]
1102,625,4,2,1,70,1,0
21999,535.714285714286,4,2,1,70,1,0
40750,-100,4,2,2,70,0,0
41278,517.241379310345,4,2,2,70,1,1
48772,-100,4,2,2,70,0,1
49032,-100,4,2,2,70,0,1
51619,-100,4,2,2,70,0,0
68629,-100,4,2,2,53,0,0
68758,-100,4,2,2,56,0,0
68888,-100,4,2,2,59,0,0
69017,-100,4,2,2,62,0,0
69146,-100,4,2,2,65,0,0
70243,-100,4,2,2,70,0,1
84726,-100,4,2,2,60,0,0
103346,-100,4,2,2,60,0,0
116654,-100,4,2,2,65,0,0
117829,535.714285714286,4,2,2,65,1,0
125813,535.714285714286,4,2,2,65,1,0
126400,535.714285714286,4,2,2,65,1,0
132690,-100,4,2,2,50,0,0
134971,517.241379310345,4,1,2,50,1,1
149453,625,4,2,2,60,1,0
169426,566.037735849057,4,2,2,60,1,0
171755,517.241379310345,4,2,2,60,1,1
182098,-100,4,2,2,60,0,0

[Colours]
Combo1 : 0,0,255
Combo2 : 255,0,0

[HitObjects]
192,192,21999,1,0
192,192,23070,1,0
192,192,24141,1,0
192,192,25213,1,0
192,192,26016,1,0
192,192,26284,1,0
320,192,26820,5,8
192,192,27356,5,0
320,192,27891,5,8
192,192,28427,5,0
320,192,28963,5,8
192,192,29499,5,0
192,192,29766,1,0
320,192,30034,5,8
192,192,30570,5,0
320,192,31106,5,8
192,192,31641,5,0
192,192,31909,1,0
320,192,32177,5,8
192,192,32445,5,0
192,192,32713,1,0
320,192,33249,5,8
192,192,33784,5,0
192,192,34052,1,0
320,192,34186,5,8
320,192,34454,1,8
192,192,34588,5,0
192,192,34856,1,0
320,192,35391,5,8
192,192,35927,5,0
320,192,36463,5,8
192,192,36999,5,0
320,192,37534,5,8
192,192,38070,5,0
192,192,38472,1,0
320,192,38874,5,8
192,192,39141,5,0
192,96,39409,2,0,B|96:96|96:96|96:138,1,140
192,192,40213,1,4
192,192,41278,1,4
192,192,41536,1,0
320,192,41795,5,12
192,192,42053,5,0
192,192,42312,1,4
192,192,42571,1,0
320,192,42829,5,12
192,192,43088,5,0
192,192,43346,1,0
320,192,43605,5,8
320,192,43864,1,8
320,192,43993,1,8
192,192,44122,5,0
320,192,44381,5,8
192,192,44510,5,0
320,192,44640,5,8
192,192,44898,5,0
192,192,45028,1,0
320,192,45157,5,8
192,192,45415,5,4
192,192,45674,1,0
320,192,45933,5,12
192,192,46191,5,0
192,192,46450,1,4
192,192,46709,1,0
320,192,46967,5,12
192,192,47226,5,0
192,192,47484,1,0
320,192,47743,5,8
320,192,47872,1,8
320,192,48002,1,8
192,192,48260,5,0
320,192,48519,5,8
320,192,48778,1,8
192,192,49036,5,0
320,192,49295,5,8
192,192,49553,5,4
192,192,49812,1,0
192,192,49941,1,0
192,192,50071,1,0
192,192,50329,1,0
192,192,50588,1,0
192,192,50846,1,0
192,192,51105,1,0
192,192,51622,1,4
320,192,51881,5,8
192,192,52140,5,0
320,192,52398,5,8
192,192,52657,5,0
320,192,52915,5,8
192,192,53174,5,0
192,192,53303,1,0
320,192,53433,5,8
192,192,53691,5,0
320,192,53950,5,8
192,192,54209,5,0
192,192,54338,1,0
320,192,54467,5,8
192,192,54726,5,0
320,192,54984,5,8
192,192,55243,5,0
192,192,55372,1,0
320,192,55502,5,8
192,192,55760,5,0
320,192,56019,5,8
192,192,56278,5,0
320,192,56536,5,8
192,192,56795,5,0
320,192,57053,5,8
192,192,57312,5,0
192,192,57441,1,0
320,192,57571,5,8
192,192,57829,5,0
320,192,58088,5,8
192,192,58346,5,0
192,192,58476,1,0
320,192,58605,5,8
192,192,58864,5,0
320,192,59122,5,8
192,192,59381,5,0
192,192,59510,1,0
320,192,59640,5,8
192,192,59898,5,4
320,192,60157,5,8
192,192,60286,5,0
320,192,60674,5,8
192,192,60933,5,0
320,192,61191,5,8
192,192,61321,5,0
320,192,61709,5,8
320,192,61967,1,8
192,192,62226,5,0
192,192,62355,1,0
320,192,62484,5,8
192,192,62743,5,0
320,192,63002,5,8
320,192,63131,1,8
192,192,63260,5,0
192,192,63390,1,0
320,192,63519,5,8
320,192,63778,1,8
320,192,63907,1,8
192,192,64036,5,0
320,192,64295,5,8
192,192,64424,5,0
320,192,64812,5,8
192,192,65071,5,0
320,192,65329,5,8
192,192,65459,5,0
320,192,65846,5,8
192,192,66105,5,0
320,192,66364,5,8
192,192,66622,5,0
192,192,66752,1,0
320,192,66881,5,8
192,192,67140,5,0
320,192,67398,5,8
192,192,67657,5,0
192,192,67786,1,0
320,192,67915,5,8
192,192,68174,5,0
320,192,68433,5,8
192,192,68691,5,0
320,192,68821,5,8
192,192,68950,5,0
192,192,69079,1,0
320,192,69209,5,8
352,96,69467,2,0,B|416:96|416:96|416:180,1,140
192,192,70243,5,4
192,192,70502,1,0
320,192,70760,5,12
192,192,71019,5,0
192,192,71277,1,4
192,192,71536,1,0
320,192,71795,5,12
192,192,72053,5,0
192,192,72312,1,0
320,192,72571,5,8
320,192,72829,1,8
320,192,72959,1,8
192,192,73088,5,0
320,192,73346,5,8
192,192,73476,5,0
320,192,73605,5,8
192,192,73864,5,0
192,192,73993,1,0
320,192,74122,5,8
192,192,74381,5,4
192,192,74640,1,0
320,192,74898,5,12
192,192,75157,5,0
192,192,75415,1,4
192,192,75674,1,0
320,192,75933,5,12
192,192,76191,5,0
192,192,76450,1,0
320,192,76709,5,8
320,192,76838,1,8
320,192,76967,1,8
192,192,77226,5,0
320,192,77484,5,8
320,192,77743,1,8
192,192,78002,5,0
320,192,78260,5,8
192,192,78519,5,4
192,192,78777,1,0
320,192,79036,5,12
192,192,79295,5,0
192,192,79553,1,4
192,192,79812,1,0
320,192,80071,5,12
192,192,80329,5,0
192,192,80588,1,0
320,192,80846,5,8
320,192,80976,1,8
192,192,81105,5,0
320,192,81364,5,8
320,192,81622,1,8
192,192,81881,5,0
192,192,82010,1,0
320,192,82140,5,8
192,192,82398,5,0
192,192,82657,1,4
192,192,82915,1,0
192,192,83045,1,0
192,192,83174,1,0
192,192,83433,1,0
192,192,83691,1,0
192,192,83950,1,0
192,192,84209,1,0
192,192,84726,1,4
320,192,84984,5,8
192,192,85243,5,0
320,192,85502,5,8
192,192,85760,5,0
320,192,86019,5,8
192,192,86277,5,0
192,192,86407,1,0
320,192,86536,5,8
192,192,86795,5,0
320,192,87053,5,8
192,192,87183,5,0
192,192,87312,1,0
320,192,87571,5,8
192,192,87829,5,0
320,192,88088,5,8
192,192,88217,5,0
192,192,88346,1,0
320,192,88605,5,8
192,192,88864,5,0
320,192,89122,5,8
192,192,89381,5,0
320,192,89640,5,8
192,192,89898,5,0
320,192,90157,5,8
192,192,90415,5,0
192,192,90545,1,0
320,192,90674,5,8
192,192,90933,5,0
320,192,91191,5,8
192,192,91321,5,0
192,192,91450,1,0
320,192,91709,5,8
192,192,91967,5,0
192,192,92096,1,0
320,192,92226,5,8
192,192,92484,5,0
320,192,92743,5,8
192,192,93002,5,4
320,192,93260,5,8
192,192,93390,5,0
192,192,93519,1,0
192,192,93648,1,0
320,192,93777,5,8
192,192,94036,5,0
320,192,94295,5,8
192,192,94424,5,0
192,192,94553,1,0
192,192,94683,1,0
320,192,94812,5,8
192,192,95071,5,0
320,192,95329,5,8
192,192,95588,5,0
320,192,95846,5,8
192,192,96105,5,0
320,192,96364,5,8
192,192,96493,5,0
192,192,96752,1,0
320,192,96881,5,8
192,192,97140,5,4
320,192,97398,5,8
192,192,97527,5,0
192,192,97657,1,0
192,192,97786,1,0
320,192,97915,5,8
192,192,98174,5,0
320,192,98433,5,8
192,192,98562,5,0
192,192,98691,1,0
192,192,98821,1,0
320,192,98950,5,8
192,192,99209,5,0
320,192,99467,5,8
192,192,99984,5,0
320,192,100243,5,12
320,192,100631,1,12
192,192,101019,5,4
192,192,101277,1,0
320,192,101536,5,8
192,192,101795,5,0
320,192,101924,5,8
192,192,102053,5,0
192,192,102183,1,0
320,192,102312,5,8
320,96,102571,2,0,B|416:96|416:96|416:160,1,140
192,192,103346,5,0
320,192,103864,5,8
192,192,104381,5,0
320,192,104898,5,8
192,192,105415,5,0
320,192,105933,5,8
192,192,106191,5,0
192,192,106450,1,0
320,192,106709,5,8
320,192,106967,1,8
192,192,107484,5,0
320,192,108002,5,8
192,192,108519,5,0
320,192,109036,5,8
192,192,109553,5,0
320,192,110071,5,8
192,192,110329,5,0
192,192,110588,1,0
320,192,110846,5,8
320,192,111105,1,8
192,192,111622,5,4
320,192,112140,5,8
192,192,112398,5,4
192,192,112657,1,4
320,192,113174,5,8
192,192,113691,5,4
320,192,114209,5,8
192,192,114467,5,4
192,192,114726,1,4
320,192,114984,5,8
320,192,115243,1,8
320,192,115760,1,8
192,192,116019,5,0
320,192,116277,5,8
320,192,116536,1,8
192,192,116795,5,0
192,192,116924,1,0
192,192,117053,1,0
192,192,117183,1,0
192,192,117312,1,0
192,192,117441,1,0
192,192,117571,1,0
192,192,117700,1,0
192,192,117829,1,0
192,192,118096,1,0
320,192,118364,5,8
320,192,118632,1,8
192,192,118900,5,0
192,192,119168,1,0
320,192,119302,5,8
320,192,119436,1,8
320,192,119703,1,8
192,192,119971,5,0
192,192,120239,1,0
320,192,120507,5,8
320,192,120775,1,8
320,192,120909,1,8
192,192,121043,5,0
320,192,121311,5,8
192,192,121445,5,0
320,192,121578,5,8
192,192,121712,5,0
192,192,121846,1,0
192,192,121980,1,0
192,192,122114,1,0
192,192,122382,1,0
320,192,122650,5,8
320,192,122918,1,8
192,192,123186,5,0
192,192,123453,1,0
320,192,123721,5,8
320,192,123989,1,8
192,192,124257,5,0
192,192,124525,1,0
320,192,124793,5,8
320,192,124927,1,8
320,192,125061,1,8
192,192,125195,5,0
320,192,125462,5,8
320,192,125596,1,8
320,192,125813,1,0
320,192,125946,1,0
320,192,126080,1,0
192,192,126400,5,0
192,192,126667,1,0
320,192,126935,5,8
320,192,127203,1,8
192,192,127471,5,0
320,192,127605,5,8
192,192,127739,5,0
320,192,127873,5,8
320,192,128141,1,8
320,192,128274,1,8
192,192,128542,5,0
320,192,128676,5,8
192,192,128810,5,0
320,192,129078,5,8
320,192,129346,1,8
192,192,129480,5,0
320,192,129748,5,8
320,192,129882,1,8
192,192,130016,5,0
320,192,130283,5,8
320,192,130417,1,8
192,192,130685,5,0
192,192,130953,1,0
320,192,131221,5,8
320,192,131489,1,8
192,192,131757,5,0
192,192,132024,1,0
320,192,132292,5,8
320,192,132560,1,8
320,192,132828,1,8
192,192,132962,5,0
192,192,133096,1,0
192,192,133230,1,0
320,192,133364,5,8
192,192,133498,5,0
192,192,133632,1,0
192,192,133766,1,0
320,192,133899,5,8
192,192,134033,5,0
192,192,134167,1,0
192,192,134301,1,0
320,192,134435,5,8
192,192,134569,5,0
320,192,134703,5,8
192,192,134971,5,4
192,192,135229,1,0
320,192,135488,5,12
192,192,135746,5,0
192,192,136005,1,4
192,192,136264,1,0
320,192,136522,5,12
192,192,136781,5,0
192,192,137039,1,4
320,192,137298,5,8
320,192,137557,1,8
320,192,137686,1,8
192,192,137815,5,0
320,192,138074,5,8
320,192,138333,1,8
192,192,138462,5,0
192,192,138591,1,0
320,192,138850,5,8
192,192,139108,5,4
192,192,139367,1,0
320,192,139626,5,12
192,192,139884,5,0
192,192,140143,1,4
192,192,140402,1,0
320,192,140660,5,12
192,192,140919,5,0
192,192,141177,1,4
320,192,141436,5,8
192,192,141565,5,0
320,192,141695,5,8
192,192,141953,5,0
320,192,142212,5,8
320,192,142471,1,8
192,192,142600,5,0
192,192,142729,1,0
320,192,142988,5,8
192,192,143246,5,4
192,192,143505,1,0
320,192,143764,5,12
192,192,144022,5,0
192,192,144281,1,4
192,192,144539,1,0
320,192,144798,5,12
192,192,145057,5,0
192,192,145315,1,4
320,192,145574,5,8
320,192,145703,1,8
320,192,145833,1,8
320,192,146091,1,8
320,192,146350,1,8
192,192,146608,5,0
320,192,146867,5,8
192,192,147126,5,0
192,192,147384,1,4
192,192,147643,1,0
192,192,147772,1,0
192,192,147902,1,0
192,192,148160,1,0
192,192,148419,1,0
192,192,148677,1,0
192,192,148936,1,0
192,192,149453,1,0
192,192,150703,1,0
192,192,151953,1,0
192,192,153203,1,0
192,192,154453,1,0
192,192,155703,1,0
192,192,156015,1,0
192,192,156328,1,0
192,192,156640,1,0
192,192,156953,1,0
192,192,158203,1,0
192,192,159453,1,0
320,192,160703,5,8
320,192,161953,1,8
320,192,163203,1,8
192,192,164453,5,0
320,192,165703,5,8
320,192,166953,1,8
320,192,168203,1,8
320,192,169426,1,8
192,192,169567,5,0
192,192,169709,1,0
320,192,169850,5,8
192,192,169992,5,0
192,192,170133,1,0
320,192,170275,5,8
192,192,170416,5,0
192,192,170558,1,0
320,192,170699,5,8
192,192,170841,5,0
192,192,170982,1,0
320,192,171124,5,8
192,192,171265,5,0
320,192,171407,5,8
192,192,171755,5,4
192,192,172013,1,0
320,192,172272,5,12
192,192,172530,5,0
192,192,172789,1,4
192,192,173048,1,0
320,192,173306,5,12
192,192,173565,5,0
192,192,173823,1,4
320,192,174082,5,8
320,192,174341,1,8
192,192,174470,5,0
192,192,174599,1,0
192,192,174858,1,0
320,192,175117,5,12
320,192,175375,1,12
320,192,175634,1,12
192,192,175892,5,4
192,192,176151,1,0
320,192,176410,5,12
192,192,176668,5,0
192,192,176927,1,4
192,192,177186,1,0
320,192,177444,5,12
192,192,177703,5,0
192,192,177961,1,4
320,192,178220,5,8
192,192,178349,5,0
320,192,178479,5,8
192,192,178737,5,0
320,192,178996,5,8
320,192,179255,1,8
192,192,179513,5,0
192,192,179642,1,0
320,192,179772,5,8
192,192,180030,5,4
192,192,180289,1,0
320,192,180548,5,12
192,192,180806,5,0
192,192,181065,1,4
192,192,181323,1,0
320,192,181582,5,12
192,192,181841,5,0
192,192,182099,1,4
320,192,182358,5,8
320,192,182487,1,8
192,192,182617,5,0
320,192,182875,5,8
320,192,183134,1,8
192,192,183392,5,0
192,192,183522,1,0
320,192,183651,5,8
192,192,183910,5,0
192,192,184168,1,4
320,192,184427,5,8
320,192,184556,1,8
192,192,184686,5,0
320,192,184944,5,8
320,192,185203,1,8
192,192,185461,5,0
192,192,185591,1,0
320,192,185720,5,8
192,192,185979,5,0
192,192,186237,1,4
320,192,186496,5,8
320,192,186625,1,8
192,192,186755,5,0
320,192,187013,5,8
320,192,187272,1,8
192,192,187530,5,0
192,192,187660,1,0
320,192,187789,5,8
192,192,188048,5,0
256,192,188306,12,0,192444
