osu file format v9

[General]
AudioFilename: Winter_Wrap_Up.mp3
AudioLeadIn: 0
PreviewTime: 40728
Countdown: 0
SampleSet: Soft
StackLeniency: 0.7
Mode: 0
LetterboxInBreaks: 0

[Editor]
Bookmarks: 21742,51627,84742,117833,135997,149568,171755
DistanceSpacing: 1
BeatDivisor: 4
GridSize: 16

[Metadata]
Title:Winter Wrap Up
Artist:Daniel Ingram
Creator:Odaril
Version:Normal
Source:My Little Pony: Friendship is Magic
Tags:pony Hasbro MLP MLP:FiM FiM Spike Twilight Sparkle Rainbow Dash Pinkie Pie Fluttershy Rarity Applejack cartoon AppleBloom SugarBerry Cherilee Rebecca Shoichet Ashleigh Ball Andrea Libman Shannon Chan-Kent Kazumi Evans

[Difficulty]
HPDrainRate:3
CircleSize:3
OverallDifficulty:3
ApproachRate:4
SliderMultiplier:1.04
SliderTickRate:2

[Events]
//Background and Video events
0,0,"background.png"
Video,850,"Winter_Wrap_Up.flv"
//Break Periods
2,149580,168106
//Storyboard Layer 0 (Background)
//Storyboard Layer 1 (Fail)
//Storyboard Layer 2 (Pass)
//Storyboard Layer 3 (Foreground)
//Storyboard Sound Samples
//Background Colour Transformations
3,100,163,162,255

[TimingPoints]
1102,625,4,2,1,70,1,0
21999,535.714285714286,4,2,1,70,1,0
40750,-100,4,2,2,70,0,0
41278,517.241379310345,4,2,2,70,1,1
48772,-66.6666666666667,4,2,2,70,0,1
49032,-100,4,2,2,70,0,1
51619,-80,4,2,2,70,0,0
68629,-80,4,2,2,53,0,0
68758,-80,4,2,2,56,0,0
68888,-80,4,2,2,59,0,0
69017,-80,4,2,2,62,0,0
69146,-80,4,2,2,65,0,0
70243,-100,4,2,2,70,0,1
84726,-80,4,2,2,60,0,0
103346,-100,4,1,2,60,0,0
116654,-100,4,2,2,65,0,0
117829,535.714285714286,4,2,2,65,1,0
125813,535.714285714286,4,2,2,65,1,0
126400,535.714285714286,4,2,2,65,1,0
132690,-100,4,2,2,50,0,0
134971,517.241379310345,4,1,2,50,1,1
149453,625,4,2,2,60,1,0
169426,566.037735849057,4,2,2,60,1,0
171755,517.241379310345,4,2,2,60,1,1
182098,-100,4,2,2,60,0,0

[Colours]
Combo1 : 179,43,114
Combo2 : 149,90,184
Combo3 : 211,138,236
Combo4 : 255,99,23
Combo5 : 254,103,174
Combo6 : 243,211,61
Combo7 : 162,163,172
Combo8 : 120,203,243

[HitObjects]
138,121,21999,1,0
340,75,23070,1,0
383,288,24141,1,0
177,318,25213,2,0,B|118:316|89:273,1,104
71,163,26284,5,0
245,66,27356,2,0,B|357:44|430:135,1,208
423,344,29499,1,0
219,298,30570,101,0
116,316,31106,1,2
164,223,31641,2,0,B|167:134|243:100,1,156,0|2
293,86,32713,1,0
396,68,33249,1,2
348,161,33784,2,0,B|348:248|269:284,1,156,0|2
219,298,34856,5,0
130,244,35391,1,2
221,195,35927,2,0,B|273:179|300:132,1,104,0|2
203,92,36999,1,0
297,48,37534,2,0,B|348:26|396:55,2,104,2|0|2
203,92,39141,102,2,B|155:192|204:292,1,208,2|4
403,232,41278,53,4
308,188,41795,1,6
204,188,42312,5,4
109,232,42829,1,6
197,286,43346,102,0,B|244:315|298:303,1,104,4|6
346,288,44122,1,2
392,265,44381,1,4
443,175,44898,1,6
362,108,45415,101,4
308,196,45933,1,6
204,196,46450,69,4
150,108,46967,1,6
91,194,47484,21,4
139,285,48002,1,6
242,284,48519,1,4
253,233,48778,54,0,B|320:191,1,77.9999976754189,2|6
400,126,49553,1,4
308,76,50071,1,2
205,95,50588,2,0,B|151:119,2,52,0|0|2
334,86,51622,5,4
395,107,51881,2,0,B|442:161|416:228,1,129.999998062849,2|2
371,275,52657,1,0
313,304,52915,2,0,B|248:328|185:306,1,129.999998062849,2|2
135,264,53691,101,4
119,201,53950,1,2
194,94,54467,1,2
299,169,54984,2,0,B|334:192|375:172,2,64.9999990314245,0|0|2
234,161,55760,5,4
168,159,56019,2,0,B|99:186|84:252,1,129.999998062849,2|0
78,315,56795,2,0,B|135:348|203:329,1,129.999998062849,2|0
262,301,57571,1,2
305,267,57829,102,0,B|319:237|356:231,1,64.9999990314245,4|2
452,143,58605,1,0
337,81,59122,2,0,B|311:60|276:62,2,64.9999990314245,2|0|2
358,142,59898,6,0,B|362:215|317:266,1,129.999998062849,4|0
256,269,60674,1,2
200,234,60933,2,0,B|164:167|202:110,1,129.999998062849,4|0
256,77,61709,1,2
320,78,61967,102,4,B|388:78|434:134,1,129.999998062849,6|0
439,197,62743,1,2
384,232,63002,2,0,B|345:175|272:183,1,129.999998062849,4|2
330,298,64036,6,0,B|274:343|208:312,1,129.999998062849,4|0
170,259,64812,1,2
141,200,65071,2,0,B|114:131|166:76,1,129.999998062849,4|0
231,78,65846,1,0
252,139,66105,70,0,B|356:222,1,129.999998062849,6|2
223,216,67140,2,0,B|314:314,1,129.999998062849,4|2
256,192,67915,12,0,69209
379,158,70243,5,4
319,48,70760,1,6
193,48,71277,37,4
133,158,71795,1,6
236,171,72312,70,0,B|294:170|316:224,1,104,4|6
317,276,73088,1,2
280,313,73346,2,0,B|227:336|178:307,1,104,4|6
166,205,74381,37,4
194,83,74898,1,6
318,83,75415,69,4
346,205,75933,1,6
246,235,76450,38,4,B|264:293|319:305,1,104,4|6
391,232,77484,2,0,B|408:209|437:209,2,52,4|2|6
303,174,78519,69,4
194,236,79036,1,6
318,236,79553,37,4
209,174,80071,1,6
290,109,80588,69,4
245,82,80846,1,0
193,78,81105,2,0,B|131:95|119:148,1,104,2|0
115,196,81881,1,2
134,244,82140,1,2
216,307,82657,37,4
316,278,83174,1,0
369,188,83691,2,0,B|400:176|424:190,2,52
240,211,84726,53,4
158,109,85243,1,2
111,225,85760,1,0
139,283,86019,2,0,B|200:316|268:308,1,129.999998062849,0|2
328,295,86795,101,4
405,190,87312,1,2
319,92,87829,2,0,B|344:69|380:73,2,64.9999990314245,0|0|2
266,130,88605,1,0
201,135,88864,6,0,B|137:117|73:140,1,129.999998062849,2|0
150,244,89898,2,0,B|217:256|279:240,1,129.999998062849,2|0
339,215,90674,1,2
393,179,90933,101,4
423,305,91450,1,2
294,325,91967,2,0,B|257:328|235:353,2,64.9999990314245,0|0|2
224,215,93002,6,0,B|184:183|132:181,2,97.4999985471368,4|0|2
288,215,94036,2,0,B|328:183|380:181,2,97.4999985471368,4|0|2
256,272,95071,101,4
256,141,95588,1,0
196,117,95846,1,0
132,111,96105,2,0,B|93:165|109:237,1,129.999998062849,2|2
223,295,97140,6,0,B|224:241|190:204,2,97.4999985471368,4|0|2
289,295,98174,2,0,B|288:241|322:204,2,97.4999985471368,4|0|2
256,351,99209,1,4
256,192,99984,12,0,102312
192,192,103346,5,0
257,85,103864,1,8
320,192,104381,5,0
257,85,104898,1,8
137,121,105415,5,0
142,245,105933,1,8
256,293,106450,1,0
315,273,106709,2,8,B|364:296,1,52
382,193,107484,5,0
319,85,108002,1,8
193,85,108519,5,0
130,193,109036,1,8
233,201,109553,6,0,B|288:224|276:285,1,104,0|8
181,327,110588,1,0
140,294,110846,2,8,B|86:286,1,52
131,191,111622,5,0
186,102,112140,2,0,B|167:83|132:84,2,52,8|4|4
275,154,113174,1,8
362,211,113691,5,4
280,275,114209,2,0,B|249:281|240:311,2,52,8|4|4
330,288,114984,2,8,B|381:306,1,52
389,202,115760,5,12
337,111,116277,1,0
234,93,116795,2,0,B|268:46,2,52
131,91,117829,70,12,B|83:114,1,52
157,251,118900,2,12,B|205:228,1,52,12|12
358,255,119971,22,12,B|404:232,1,52,12|12
356,83,121043,2,12,B|324:49|285:55,2,78
398,112,122114,86,12,B|441:142,1,52
343,264,123186,2,12,B|300:234,1,52,12|12
147,265,124257,22,12,B|104:235,1,52,12|12
138,109,125195,2,12,B|159:76|213:72,1,78,12|12
349,107,126400,86,12,B|349:165,1,52
250,191,127203,1,2
213,227,127471,2,12,B|213:283,1,52
123,226,128274,1,0
87,188,128542,22,12,B|119:136,1,52
224,74,129480,2,12,B|272:49|326:76,1,104
416,166,130685,86,12,B|415:222,1,52
267,169,131757,2,12,B|266:225,1,52
256,192,132828,12,0,134435
356,188,134971,5,4
319,68,135488,1,12
193,68,136005,5,4
156,188,136522,1,12
115,305,137039,6,0,B|152:348|213:336,1,104,4|12
272,254,138074,2,0,B|303:257|317:282,2,52,4|8|12
171,226,139108,5,4
204,127,139626,1,12
308,127,140143,5,4
341,226,140660,1,12
410,148,141177,6,0,B|419:92|381:53,1,104,4|12
276,44,142212,1,4
224,51,142471,1,8
177,72,142729,1,12
172,177,143246,5,4
194,299,143764,1,12
318,299,144281,5,4
340,177,144798,1,12
372,56,145315,6,4,B|314:62|276:98,1,104,4|12
168,156,146350,2,0,B|119:133,2,52,4|8|12
264,235,147384,5,12
375,290,147902,1,2
446,190,148419,2,0,B|447:135,2,52,0|0|2
256,192,169426,12,0,171124
123,116,171755,21,4
183,248,172272,1,12
329,248,172789,5,4
389,116,173306,1,12
256,176,173823,102,0,B|256:64,1,104,4|12
175,138,174858,1,4
143,180,175117,2,8,B|96:227,2,52,8|12|8
192,195,175892,53,4
183,49,176410,1,12
329,49,176927,21,4
320,195,177444,1,12
217,298,177961,86,0,B|208:322|174:327,2,52,4|0|12
176,202,178996,1,4
125,213,179255,2,8,B|100:224|88:248,2,52,8|12|8
143,164,180030,5,4
183,304,180548,1,12
329,304,181065,5,4
369,164,181582,1,12
246,243,182099,54,0,B|276:144,1,104,4|2
270,91,182875,1,0
230,57,183134,2,0,B|171:49|135:91,1,104,0|2
143,235,184168,6,0,B|218:307,1,104,0|2
269,311,184944,1,0
316,291,185203,2,0,B|374:276|384:219,1,104,0|2
390,74,186237,6,0,B|308:137,1,104,0|2
258,156,187013,1,0
206,152,187272,2,0,B|147:141|113:188,1,104,0|2
256,192,188306,12,0,192444
