osu file format v13

[General]
AudioFilename: This is Our Big Night.mp3
AudioLeadIn: 2504
PreviewTime: 69
Countdown: 0
SampleSet: Soft
StackLeniency: 0.7
Mode: 0
LetterboxInBreaks: 0
WidescreenStoryboard: 0

[Editor]
DistanceSpacing: 1
BeatDivisor: 4
GridSize: 4
TimelineZoom: 3.399999

[Metadata]
Title:This is Our Big Night
TitleUnicode:This is Our Big Night
Artist:Daniel Ingram
ArtistUnicode:Daniel Ingram
Creator:Vicho
Version:Hard
Source:My Little Pony Equestria Girls
Tags:MLP Friendship is Magic Twilight Sparkle Applejack Fluttershy Rainbow Dash Pinkie Pie Rarity Rebecca Shoichet Ashleigh Ball Andrea Libman Shannon Chan-Kent Kazumi Evans CDFA
BeatmapID:284315
BeatmapSetID:108826

[Difficulty]
HPDrainRate:7
CircleSize:4
OverallDifficulty:6.5
ApproachRate:7.5
SliderMultiplier:1.6
SliderTickRate:1

[Events]
//Background and Video events
Video,79,"bignight.avi"
0,0,"bignight.jpg",0,0
//Break Periods
//Storyboard Layer 0 (Background)
//Storyboard Layer 1 (Fail)
//Storyboard Layer 2 (Pass)
//Storyboard Layer 3 (Foreground)
//Storyboard Sound Samples
//Background Colour Transformations
3,100,163,162,255

[TimingPoints]
1396,461.538461538462,4,2,1,80,1,0
16165,-100,4,2,2,80,0,0
30934,-100,4,2,1,80,0,0
45703,-100,4,2,1,80,0,1
60357,-100,4,2,1,80,0,0
60472,-100,4,2,1,80,0,1
75242,-100,4,2,2,20,0,0

[Colours]
Combo1 : 255,91,91
Combo2 : 196,136,255
Combo3 : 255,155,255
Combo4 : 229,229,229
Combo5 : 255,223,125
Combo6 : 136,196,255
Combo7 : 255,255,155

[HitObjects]
160,96,242,6,0,P|156:136|160:184,1,80
72,316,703,2,0,P|76:276|72:228,1,80
256,132,1396,6,0,P|295:136|336:132,1,80,4|0,0:0|0:0,0:0:0:0:
432,96,1857,2,0,P|440:136|432:176,1,80,8|0,0:0|0:0,0:0:0:0:
400,280,2319,1,2,0:0:0:0:
284,272,2549,1,0,0:0:0:0:
192,340,2780,2,0,P|100:336|44:296,1,160,8|2,0:0|0:0,0:0:0:0:
56,184,3472,6,0,P|76:140|84:104,1,80,0|8,0:0|0:0,0:0:0:0:
180,32,3934,2,0,P|200:64|220:116,1,80,0|2,0:0|0:0,0:0:0:0:
236,224,4396,1,0,0:0:0:0:
236,224,4511,1,0,0:0:0:0:
236,224,4626,2,0,P|276:216|324:196,1,80,8|0,0:0|0:0,0:0:0:0:
428,236,5088,6,0,P|440:276|448:332,2,80,2|0|8,0:0|0:0|0:0,0:0:0:0:
328,300,5780,1,0,0:0:0:0:
236,224,6011,2,0,P|224:184|216:128,1,80,2|0,0:0|0:0,0:0:0:0:
64,64,6472,2,0,P|40:128|52:224,1,160,8|2,0:0|0:0,0:0:0:0:
140,320,7165,1,0,0:0:0:0:
236,224,7396,1,8,0:0:0:0:
308,340,7626,5,0,0:0:0:0:
308,340,7857,2,0,P|348:344|392:340,1,80,2|0,0:0|0:0,0:0:0:0:
460,244,8319,1,8,0:0:0:0:
364,172,8549,2,0,P|360:132|364:84,1,80,0|2,0:0|0:0,0:0:0:0:
228,84,9011,5,0,0:0:0:0:
228,84,9126,1,0,0:0:0:0:
228,84,9242,2,0,L|144:92,1,80,8|0,0:0|0:0,0:0:0:0:
64,208,9703,2,0,L|148:228,1,80,2|0,0:0|0:0,0:0:0:0:
216,328,10165,2,0,P|264:268|256:188,1,160,8|2,0:0|0:0,0:0:0:0:
256,60,10857,6,0,P|296:48|340:44,1,80,0|8,0:0|0:0,0:0:0:0:
448,72,11319,1,0,0:0:0:0:
416,180,11549,1,2,0:0:0:0:
416,180,11780,2,0,P|404:224|408:280,1,80,0|8,0:0|0:0,0:0:0:0:
412,356,12242,1,0,0:0:0:0:
324,316,12472,2,0,P|284:304|232:304,1,80,2|0,0:0|0:0,0:0:0:0:
204,308,12819,1,0,0:0:0:0:
168,328,12934,1,8,0:0:0:0:
64,352,13165,6,0,P|32:276|52:200,1,160
140,44,13857,1,8,0:0:0:0:
40,92,14088,1,0,0:0:0:0:
156,156,14319,2,0,P|196:172|244:180,1,80,2|0,0:0|0:0,0:0:0:0:
272,180,14665,1,0,0:0:0:0:
308,168,14780,1,8,0:0:0:0:
376,64,15011,5,0,0:0:0:0:
464,192,15242,1,2,0:0:0:0:
464,192,15703,1,2,0:0:0:0:
256,332,16165,5,4,0:0:0:0:
240,224,16396,2,0,P|236:176|240:136,1,80,0|10,0:0|0:0,0:0:0:0:
364,80,16857,2,0,P|368:128|364:168,1,80,0|10,0:0|0:0,0:0:0:0:
352,264,17319,1,0,0:0:0:0:
352,264,17434,1,2,0:0:0:0:
352,264,17549,2,0,P|400:272|440:272,1,80,8|2,0:0|0:0,0:0:0:0:
496,176,18011,5,8,0:0:0:0:
364,80,18242,1,2,0:0:0:0:
480,48,18472,1,8,0:0:0:0:
364,80,18703,2,0,L|272:56,1,80,2|8,0:0|0:0,0:0:0:0:
184,40,19165,1,2,0:0:0:0:
88,92,19396,2,0,P|60:156|72:248,1,160,8|10,0:0|0:0,0:0:0:0:
116,356,20088,5,0,0:0:0:0:
116,356,20203,1,2,0:0:0:0:
116,356,20319,2,0,P|144:332|176:288,1,80,8|2,0:0|0:0,0:0:0:0:
192,192,20780,1,8,0:0:0:0:
296,232,21011,2,0,P|312:268|324:316,1,80,2|8,0:0|0:0,0:0:0:0:
428,348,21472,1,2,0:0:0:0:
472,236,21703,6,0,P|460:192|440:152,1,80,8|2,0:0|0:0,0:0:0:0:
376,52,22165,2,0,L|276:40,1,80,8|2,0:0|0:0,0:0:0:0:
204,160,22626,2,0,L|304:172,1,80,8|2,0:0|0:0,0:0:0:0:
420,228,23088,1,8,0:0:0:0:
420,228,23319,2,0,P|428:268|420:324,1,80,2|8,0:0|0:0,0:0:0:0:
316,352,23780,5,0,0:0:0:0:
316,352,24011,2,0,P|276:336|224:328,1,80,10|0,0:0|0:0,0:0:0:0:
136,336,24472,1,10,0:0:0:0:
88,244,24703,1,0,0:0:0:0:
76,208,24819,1,2,0:0:0:0:
68,172,24934,2,0,P|64:128|68:76,1,80,8|2,0:0|0:0,0:0:0:0:
192,144,25396,6,0,P|232:160|276:168,1,80,8|2,0:0|0:0,0:0:0:0:
376,140,25857,1,8,0:0:0:0:
432,44,26088,1,2,0:0:0:0:
376,140,26319,1,8,0:0:0:0:
436,232,26549,2,0,P|444:276|444:320,1,80,2|10,0:0|0:0,0:0:0:0:
344,360,27011,1,0,0:0:0:0:
304,256,27242,6,0,P|248:232|180:236,1,120,10|0,0:0|0:0,0:0:0:0:
152,248,27703,1,10,0:0:0:0:
64,320,27934,1,0,0:0:0:0:
40,212,28165,2,0,P|24:164|16:116,1,80,10|0,0:0|0:0,0:0:0:0:
12,100,28511,1,2,0:0:0:0:
20,64,28626,1,8,0:0:0:0:
128,36,28857,5,2,0:0:0:0:
140,148,29088,1,8,0:0:0:0:
232,208,29319,2,0,P|268:216|328:224,1,80,2|8,0:0|0:0,0:0:0:0:
424,216,29780,1,2,0:0:0:0:
460,52,30011,1,8,0:0:0:0:
460,52,30472,1,8,0:0:0:0:
260,92,30934,5,4,0:0:0:0:
196,192,31165,1,0,0:0:0:0:
196,192,31280,1,0,0:0:0:0:
196,192,31396,2,0,P|156:204|108:212,1,80,8|0,0:0|0:0,0:0:0:0:
80,328,31857,2,0,P|144:352|248:356,1,160,2|8,0:0|0:0,0:0:0:0:
320,296,32549,1,0,0:0:0:0:
424,340,32780,5,2,0:0:0:0:
320,296,33011,1,0,0:0:0:0:
312,256,33126,1,0,0:0:0:0:
324,216,33242,2,0,P|344:176|368:144,1,80,8|0,0:0|0:0,0:0:0:0:
460,140,33703,2,0,P|384:120|340:40,1,160,2|8,0:0|0:0,0:0:0:0:
240,32,34396,2,0,P|220:68|208:108,1,80,0|2,0:0|0:0,0:0:0:0:
280,216,34857,5,0,0:0:0:0:
248,232,34972,1,0,0:0:0:0:
212,240,35088,2,0,P|168:240|116:224,1,80,8|0,0:0|0:0,0:0:0:0:
64,144,35549,1,2,0:0:0:0:
28,244,35780,1,0,0:0:0:0:
64,144,36011,2,0,P|52:100|36:56,2,80,8|0|2,0:0|0:0|0:0,0:0:0:0:
133,231,36703,5,0,0:0:0:0:
133,231,36819,1,0,0:0:0:0:
134,231,36934,2,0,P|146:275|162:319,1,80,8|0,0:0|0:0,0:0:0:0:
256,336,37396,1,2,0:0:0:0:
272,304,37511,1,0,0:0:0:0:
300,280,37626,1,0,0:0:0:0:
336,272,37742,1,0,0:0:0:0:
372,272,37857,2,0,P|388:236|400:184,1,80,8|0,0:0|0:0,0:0:0:0:
304,72,38319,6,0,P|288:108|276:160,1,80,2|0,0:0|0:0,0:0:0:0:
268,184,38665,1,0,0:0:0:0:
236,200,38780,2,0,P|192:192|148:176,1,80,8|0,0:0|0:0,0:0:0:0:
64,140,39242,2,0,P|20:192|28:292,1,160,2|8,0:0|0:0,0:0:0:0:
116,356,39934,1,0,0:0:0:0:
144,244,40165,5,2,0:0:0:0:
244,304,40396,1,0,0:0:0:0:
280,312,40511,1,0,0:0:0:0:
316,308,40626,2,0,P|352:292|404:276,1,80,8|0,0:0|0:0,0:0:0:0:
464,336,41088,2,0,P|424:280|444:184,1,160,2|8,0:0|0:0,0:0:0:0:
488,76,41780,1,0,0:0:0:0:
368,92,42011,6,0,P|328:88|280:72,1,80,2|0,0:0|0:0,0:0:0:0:
256,60,42357,1,0,0:0:0:0:
228,36,42472,1,8,0:0:0:0:
104,48,42703,1,0,0:0:0:0:
76,168,42934,2,0,P|72:212|72:264,1,80,2|0,0:0|0:0,0:0:0:0:
188,340,43396,2,0,P|192:296|192:244,1,80,8|0,0:0|0:0,0:0:0:0:
260,152,43857,2,0,P|296:184|320:216,1,80,2|0,0:0|0:0,0:0:0:0:
332,240,44203,2,0,L|380:252,1,40,0|8,0:0|0:0,0:0:0:0:
468,304,44549,5,0,0:0:0:0:
456,192,44780,1,2,0:0:0:0:
496,88,45011,1,2,0:0:0:0:
396,40,45242,2,0,P|356:52|308:80,1,80,8|2,0:0|0:0,0:0:0:0:
296,96,45588,1,2,0:0:0:0:
296,96,45703,5,4,0:0:0:0:
256,192,45934,1,0,0:0:0:0:
312,280,46165,1,8,0:0:0:0:
224,348,46396,2,0,P|184:356|128:364,1,80,0|2,0:0|0:0,0:0:0:0:
48,280,46857,1,0,0:0:0:0:
60,244,46972,1,0,0:0:0:0:
56,204,47088,2,0,P|44:160|28:124,1,80,8|0,0:0|0:0,0:0:0:0:
88,32,47549,5,2,0:0:0:0:
180,92,47780,1,0,0:0:0:0:
180,92,48011,2,0,P|224:88|268:76,1,80,8|0,0:0|0:0,0:0:0:0:
360,40,48472,2,0,P|356:80|360:120,1,80,2|0,0:0|0:0,0:0:0:0:
376,156,48819,1,0,0:0:0:0:
412,172,48934,2,0,L|500:160,2,80,8|0|2,0:0|0:0|0:0,0:0:0:0:
360,268,49626,5,0,0:0:0:0:
248,272,49857,2,0,P|214:298|185:332,1,80,8|0,0:0|0:0,0:0:0:0:
84,360,50319,1,2,0:0:0:0:
108,252,50549,1,0,0:0:0:0:
108,252,50780,2,0,P|96:208|76:160,1,80,8|0,0:0|0:0,0:0:0:0:
20,76,51242,5,2,0:0:0:0:
132,40,51472,1,0,0:0:0:0:
132,40,51588,1,0,0:0:0:0:
132,40,51703,2,0,P|174:48|223:61,1,80,8|0,0:0|0:0,0:0:0:0:
324,92,52165,5,2,0:0:0:0:
408,184,52396,1,0,0:0:0:0:
324,92,52626,1,8,0:0:0:0:
280,208,52857,1,0,0:0:0:0:
280,208,52972,1,0,0:0:0:0:
280,208,53088,6,0,P|268:260|264:304,1,80,2|0,0:0|0:0,0:0:0:0:
180,372,53549,2,0,P|100:372|52:308,1,160,8|2,0:0|0:0,0:0:0:0:
60,200,54242,1,0,0:0:0:0:
60,200,54472,2,0,L|80:116,1,80,8|0,0:0|0:0,0:0:0:0:
152,32,54934,6,0,P|188:48|228:76,1,80,2|0,0:0|0:0,0:0:0:0:
248,100,55280,1,0,0:0:0:0:
268,136,55396,2,0,L|360:120,1,80,8|0,0:0|0:0,0:0:0:0:
468,128,55857,2,0,P|476:164|484:216,1,80,2|0,0:0|0:0,0:0:0:0:
380,324,56319,2,0,P|372:288|364:236,2,80,8|0|2,0:0|0:0|0:0,0:0:0:0:
276,368,57011,5,0,0:0:0:0:
204,288,57242,1,8,0:0:0:0:
204,288,57472,2,0,P|128:252|36:252,1,160
53,248,58049,1,0,0:0:0:0:
53,248,58165,2,0,L|32:164,1,80,8|0,0:0|0:0,0:0:0:0:
36,44,58626,5,2,0:0:0:0:
148,104,58857,1,0,0:0:0:0:
184,120,58972,1,0,0:0:0:0:
224,112,59088,2,0,P|248:76|260:36,1,80,8|2,0:0|0:0,0:0:0:0:
304,204,59549,1,0,0:0:0:0:
440,192,59780,1,2,0:0:0:0:
440,192,60011,1,8,0:0:0:0:
376,352,60472,5,4,0:0:0:0:
256,300,60703,1,0,0:0:0:0:
256,300,60819,1,0,0:0:0:0:
256,300,60934,2,0,P|212:312|172:332,1,80,8|0,0:0|0:0,0:0:0:0:
80,252,61396,2,0,L|64:164,1,80,2|0,0:0|0:0,0:0:0:0:
48,56,61857,2,0,P|80:44|124:36,1,80,8|0,0:0|0:0,0:0:0:0:
256,136,62319,6,0,P|224:148|180:156,1,80,2|0,0:0|0:0,0:0:0:0:
179,156,62665,1,0,0:0:0:0:
179,156,62780,2,0,L|200:244,1,80,8|0,0:0|0:0,0:0:0:0:
228,344,63242,1,2,0:0:0:0:
68,304,63472,1,0,0:0:0:0:
228,344,63703,2,0,P|264:336|316:320,1,80,8|0,0:0|0:0,0:0:0:0:
420,256,64165,5,2,0:0:0:0:
312,200,64396,2,0,P|260:172|236:152,1,80,0|8,0:0|0:0,0:0:0:0:
248,68,64857,2,0,P|224:136|136:164,1,160
108,164,65434,1,0,0:0:0:0:
72,180,65549,2,0,P|64:236|64:276,1,80,8|0,0:0|0:0,0:0:0:0:
100,364,66011,5,2,0:0:0:0:
184,252,66242,1,0,0:0:0:0:
100,364,66472,1,8,0:0:0:0:
256,348,66703,1,0,0:0:0:0:
328,252,66934,2,0,P|372:244|424:244,1,80,2|0,0:0|0:0,0:0:0:0:
468,140,67396,2,0,P|444:104|424:60,1,80,8|0,0:0|0:0,0:0:0:0:
308,32,67857,6,0,P|260:108|256:156,1,120,2|0,0:0|0:0,0:0:0:0:
256,172,68319,2,0,L|176:160,1,80,8|0,0:0|0:0,0:0:0:0:
52,140,68780,1,2,0:0:0:0:
88,248,69011,1,0,0:0:0:0:
88,248,69126,1,0,0:0:0:0:
88,248,69242,2,0,P|79:288|76:332,1,80,8|0,0:0|0:0,0:0:0:0:
188,372,69703,1,2,0:0:0:0:
260,276,69934,5,0,0:0:0:0:
292,252,70049,1,0,0:0:0:0:
332,244,70165,2,0,P|370:258|409:269,2,80,8|0|2,0:0|0:0|0:0,0:0:0:0:
256,164,70857,1,0,0:0:0:0:
336,84,71088,1,8,0:0:0:0:
256,164,71319,1,0,0:0:0:0:
220,60,71549,6,0,P|156:32|96:24,1,120,2|0,0:0|0:0,0:0:0:0:
72,44,72011,2,0,L|52:124,1,80,8|0,0:0|0:0,0:0:0:0:
44,236,72472,1,2,0:0:0:0:
84,244,72588,1,0,0:0:0:0:
116,268,72703,1,0,0:0:0:0:
132,304,72819,1,0,0:0:0:0:
136,344,72934,2,0,P|172:352|232:360,1,80,8|0,0:0|0:0,0:0:0:0:
256,236,73396,6,0,P|252:192|256:148,1,80,2|0,0:0|0:0,0:0:0:0:
260,116,73742,1,0,0:0:0:0:
284,84,73857,1,8,0:0:0:0:
428,40,74088,1,2,0:0:0:0:
444,232,74549,5,2,0:0:0:0:
444,232,74780,1,8,0:0:0:0:
256,192,75242,1,2,0:0:0:0:
