osu file format v11

[General]
AudioFilename: This Day Aria (Cadence's Aria).mp3
AudioLeadIn: 1015
PreviewTime: 59068
Countdown: 0
SampleSet: Normal
StackLeniency: 0.7
Mode: 0
LetterboxInBreaks: 0

[Editor]
DistanceSpacing: 1
BeatDivisor: 4
GridSize: 16

[Metadata]
Title:This Day Aria (Cadence Aria)
TitleUnicode:This Day Aria (Cadence Aria)
Artist:Daniel Ingram
ArtistUnicode:Daniel Ingram
Creator:Uffie-x
Version:Princess Cadence
Source:My Little Pony: Friendship is Magic
Tags:pony Hasbro MLP MLP:FiM FiM Spike Twilight Sparkle Rainbow Dash Pinkie Pie Fluttershy Rarity Applejack cartoon AppleBloom TS AJ RD PP FS SugarBerry Cherilee Cadence
BeatmapID:179933
BeatmapSetID:60154

[Difficulty]
HPDrainRate:4
CircleSize:3
OverallDifficulty:6
ApproachRate:8
SliderMultiplier:1.5
SliderTickRate:1

[Events]
//Background and Video events
0,0,"background.png"
Video,-1520,"My Little Pony_ FiM - This Day Aria [1080p]_(480p).flv"
//Break Periods
2,104836,111066
//Storyboard Layer 0 (Background)
//Storyboard Layer 1 (Fail)
//Storyboard Layer 2 (Pass)
//Storyboard Layer 3 (Foreground)
//Storyboard Sound Samples
//Background Colour Transformations
3,100,163,162,255

[TimingPoints]
8658,545.454545454546,4,1,0,50,1,0
23930,-100,4,1,0,50,0,1
26112,-100,4,2,0,50,0,0
42748,-100,4,1,0,50,0,0
43656,500,4,1,0,50,1,0
59553,437.956204379562,4,1,0,50,1,1
69954,-100,4,1,0,50,0,0
70063,-200,4,1,0,50,0,1
72687,-100,4,2,0,50,0,0
73617,465.116279069767,4,2,0,50,1,0
88441,444.444444444444,4,2,0,50,1,1
88441,-94.3396226415094,4,2,0,50,0,1
91107,-100,4,2,0,50,0,1
95614,451.127819548872,4,2,0,50,1,1
101027,-100,4,2,0,50,0,0
111816,245.901639344262,4,1,0,50,1,1
122574,-100,4,1,0,50,0,0
122635,-100,4,1,0,50,0,1
127061,-100,4,1,0,50,0,0

[Colours]
Combo1 : 254,174,51
Combo2 : 130,214,251
Combo3 : 233,237,240
Combo4 : 249,166,196
Combo5 : 255,245,113
Combo6 : 196,152,205

[HitObjects]
400,80,8657,2,0,P|464:128|464:192,1,150
448,256,9339,1,0,0:0:0
384,272,9476,2,0,P|320:192,1,75
288,176,9885,1,0,0:0:0
256,144,10021,1,0,0:0:0
224,176,10158,1,0,0:0:0
176,208,10294,2,0,P|112:288,1,75
64,256,10703,1,0,0:0:0
16,208,10839,2,0,P|16:144|96:80,1,150
256,80,12203,6,0,P|176:80,1,75
176,176,12612,1,0,0:0:0
176,176,12748,1,0,0:0:0
256,256,13021,2,0,P|384:256,1,112.5
368,208,13567,1,0,0:0:0
368,208,13703,1,0,0:0:0
368,160,13839,2,0,P|416:192|432:240,1,75
368,320,14521,1,0,0:0:0
336,320,14658,1,0,0:0:0
208,320,14930,2,0,P|112:320,1,75
144,144,16839,5,0,0:0:0
352,144,17112,1,0,0:0:0
208,176,17385,1,0,0:0:0
256,160,17521,1,0,0:0:0
288,176,17658,2,0,P|336:208|320:240,1,75
256,288,18067,1,0,0:0:0
256,288,18203,1,0,0:0:0
256,288,18339,1,0,0:0:0
160,224,18476,2,0,P|176:192|224:176,1,75
384,288,19021,1,0,0:0:0
112,288,19294,1,0,0:0:0
256,320,19567,1,0,0:0:0
256,256,19703,1,0,0:0:0
256,192,19839,2,0,P|256:96,1,75
256,112,20248,1,0,0:0:0
256,108,20385,2,0,P|256:4,1,75
192,64,21203,5,0,0:0:0
256,64,21339,1,0,0:0:0
320,64,21476,1,0,0:0:0
384,128,21748,2,0,P|416:192|400:240,1,112.5
352,208,22294,1,0,0:0:0
160,208,22567,1,0,0:0:0
128,128,22839,2,0,P|96:192|112:240,1,112.5
224,176,23385,2,0,P|256:192|288:176,1,75
106,224,23930,2,2,P|410:224,1,300
256,192,26112,5,0,0:0:0
256,80,26658,1,0,0:0:0
352,144,26930,1,0,0:0:0
352,240,27203,1,0,0:0:0
256,304,27476,1,0,0:0:0
160,240,27748,1,0,0:0:0
160,144,28021,1,0,0:0:0
336,192,28294,2,2,P|256:192,1,75
176,192,28839,2,2,P|256:192,1,75
464,192,29658,5,0,0:0:0
384,112,29930,1,0,0:0:0
304,160,30203,1,0,0:0:0
272,80,30476,2,2,P|208:32|160:48,1,112.5
160,48,31021,1,0,0:0:0
80,112,31294,1,0,0:0:0
48,192,31567,2,2,P|32:256|80:272,1,112.5
96,288,32112,1,0,0:0:0
224,288,32385,2,0,P|272:240|272:224,1,75
208,80,34294,5,0,0:0:0
304,80,34430,1,0,0:0:0
144,192,34839,1,0,0:0:0
192,240,34976,1,0,0:0:0
256,256,35112,1,0,0:0:0
320,240,35248,1,0,0:0:0
368,192,35385,2,0,P|320:144|304:144,1,75
144,192,35930,1,0,0:0:0
240,352,36476,2,0,P|304:352,1,37.5
256,224,36885,1,0,0:0:0
192,64,37158,1,0,0:0:0
256,32,37294,1,0,0:0:0
320,64,37430,1,0,0:0:0
256,96,37567,2,0,P|256:192,1,75
256,304,38112,1,0,0:0:0
48,304,38521,5,0,0:0:0
112,224,38794,2,2,P|80:160,1,37.5
208,288,39203,2,2,P|272:320|336:288,1,112.5
384,256,39748,1,0,0:0:0
384,256,39885,1,0,0:0:0
384,256,40021,1,0,0:0:0
448,176,40294,1,0,0:0:0
384,96,40567,2,2,P|368:48|320:48,1,75
288,64,40976,1,0,0:0:0
256,112,41112,1,0,0:0:0
304,208,41385,2,2,P|208:256|32:192,1,300
384,192,42748,5,0,0:0:0
320,192,42885,1,0,0:0:0
256,192,43021,1,0,0:0:0
192,192,43158,1,0,0:0:0
128,192,43294,1,0,0:0:0
216,80,43656,2,0,P|216:64|232:48|248:48|264:48|280:48|296:64|296:96,1,112.5
256,160,44156,1,0,0:0:0
256,160,44406,1,0,0:0:0
256,272,44656,2,0,P|256:128,1,112.5
256,224,45156,2,0,P|256:128,1,75
192,80,45656,2,4,P|96:32,1,75
192,192,46156,1,0,0:0:0
192,304,46406,2,0,P|112:352,1,75
480,208,47656,6,2,P|320:160|256:192,1,225
176,160,48531,1,0,0:0:0
112,208,48656,2,2,P|128:288|208:304,1,150
304,352,49281,1,0,0:0:0
304,352,49406,1,0,0:0:0
304,352,49531,1,0,0:0:0
400,304,49656,2,2,P|464:240|432:32,1,300
176,48,51156,5,0,0:0:0
96,64,51281,1,0,0:0:0
96,64,51406,1,0,0:0:0
96,64,51531,1,0,0:0:0
64,128,51656,2,2,P|144:144,1,75
160,208,52031,1,0,0:0:0
144,272,52156,2,2,P|64:256,1,75
112,336,52531,1,0,0:0:0
112,336,52656,2,2,P|176:352|208:336,1,75
304,320,53156,2,0,P|336:288|320:256,1,75
328,263,53531,1,0,0:0:0
256,240,53656,2,2,P|240:208|304:192|256:128,1,112.5
260,136,54156,1,0,0:0:0
128,112,54406,1,0,0:0:0
256,224,54656,1,0,0:0:0
368,112,54906,1,0,0:0:0
400,320,55406,5,0,0:0:0
400,320,55531,1,0,0:0:0
400,320,55656,1,0,0:0:0
288,256,55906,1,0,0:0:0
336,224,56031,1,0,0:0:0
384,192,56156,1,0,0:0:0
288,256,56406,2,0,P|224:272|192:256,1,75
160,240,56781,1,0,0:0:0
192,176,56906,2,0,P|208:128|192:112,1,75
80,80,57406,1,0,0:0:0
80,80,57531,1,0,0:0:0
80,80,57656,1,0,0:0:0
256,192,57781,12,0,59156,0:0:0
32,368,59553,5,0,0:0:0
256,16,59990,1,0,0:0:0
480,368,60428,1,0,0:0:0
32,16,60866,1,0,0:0:0
256,368,61304,1,0,0:0:0
480,16,61742,1,0,0:0:0
256,192,62180,1,0,0:0:0
32,192,62618,1,0,0:0:0
480,192,63056,2,0,P|368:224|256:144|160:208,1,300
144,96,64370,2,0,P|144:224|144:224|128:240,1,150
192,256,64917,1,0,0:0:0
256,272,65027,1,0,0:0:0
320,256,65136,1,0,0:0:0
384,240,65246,2,0,P|384:96|384:96|400:80,1,150
224,48,66560,6,0,P|128:48|64:80,1,150
32,176,67107,1,0,0:0:0
32,176,67217,1,0,0:0:0
32,176,67326,1,0,0:0:0
80,288,67436,2,0,P|128:224|208:208,1,150
272,128,67983,1,0,0:0:0
320,112,68093,1,0,0:0:0
368,112,68202,1,0,0:0:0
416,144,68312,2,0,P|448:192|400:288,1,150
416,304,68859,1,0,0:0:0
368,320,68969,1,0,0:0:0
320,304,69078,1,0,0:0:0
288,256,69188,2,0,P|256:176|176:144,1,150
80,352,70063,2,0,P|128:288|208:240|288:176|480:176,1,450
320,16,73129,6,2,P|272:0|224:0,1,75
240,0,73458,1,0,0:0:0
128,64,73617,6,2,P|160:112|144:176,1,112.5
152,163,74082,2,0,P|208:176|208:272|288:240,1,150
352,288,74779,2,2,P|384:240|384:208,1,75
256,96,75244,2,2,P|288:48|320:48,1,75
320,48,75593,1,0,0:0:0
336,48,75709,1,0,0:0:0
352,48,75826,1,0,0:0:0
368,48,75942,2,2,P|400:96|384:112,2,75
32,192,77337,6,2,P|36:188|36:188|40:196|40:196|44:188|44:188|48:196|48:196|52:188|52:188|56:196|56:196|60:188|60:188|64:196|64:196|68:188|68:188|72:196|72:196|76:188|76:188|80:196|80:196|84:188|84:188|92:192|92:192|208:192,1,225
192,192,78151,1,0,0:0:0
192,192,78268,1,0,0:0:0
352,112,78733,1,0,0:0:0
224,48,78965,2,2,P|176:32|144:48,1,75
64,320,80593,5,0,0:0:0
128,224,80826,1,0,0:0:0
224,304,81058,2,2,P|256:304|272:288,2,37.5
368,288,81523,2,2,P|416:288|448:240,1,75
352,176,81989,2,2,P|304:144|336:48,1,150
352,80,82686,5,0,0:0:0
448,144,82919,1,0,0:0:0
448,192,83035,1,0,0:0:0
448,240,83151,1,0,0:0:0
304,320,83384,1,0,0:0:0
240,304,83500,1,0,0:0:0
192,256,83616,1,0,0:0:0
176,192,83849,2,2,P|128:144|128:112,1,75
240,32,84547,5,0,0:0:0
336,80,84779,1,0,0:0:0
336,80,84896,1,0,0:0:0
336,80,85012,1,0,0:0:0
400,240,85244,2,2,P|352:224|320:240,1,75
332,232,85593,1,0,0:0:0
332,232,85710,1,0,0:0:0
176,208,85942,1,0,0:0:0
144,192,86058,1,0,0:0:0
128,160,86175,1,0,0:0:0
64,320,86407,2,2,P|112:336|144:368,1,75
256,112,88441,6,2,P|256:80|288:48|320:48|352:48|384:48|416:80|416:112|416:144|416:176|384:208|352:240|320:272|288:304|256:336|256:336|224:304|192:272|160:240|128:208|96:176|96:144|96:112|96:80|128:48|160:48|192:48|224:48|256:80|256:84|256:116,1,954.000001455688
256,192,91552,5,2,0:0:0
160,192,91996,6,2,P|256:288|352:192,1,300
256,272,93329,2,0,P|256:176,1,75
256,32,93774,2,2,P|224:64,2,37.5
256,192,94218,2,2,P|288:224,2,37.5
256,336,94663,2,2,P|224:368,2,37.5
32,320,95614,2,2,P|144:192|112:64,1,300
120,76,96629,1,0,0:0:0
120,76,96741,1,0,0:0:0
120,76,96854,1,0,0:0:0
120,76,96967,1,0,0:0:0
400,336,97418,2,2,P|368:240|400:192,1,150
388,202,97982,1,0,0:0:0
388,202,98095,1,0,0:0:0
388,202,98207,1,0,0:0:0
0,192,98771,2,2,P|80:192,1,75
128,160,99223,2,2,P|110:209|126:225,1,75
208,272,99674,2,2,P|256:288|288:256,1,75
368,224,100125,2,2,P|384:160|368:144,1,75
336,64,100576,2,2,P|304:32|272:32,1,75
192,32,101027,2,2,P|160:48|144:96,1,75
176,240,104636,5,0,0:0:0
32,192,111816,5,0,0:0:0
48,128,111938,1,0,0:0:0
112,96,112061,1,0,0:0:0
176,128,112184,1,0,0:0:0
224,176,112307,1,0,0:0:0
256,48,112553,2,0,P|336:32|432:64,1,150
384,96,112922,1,0,0:0:0
368,144,113045,2,0,P|320:224|368:256,1,150
448,144,113537,1,0,0:0:0
512,192,113783,2,2,P|432:336|256:368|64:336|0:192,1,600
192,48,115381,5,0,0:0:0
256,16,115504,1,0,0:0:0
320,48,115627,1,0,0:0:0
256,64,115873,2,2,P|252:68|252:68|256:68|260:68|260:68|252:72|252:72|256:72|260:72|260:72|252:76|252:76|256:76|260:76|260:76|252:80|252:80|256:80|260:80|260:80|252:84|252:84|256:84|260:84|260:84|252:88|252:88|256:88|260:88|260:88|252:92|252:92|256:92|260:92|260:92|252:96|252:96|256:96|260:96|260:96|252:100|252:100|256:100|260:100|260:100|256:104|256:104|256:328,1,375
144,144,116734,1,0,0:0:0
112,192,116856,1,0,0:0:0
144,240,116980,1,0,0:0:0
368,144,117226,1,0,0:0:0
400,192,117348,1,0,0:0:0
368,240,117472,1,0,0:0:0
0,192,117717,2,2,P|64:320|256:352|464:320|512:192,1,600
448,32,119254,5,0,0:0:0
304,80,119561,1,0,0:0:0
448,112,119746,5,0,0:0:0
448,144,119869,5,0,0:0:0
448,176,119992,5,0,0:0:0
448,288,120238,2,2,P|352:240|288:256,1,150
160,192,120729,1,0,0:0:0
160,192,120852,1,0,0:0:0
160,192,120975,1,0,0:0:0
272,112,121160,2,2,P|208:64|128:64,1,150
48,80,121652,1,0,0:0:0
48,80,121775,1,0,0:0:0
64,128,121897,1,0,0:0:0
32,176,122020,1,0,0:0:0
64,224,122143,2,2,P|112:304|176:272,1,150
236,192,122635,6,0,P|240:188|240:188|240:196|240:196|240:192|244:188|244:188|244:196|244:196|244:192|248:188|248:188|248:196|248:196|248:192|252:188|252:188|252:196|252:196|252:192|256:188|256:188|256:196|256:196|256:192|260:188|260:188|260:196|260:196|260:192|264:188|264:188|264:196|264:196|264:192|268:188|268:188|268:196|268:196|268:192|272:188|272:188|272:196|272:196|272:192|276:192|276:192|288:192,1,150
96,192,123127,5,0,0:0:0
256,192,123250,1,0,0:0:0
416,192,123373,1,0,0:0:0
256,32,123619,6,2,P|96:32,1,150
416,192,124111,6,2,P|416:32,1,150
256,352,124602,6,2,P|432:352,1,150
96,192,125094,6,2,P|96:352,1,150
256,192,125955,6,0,P|256:240,1,37.5
512,192,126570,6,0,P|512:144,1,37.5
0,192,127061,6,6,P|0:240,1,37.5
