osu file format v12

[General]
AudioFilename: Raise This Barn.mp3
AudioLeadIn: 500
PreviewTime: 86793
Countdown: 0
SampleSet: Soft
StackLeniency: 0.4
Mode: 0
LetterboxInBreaks: 0
WidescreenStoryboard: 0

[Editor]
DistanceSpacing: 0.2
BeatDivisor: 4
GridSize: 4

[Metadata]
Title:Raise This Barn
TitleUnicode:Raise This Barn
Artist:Daniel Ingram
ArtistUnicode:Daniel Ingram
Creator:rezoons
Version:Raise This Barn
Source:My Little Pony: Friendship is Magic
Tags:Gabe
BeatmapID:284702
BeatmapSetID:71542

[Difficulty]
HPDrainRate:7
CircleSize:4
OverallDifficulty:7
ApproachRate:9
SliderMultiplier:2.99999990463257
SliderTickRate:4

[Events]
//Background and Video events
Video,0,"Raise this barn.flv"
0,0,"RTBHQ.jpg",0,0
//Break Periods
//Storyboard Layer 0 (Background)
//Storyboard Layer 1 (Fail)
//Storyboard Layer 2 (Pass)
//Storyboard Layer 3 (Foreground)
//Storyboard Sound Samples
//Background Colour Transformations
3,100,163,162,255

[TimingPoints]
1870,461.538461538462,4,2,1,50,1,0
5100,-100,4,2,1,40,0,0
20793,-100,4,2,1,50,0,0
27485,-100,4,2,1,40,0,0
42716,-100,4,2,1,50,0,0
45485,-166.666666666667,4,2,1,50,0,0
46177,-100,4,2,1,40,0,0
61177,-100,4,2,1,50,0,0
61870,-166.666666666667,4,2,1,50,0,0
63023,-100,4,2,1,50,0,0
64177,-100,4,2,1,40,0,0
79408,-100,4,2,1,50,0,0
81254,-166.666666666667,4,2,1,50,0,0
81485,-100,4,2,1,50,0,0
83446,-166.666666666667,4,2,1,50,0,0
85062,-100,4,2,1,50,0,0
86793,-100,4,2,1,60,0,1
94177,-100,4,2,1,50,0,1
101540,468.75,4,2,1,30,1,0
102477,480,4,2,1,20,1,0
103437,600,4,2,1,20,1,0
105837,645.161290322581,4,2,1,30,1,0
105837,-133.333333333333,4,2,1,30,0,0
109707,625,4,2,1,30,1,0
109707,-133.333333333333,4,2,1,30,0,0
110332,652.173913043478,4,2,1,30,1,0
110332,-133.333333333333,4,2,1,30,0,0
110984,618.556701030928,4,2,1,30,1,0
110984,-133.333333333333,4,2,1,30,0,0
111602,638.297872340426,4,2,1,30,1,0
111602,-133.333333333333,4,2,1,30,0,0
114155,652.173913043478,4,2,1,30,1,0
114155,-133.333333333333,4,2,1,30,0,0
116111,643.776824034335,4,2,1,30,1,0
116111,-133.333333333333,4,2,1,30,0,0
118042,662.983425414365,4,2,1,30,1,0
118042,-133.333333333333,4,2,1,30,0,0
118704,641.711229946524,4,2,1,30,1,0
118704,-133.333333333333,4,2,1,30,0,0
120629,681.818181818182,4,2,1,30,1,0
120629,-133.333333333333,4,2,1,30,0,0
121310,638.297872340426,4,2,1,30,1,0
121310,-133.333333333333,4,2,1,30,0,0
123224,659.340659340659,4,2,1,30,1,0
123224,-133.333333333333,4,2,1,30,0,0
123883,638.297872340426,4,2,1,30,1,0
123883,-133.333333333333,4,2,1,30,0,0
124521,705.882352941176,4,2,1,30,1,0
124521,-133.333333333333,4,2,1,30,0,0
125226,612.244897959184,4,2,1,30,1,0
125226,-133.333333333333,4,2,1,30,0,0
127674,508.474576271186,4,2,1,30,1,0
127674,-133.333333333333,4,2,1,30,0,0
128690,503.14465408805,4,2,1,40,1,0
128690,-133.333333333333,4,2,1,40,0,0
129696,461.538461538462,4,1,0,50,1,0

[Colours]
Combo1 : 242,168,13
Combo2 : 232,219,145
Combo3 : 255,128,0
Combo4 : 176,88,0

[HitObjects]
212,344,1870,5,2,0:0:0:0:
168,328,1985,1,0,0:0:0:0:
132,304,2100,1,0,0:0:0:0:
104,272,2216,1,0,0:0:0:0:
84,232,2331,2,0,B|96:231|96:231|84:219|84:219|96:220|96:220|84:208|84:208|96:208|96:208|84:195|84:195|96:195|96:195|85:184|85:184|96:184|96:184|85:172|85:172|96:172|96:172|84:159|84:159|95:159|95:159|80:143|80:143,1,149.999995231629,2|0,0:0|0:0,0:0:0:0:
104,128,2677,5,0,0:0:0:0:
128,88,2793,1,2,0:0:0:0:
164,64,2908,1,0,0:0:0:0:
208,48,3023,1,0,0:0:0:0:
252,44,3139,1,0,0:0:0:0:
296,48,3254,2,0,B|299:36|299:36|307:51|307:51|310:40|310:40|318:55|318:55|321:44|321:44|329:60|329:60|333:49|333:49|340:63|340:63|344:52|344:52|351:67|351:67|355:56|355:56|363:72|363:72|367:61|367:61|374:76|374:76|378:65|378:65|386:80|386:80|389:69|389:69|397:84|397:84|400:73|400:73|401:82|401:82,1,224.999992847443,2|0,0:0|0:0,0:0:0:0:
424,100,3716,5,2,0:0:0:0:
449,138,3831,1,0,0:0:0:0:
462,180,3946,1,0,0:0:0:0:
455,224,4062,1,0,0:0:0:0:
427,259,4177,1,2,0:0:0:0:
387,278,4293,1,0,0:0:0:0:
342,286,4408,1,0,0:0:0:0:
297,278,4523,1,0,0:0:0:0:
257,259,4639,1,2,0:0:0:0:
229,224,4754,1,0,0:0:0:0:
222,180,4870,1,0,0:0:0:0:
235,138,4985,1,0,0:0:0:0:
260,100,5100,1,4,0:0:0:0:
340,208,5331,5,0,0:0:0:0:
292,68,5562,2,2,P|224:28|128:40,2,149.999995231629
180,172,6254,1,0,0:0:0:0:
292,276,6485,2,2,P|224:316|128:304,1,149.999995231629
368,276,6946,2,0,P|436:316|532:304,1,149.999995231629,2|0,0:0|0:0,0:0:0:0:
440,40,7408,22,0,L|276:68,1,149.999995231629,2|0,0:0|0:0,0:0:0:0:
72,124,7870,2,0,L|236:152,1,149.999995231629,2|0,0:0|0:0,0:0:0:0:
448,196,8331,2,0,L|284:224,1,149.999995231629,2|0,0:0|0:0,0:0:0:0:
80,280,8793,2,0,L|244:308,1,149.999995231629,2|0,0:0|0:0,0:0:0:0:
256,160,9254,5,2,0:0:0:0:
424,92,9485,1,0,0:0:0:0:
256,160,9716,1,2,0:0:0:0:
88,92,9946,1,0,0:0:0:0:
256,160,10177,1,2,0:0:0:0:
316,316,10408,2,2,P|256:356|196:316,2,149.999995231629
300,148,11100,6,0,B|324:72|324:72|416:48,1,149.999995231629,2|0,0:0|0:0,0:0:0:0:
212,236,11562,2,0,B|188:312|188:312|96:336,1,149.999995231629,2|0,0:0|0:0,0:0:0:0:
212,148,12023,2,0,B|136:124|136:124|112:32,1,149.999995231629,2|0,0:0|0:0,0:0:0:0:
300,236,12485,2,0,B|376:260|376:260|400:352,1,149.999995231629,4|0,0:0|0:0,0:0:0:0:
152,304,12946,5,2,0:0:0:0:
44,196,13177,1,2,0:0:0:0:
154,91,13408,1,2,0:0:0:0:
219,128,13523,1,0,0:0:0:0:
256,193,13639,1,0,0:0:0:0:
360,304,13870,21,2,0:0:0:0:
468,196,14100,1,2,0:0:0:0:
358,91,14331,1,2,0:0:0:0:
293,128,14446,1,0,0:0:0:0:
256,193,14562,1,0,0:0:0:0:
140,288,14793,6,0,B|124:344|68:344,2,74.9999976158143,2|0|0,0:0|0:0|0:0,0:0:0:0:
220,164,15254,2,2,L|348:68,1,149.999995231629,0|0,0:0|0:0,0:0:0:0:
440,188,15716,5,2,0:0:0:0:
340,74,15946,1,0,0:0:0:0:
440,188,16177,2,2,L|320:278,1,149.999995231629
196,192,16639,6,0,P|156:200|120:192,2,74.9999976158143,2|0|0,0:0|0:0|0:0,0:0:0:0:
256,328,17100,1,2,0:0:0:0:
316,192,17331,2,0,P|356:184|392:192,2,74.9999976158143,0|0|2,0:0|0:0|0:0,0:0:0:0:
256,56,17793,1,0,0:0:0:0:
256,328,18023,2,2,B|200:272|316:232|240:176,1,149.999995231629
388,120,18485,22,2,P|456:196|448:248,1,149.999995231629
320,340,18946,1,2,0:0:0:0:
224,144,19177,1,2,0:0:0:0:
224,240,19408,1,2,0:0:0:0:
320,44,19639,1,2,0:0:0:0:
144,192,19870,1,2,0:0:0:0:
288,192,20100,5,4,0:0:0:0:
4,24,20562,1,0,0:0:0:0:
4,24,20793,5,2,0:0:0:0:
21,65,20908,1,0,0:0:0:0:
48,101,21023,1,0,0:0:0:0:
88,120,21139,1,0,0:0:0:0:
133,121,21254,1,2,0:0:0:0:
177,110,21370,1,0,0:0:0:0:
219,94,21485,1,0,0:0:0:0:
262,81,21600,1,0,0:0:0:0:
306,76,21716,1,2,0:0:0:0:
350,87,21831,1,0,0:0:0:0:
383,117,21946,1,0,0:0:0:0:
401,157,22062,1,0,0:0:0:0:
419,198,22177,2,0,B|431:198|431:198|419:210|419:210|431:210|431:210|419:222|419:222|431:222|431:222|419:234|419:234|431:234|431:234|419:246|419:246|431:246|431:246|419:258|419:258|431:258|431:258|419:270|419:270|431:270|431:270|415:286|415:286,1,149.999995231629,2|0,0:0|0:0,0:0:0:0:
400,296,22523,5,0,0:0:0:0:
382,336,22639,1,2,0:0:0:0:
349,366,22754,1,0,0:0:0:0:
305,377,22870,1,0,0:0:0:0:
261,372,22985,1,0,0:0:0:0:
218,359,23100,1,2,0:0:0:0:
176,343,23216,1,0,0:0:0:0:
132,332,23331,1,0,0:0:0:0:
87,333,23446,1,0,0:0:0:0:
44,340,23562,6,2,P|4:184|104:100,1,299.999990463257
96,101,24139,1,2,0:0:0:0:
144,244,24370,2,0,L|60:216,1,74.9999976158143,2|0,0:0|0:0,0:0:0:0:
296,180,24716,2,0,L|380:208,1,74.9999976158143,2|0,0:0|0:0,0:0:0:0:
176,124,25062,2,0,L|229:70,1,74.9999976158143,2|0,0:0|0:0,0:0:0:0:
264,292,25408,2,0,L|204:356,1,74.9999976158143,2|0,0:0|0:0,0:0:0:0:
212,346,25639,1,2,0:0:0:0:
368,192,25870,5,2,0:0:0:0:
256,64,26100,2,0,B|266:69|266:69|250:74|250:74|260:80|260:80|244:84|244:84|254:90|254:90|238:95|238:95|248:101|248:101|232:105|232:105|242:111|242:111|226:115|226:115|236:121|236:121|220:126|220:126|230:132|230:132|220:136|220:136,1,149.999995231629,0|2,0:0|0:0,0:0:0:0:
276,177,26446,5,0,0:0:0:0:
231,238,26562,1,0,0:0:0:0:
160,215,26677,1,0,0:0:0:0:
160,140,26793,1,2,0:0:0:0:
256,24,27023,1,0,0:0:0:0:
352,140,27254,2,0,B|342:145|342:145|358:150|358:150|348:156|348:156|364:160|364:160|354:166|354:166|370:171|370:171|360:177|360:177|376:181|376:181|366:187|366:187|382:191|382:191|372:197|372:197|388:202|388:202|378:208|378:208|392:212|392:212,1,149.999995231629,2|0,0:0|0:0,0:0:0:0:
256,292,27716,6,2,P|160:320|128:364,2,149.999995231629
368,192,28408,1,0,0:0:0:0:
256,92,28639,2,2,P|160:64|128:20,1,149.999995231629
44,148,29100,2,0,B|64:184|104:192|104:192|64:200|40:256,1,149.999995231629,2|0,0:0|0:0,0:0:0:0:
360,252,29562,6,0,P|322:193|362:133,1,149.999995231629,2|0,0:0|0:0,0:0:0:0:
148,132,30023,2,0,P|188:192|148:252,1,149.999995231629,2|0,0:0|0:0,0:0:0:0:
256,364,30485,2,0,B|220:292|220:292|259:252|256:200,1,149.999995231629,2|0,0:0|0:0,0:0:0:0:
256,20,30946,2,0,B|292:92|292:92|252:131|256:184,1,149.999995231629,2|0,0:0|0:0,0:0:0:0:
112,108,31408,6,2,B|100:152|72:172|72:172|100:192|112:236,1,149.999995231629
200,356,31870,1,2,0:0:0:0:
397,214,32100,1,0,0:0:0:0:
154,214,32331,1,2,0:0:0:0:
351,356,32562,1,0,0:0:0:0:
275,126,32793,2,0,L|276:292,1,149.999995231629,2|0,0:0|0:0,0:0:0:0:
212,160,33254,6,0,P|284:196|344:148,1,149.999995231629,2|0,0:0|0:0,0:0:0:0:
360,308,33716,2,0,P|268:376|228:368,1,149.999995231629,2|0,0:0|0:0,0:0:0:0:
103,224,34177,2,0,P|90:110|117:79,1,149.999995231629,2|0,0:0|0:0,0:0:0:0:
304,43,34639,2,0,P|409:89|422:128,1,149.999995231629,2|0,0:0|0:0,0:0:0:0:
312,192,35100,5,2,0:0:0:0:
312,192,35216,1,0,0:0:0:0:
312,192,35331,1,2,0:0:0:0:
148,296,35562,2,2,P|72:336|4:320,1,149.999995231629
200,192,36023,1,2,0:0:0:0:
200,192,36139,1,0,0:0:0:0:
200,192,36254,1,2,0:0:0:0:
364,296,36485,2,2,P|440:336|508:320,1,149.999995231629
256,192,36946,5,2,0:0:0:0:
256,344,37177,1,2,0:0:0:0:
124,116,37408,1,2,0:0:0:0:
387,116,37639,1,2,0:0:0:0:
104,280,37870,1,2,0:0:0:0:
256,16,38100,1,2,0:0:0:0:
408,280,38331,1,2,0:0:0:0:
256,192,38562,1,2,0:0:0:0:
96,104,38793,6,0,P|32:44|32:32,2,74.9999976158143,2|0|0,0:0|0:0|0:0,0:0:0:0:
256,192,39254,1,2,0:0:0:0:
416,104,39485,2,0,P|480:44|480:32,2,74.9999976158143,0|0|2,0:0|0:0|0:0,0:0:0:0:
256,192,39946,2,0,P|160:152|164:128,2,149.999995231629,0|2|0,0:0|0:0|0:0,0:0:0:0:
384,112,40639,5,2,0:0:0:0:
256,308,40870,1,0,0:0:0:0:
128,112,41100,1,2,0:0:0:0:
256,308,41331,1,0,0:0:0:0:
256,156,41562,2,0,B|224:96|292:60|252:8,2,149.999995231629,2|0|2,0:0|0:0|0:0,0:0:0:0:
256,308,42254,5,4,0:0:0:0:
56,84,42716,2,2,B|84:68|148:132|88:192|88:192|28:252|92:316|120:300,1,299.999990463257
260,260,43408,2,0,B|263:272|263:272|271:257|271:257|274:268|274:268|282:253|282:253|285:264|285:264|293:248|293:248|297:259|297:259|304:245|304:245|308:256|308:256|315:241|315:241|319:252|319:252|327:236|327:236|331:247|331:247|338:232|338:232|342:243|342:243|350:228|350:228|353:239|353:239|361:224|361:224|364:235|364:235|365:226|365:226,1,224.999992847443,2|0,0:0|0:0,0:0:0:0:
348,231,43870,1,2,0:0:0:0:
252,124,44100,6,0,B|249:112|249:112|241:127|241:127|238:116|238:116|230:131|230:131|227:120|227:120|219:136|219:136|215:125|215:125|208:139|208:139|204:128|204:128|197:143|197:143|193:132|193:132|185:148|185:148|181:137|181:137|174:152|174:152|170:141|170:141|162:156|162:156|159:145|159:145|151:160|151:160|148:149|148:149|147:158|147:158,1,224.999992847443,2|0,0:0|0:0,0:0:0:0:
144,192,44562,1,2,0:0:0:0:
156,236,44677,1,0,0:0:0:0:
196,256,44793,1,0,0:0:0:0:
236,236,44908,1,0,0:0:0:0:
256,196,45023,1,2,0:0:0:0:
276,236,45139,1,0,0:0:0:0:
316,256,45254,1,0,0:0:0:0:
356,236,45370,1,0,0:0:0:0:
368,192,45485,2,0,L|396:136,1,44.9999971961976,2|0,0:0|0:0,0:0:0:0:
344,96,45716,2,0,L|312:148,2,44.9999971961976,0|0|2,0:0|0:0|0:0,0:0:0:0:
140,144,46177,5,2,0:0:0:0:
256,236,46408,1,2,0:0:0:0:
204,104,46639,2,0,B|224:152|216:184|184:192|176:216|184:256,1,149.999995231629,2|0,0:0|0:0,0:0:0:0:
372,144,47100,1,2,0:0:0:0:
256,236,47331,1,2,0:0:0:0:
308,104,47562,2,0,B|288:152|296:184|328:192|336:216|328:256,1,149.999995231629,2|0,0:0|0:0,0:0:0:0:
184,340,48023,6,0,P|260:284|256:236,1,149.999995231629,2|0,0:0|0:0,0:0:0:0:
328,44,48485,2,0,P|252:100|256:148,1,149.999995231629,2|0,0:0|0:0,0:0:0:0:
392,292,48946,2,0,P|395:245|319:189,1,149.999995231629,2|0,0:0|0:0,0:0:0:0:
120,88,49408,2,0,P|116:134|192:190,1,149.999995231629,2|0,0:0|0:0,0:0:0:0:
320,190,49870,6,2,P|396:134|392:88,1,149.999995231629
248,128,50331,1,2,0:0:0:0:
208,272,50562,1,2,0:0:0:0:
164,52,50793,1,2,0:0:0:0:
292,348,51023,1,2,0:0:0:0:
228,200,51254,2,0,P|140:248|152:316,1,149.999995231629,2|0,0:0|0:0,0:0:0:0:
288,260,51716,6,0,P|432:256|444:264,1,149.999995231629,2|0,0:0|0:0,0:0:0:0:
224,124,52177,2,0,P|80:128|68:120,1,149.999995231629,2|0,0:0|0:0,0:0:0:0:
216,316,52639,2,0,P|360:320|372:312,1,149.999995231629,2|0,0:0|0:0,0:0:0:0:
296,68,53100,2,0,P|152:64|140:72,1,149.999995231629,4|0,0:0|0:0,0:0:0:0:
248,180,53562,6,0,B|304:200|304:200|340:228|340:228|400:248,2,149.999995231629,2|0|2,0:0|0:0|0:0,0:0:0:0:
100,156,54254,1,0,0:0:0:0:
220,64,54485,1,2,0:0:0:0:
128,272,54716,1,0,0:0:0:0:
248,180,54946,2,0,B|304:160|304:160|340:132|340:132|400:112,1,149.999995231629,2|0,0:0|0:0,0:0:0:0:
512,132,55408,6,0,B|456:152|456:152|420:180|420:180|360:200,1,149.999995231629,2|0,0:0|0:0,0:0:0:0:
256,284,55870,1,2,0:0:0:0:
134,194,56100,1,0,0:0:0:0:
336,60,56331,1,2,0:0:0:0:
184,60,56562,1,0,0:0:0:0:
377,194,56793,1,2,0:0:0:0:
134,194,57023,1,0,0:0:0:0:
40,240,57254,6,0,P|104:340|140:344,1,149.999995231629,2|0,0:0|0:0,0:0:0:0:
256,256,57716,1,2,0:0:0:0:
472,240,57946,2,0,P|408:340|372:344,1,149.999995231629,0|2,0:0|0:0,0:0:0:0:
256,256,58408,1,2,0:0:0:0:
196,116,58639,2,0,P|253:77|313:117,1,149.999995231629,2|0,0:0|0:0,0:0:0:0:
256,256,59100,5,2,0:0:0:0:
204,312,59216,1,0,0:0:0:0:
136,344,59331,1,0,0:0:0:0:
256,172,59562,1,2,0:0:0:0:
204,312,59793,1,0,0:0:0:0:
368,156,60023,1,2,0:0:0:0:
308,312,60254,1,0,0:0:0:0:
144,156,60485,1,2,0:0:0:0:
376,344,60716,1,4,0:0:0:0:
440,192,61177,5,2,0:0:0:0:
440,144,61293,1,0,0:0:0:0:
420,104,61408,1,0,0:0:0:0:
392,72,61523,1,0,0:0:0:0:
348,56,61639,1,2,0:0:0:0:
304,72,61754,1,0,0:0:0:0:
276,104,61870,2,0,L|252:152,1,44.9999971961976
256,192,62100,2,0,L|256:256,1,44.9999971961976,2|0,0:0|0:0,0:0:0:0:
236,280,62331,5,0,0:0:0:0:
208,312,62446,1,0,0:0:0:0:
164,328,62562,1,2,0:0:0:0:
120,312,62677,1,0,0:0:0:0:
92,276,62793,2,0,L|68:228,1,44.9999971961976
68,192,63023,2,0,B|79:192|79:192|68:180|68:180|79:180|79:180|68:168|68:168|80:168|80:168|68:156|68:156|79:156|79:156|68:144|68:144|79:144|79:144|68:132|68:132|80:133|80:133|68:120|68:120|79:120|79:120|63:104|63:104,1,149.999995231629,2|0,0:0|0:0,0:0:0:0:
100,92,63370,1,0,0:0:0:0:
136,64,63485,1,2,0:0:0:0:
180,52,63600,1,0,0:0:0:0:
220,76,63716,1,2,0:0:0:0:
344,192,63946,1,2,0:0:0:0:
168,192,64177,1,2,0:0:0:0:
400,192,64408,5,2,0:0:0:0:
112,192,64639,2,0,P|36:204|8:280,1,149.999995231629,2|0,0:0|0:0,0:0:0:0:
156,268,65100,1,2,0:0:0:0:
292,208,65331,1,0,0:0:0:0:
216,372,65562,1,2,0:0:0:0:
236,104,65793,1,0,0:0:0:0:
224,240,66023,6,0,B|264:296|328:284|352:244|352:244|384:200|452:192|488:264,1,299.999990463257,2|2,0:0|0:0,0:0:0:0:
476,316,66600,2,0,P|420:288|408:244,1,74.9999976158143
292,192,66946,1,2,0:0:0:0:
96,279,67177,1,0,0:0:0:0:
220,192,67408,1,2,0:0:0:0:
256,336,67639,1,0,0:0:0:0:
256,48,67870,1,2,0:0:0:0:
320,184,68100,6,0,P|420:216|464:184,2,149.999995231629,0|2|0,0:0|0:0|0:0,0:0:0:0:
120,96,68793,1,2,0:0:0:0:
392,96,69023,1,0,0:0:0:0:
192,184,69254,2,0,P|92:216|48:184,2,149.999995231629,2|0|2,0:0|0:0|0:0,0:0:0:0:
256,16,69946,1,0,0:0:0:0:
92,92,70177,5,2,0:0:0:0:
256,156,70408,1,0,0:0:0:0:
296,220,70523,1,0,0:0:0:0:
216,220,70639,1,2,0:0:0:0:
366,120,70870,1,0,0:0:0:0:
256,312,71100,1,2,0:0:0:0:
145,120,71331,1,0,0:0:0:0:
256,192,71562,1,4,0:0:0:0:
396,244,71793,5,0,0:0:0:0:
404,256,71908,1,0,0:0:0:0:
412,268,72023,2,2,L|468:340,2,74.9999976158143
224,136,72485,1,2,0:0:0:0:
288,248,72716,1,2,0:0:0:0:
160,108,72946,1,2,0:0:0:0:
352,276,73177,1,2,0:0:0:0:
348,84,73408,2,2,B|344:216|132:176|132:336,1,299.999990463257,0|0,0:0|0:0,0:0:0:0:
373,210,74100,5,2,0:0:0:0:
142,135,74331,1,2,0:0:0:0:
284,332,74562,1,2,0:0:0:0:
284,89,74793,1,2,0:0:0:0:
142,285,75023,1,2,0:0:0:0:
372,212,75254,2,0,B|324:212|324:212|305:202|305:202|284:224|284:224|268:212|268:212|224:208|224:208,1,149.999995231629,2|0,0:0|0:0,0:0:0:0:
148,88,75716,6,0,P|4:76|-8:88,2,149.999995231629,2|0|2,0:0|0:0|0:0,0:0:0:0:
256,192,76408,1,0,0:0:0:0:
396,132,76639,2,2,P|344:76|346:87,1,299.999990463257
256,192,77331,2,0,B|240:236|240:236|192:284|132:244,1,149.999995231629,0|2,0:0|0:0,0:0:0:0:
184,113,77793,6,0,L|184:188,2,74.9999976158143,0|0|2,0:0|0:0|0:0,0:0:0:0:
408,104,78254,1,2,0:0:0:0:
357,318,78485,1,2,0:0:0:0:
139,267,78716,1,2,0:0:0:0:
189,49,78946,1,2,0:0:0:0:
272,192,79177,1,4,0:0:0:0:
272,192,79523,6,0,P|208:168|200:152,1,74.9999976158143,0|2,0:0|0:0,0:0:0:0:
264,120,79754,2,0,P|316:76|334:77,1,74.9999976158143
332,148,79985,2,0,P|343:215|333:230,1,74.9999976158143,0|2,0:0|0:0,0:0:0:0:
272,192,80216,1,0,0:0:0:0:
216,216,80331,2,0,B|210:206|210:206|205:221|205:221|200:211|200:211|194:227|194:227|189:216|189:216|184:232|184:232|179:223|179:223|173:238|173:238|168:228|168:228|163:244|163:244|158:233|158:233|152:249|152:249|147:240|147:240|140:261|140:261,1,149.999995231629,0|2,0:0|0:0,0:0:0:0:
116,260,80677,1,0,0:0:0:0:
72,260,80793,1,0,0:0:0:0:
36,236,80908,1,0,0:0:0:0:
24,192,81023,1,2,0:0:0:0:
36,148,81139,1,0,0:0:0:0:
71,124,81254,2,0,L|116:124,1,44.9999971961976
160,132,81485,2,0,B|165:122|165:122|170:137|170:137|175:127|175:127|181:143|181:143|186:132|186:132|191:148|191:148|196:139|196:139|202:154|202:154|207:144|207:144|212:160|212:160|217:149|217:149|223:165|223:165|228:156|228:156|235:177|235:177,1,149.999995231629,2|0,0:0|0:0,0:0:0:0:
284,112,81831,6,0,P|292:156|260:200,1,74.9999976158143,0|2,0:0|0:0,0:0:0:0:
220,228,82062,2,0,P|256:256|300:244,1,74.9999976158143,0|2,0:0|0:0,0:0:0:0:
352,120,82408,1,2,0:0:0:0:
160,120,82639,1,2,0:0:0:0:
456,160,83100,6,0,P|416:272|272:332,1,224.999992847443,2|0,0:0|0:0,0:0:0:0:
288,336,83562,1,2,0:0:0:0:
243,341,83677,1,0,0:0:0:0:
198,339,83793,1,0,0:0:0:0:
156,324,83908,1,0,0:0:0:0:
140,293,84023,1,2,0:0:0:0:
167,257,84139,1,0,0:0:0:0:
194,221,84254,1,0,0:0:0:0:
170,186,84370,1,0,0:0:0:0:
142,150,84485,1,2,0:0:0:0:
152,118,84600,1,0,0:0:0:0:
193,101,84716,1,0,0:0:0:0:
238,98,84831,1,0,0:0:0:0:
283,103,84946,1,2,0:0:0:0:
340,32,85177,6,2,P|432:92|424:132,1,149.999995231629
356,104,85523,2,2,P|400:192|408:196,1,74.9999976158143
452,188,85754,2,2,B|500:168|504:124,1,74.9999976158143
256,228,86100,1,2,0:0:0:0:
60,188,86331,2,0,B|14:169|12:136,2,74.9999976158143,2|0|2,0:0|0:0|0:0,0:0:0:0:
268,44,86793,5,4,0:0:0:0:
432,116,87023,1,0,0:0:0:0:
456,296,87254,2,0,P|340:244|300:188,1,149.999995231629,2|0,0:0|0:0,0:0:0:0:
244,44,87716,5,4,0:0:0:0:
80,116,87946,1,0,0:0:0:0:
56,296,88177,2,0,P|172:244|212:188,1,149.999995231629,2|0,0:0|0:0,0:0:0:0:
324,72,88639,6,0,P|436:136|436:148,1,149.999995231629,4|0,0:0|0:0,0:0:0:0:
188,312,89100,2,0,P|76:248|76:236,1,149.999995231629,2|0,0:0|0:0,0:0:0:0:
80,80,89562,2,0,P|188:112|196:168,1,149.999995231629,4|0,0:0|0:0,0:0:0:0:
315,248,90023,2,0,P|324:272|432:304,1,149.999995231629,2|0,0:0|0:0,0:0:0:0:
414,137,90485,5,4,0:0:0:0:
224,358,90716,1,0,0:0:0:0:
128,79,90946,1,2,0:0:0:0:
385,303,91177,1,0,0:0:0:0:
96,247,91408,1,4,0:0:0:0:
289,24,91639,1,0,0:0:0:0:
256,192,91870,2,0,P|284:248|304:196,1,149.999995231629,2|0,0:0|0:0,0:0:0:0:
192,68,92331,6,0,P|32:108|8:148,1,149.999995231629,4|0,0:0|0:0,0:0:0:0:
320,316,92793,2,0,P|480:276|504:236,1,149.999995231629,4|0,0:0|0:0,0:0:0:0:
200,204,93254,2,0,L|68:304,1,149.999995231629,2|4,0:0|0:0,0:0:0:0:
312,180,93716,2,0,L|444:80,1,149.999995231629,4|2,0:0|0:0,0:0:0:0:
304,68,94177,5,2,0:0:0:0:
208,316,94408,1,0,0:0:0:0:
248,132,94639,1,2,0:0:0:0:
264,252,94870,1,0,0:0:0:0:
88,228,95100,2,2,P|52:160|56:148,1,74.9999976158143,6|2,0:0|0:0,0:0:0:0:
128,164,95331,1,0,0:0:0:0:
95,99,95446,2,2,P|200:160|164:228,1,224.999992847443
68,344,96023,5,6,0:0:0:0:
348,192,96254,1,2,0:0:0:0:
216,304,96485,1,2,0:0:0:0:
256,80,96716,1,2,0:0:0:0:
296,304,96946,1,6,0:0:0:0:
164,192,97177,1,2,0:0:0:0:
444,344,97408,2,0,P|504:256|484:216,1,149.999995231629,2|0,0:0|0:0,0:0:0:0:
420,92,97870,5,6,0:0:0:0:
352,64,97985,1,0,0:0:0:0:
280,88,98100,1,0,0:0:0:0:
348,220,98331,1,2,0:0:0:0:
416,352,98562,1,0,0:0:0:0:
348,380,98677,1,0,0:0:0:0:
276,356,98793,1,6,0:0:0:0:
168,252,99023,2,0,P|128:192|172:132,2,149.999995231629,0|2|0,0:0|0:0|0:0,0:0:0:0:
316,232,99716,6,0,L|400:212,2,74.9999976158143,6|0|0,0:0|0:0|0:0,0:0:0:0:
124,356,100177,1,6,0:0:0:0:
256,152,100408,1,2,0:0:0:0:
388,356,100639,1,2,0:0:0:0:
196,232,100870,1,6,0:0:0:0:
256,320,101100,1,4,0:0:0:0:
404,188,101540,6,2,P|416:96|244:40,1,299.999990463257
224,76,102125,1,0,0:0:0:0:
212,120,102243,1,2,0:0:0:0:
228,164,102360,1,0,0:0:0:0:
256,204,102477,2,2,P|268:296|101:356,1,299.999990463257
60,324,103077,1,0,0:0:0:0:
40,284,103197,1,2,0:0:0:0:
36,240,103317,1,0,0:0:0:0:
40,196,103437,1,2,0:0:0:0:
144,160,103737,6,2,B|196:148|256:252|256:252|316:148|368:160,1,299.999990463257
436,236,104637,2,2,B|364:220|332:248|344:332|256:344|256:344|168:332|180:248|148:220|76:236,1,449.999985694885
344,152,105837,6,2,P|324:56|208:44,1,225.000001430512
256,128,106804,1,2,0:0:0:0:
168,103,107127,2,2,P|188:200|304:212,1,225.000001430512
436,192,108417,5,2,0:0:0:0:
256,264,109062,1,2,0:0:0:0:
76,192,109707,1,2,0:0:0:0:
76,192,110019,1,0,0:0:0:0:
76,192,110332,1,0,0:0:0:0:
76,192,110658,6,2,P|96:288|212:300,1,225.000001430512
164,216,111602,1,2,0:0:0:0:
164,216,111921,1,2,0:0:0:0:
252,240,112240,2,2,P|232:143|116:131,1,225.000001430512
360,192,113516,5,2,0:0:0:0:
160,96,114155,2,2,P|96:192|156:288,1,225.000001430512
141,279,115133,1,0,0:0:0:0:
141,279,115459,1,2,0:0:0:0:
141,279,115785,1,0,0:0:0:0:
141,279,116111,6,0,P|212:312|264:296,1,112.500000715256,2|0,0:0|0:0,0:0:0:0:
212,192,116754,2,0,P|126:170|94:182,1,112.500000715256,2|0,0:0|0:0,0:0:0:0:
140,280,117398,1,2,0:0:0:0:
256,344,117720,1,0,0:0:0:0:
372,280,118042,1,2,0:0:0:0:
216,116,118704,6,0,P|140:184|144:200,1,112.500000715256,2|0,0:0|0:0,0:0:0:0:
232,216,119345,2,0,P|328:247|340:236,1,112.500000715256,2|0,0:0|0:0,0:0:0:0:
312,140,119987,2,0,P|291:40|275:35,2,112.500000715256,2|0|2,0:0|0:0|0:0,0:0:0:0:
216,212,120969,5,0,0:0:0:0:
108,272,121310,2,0,P|128:371|144:376,2,112.500000715256,2|0|2,0:0|0:0|0:0,0:0:0:0:
108,272,122267,5,0,0:0:0:0:
108,272,122586,1,2,0:0:0:0:
108,272,122905,1,0,0:0:0:0:
108,272,123224,1,2,0:0:0:0:
256,192,123388,12,0,124521,0:0:0:0:
256,96,124873,5,2,0:0:0:0:
380,128,125226,2,0,P|260:216|124:88,1,337.500002145767
304,48,126450,1,2,0:0:0:0:
208,48,126756,1,2,0:0:0:0:
84,240,127674,6,2,B|220:200|256:332|256:332|292:200|428:240,2,450.000002861023,2|2|2,0:0|0:0|2:0,0:0:0:0:
256,192,129811,12,4,133157,0:0:0:0:
