osu file format v12

[General]
AudioFilename: Raise This Barn.mp3
AudioLeadIn: 500
PreviewTime: 86793
Countdown: 0
SampleSet: Soft
StackLeniency: 0.7
Mode: 0
LetterboxInBreaks: 0
WidescreenStoryboard: 0

[Editor]
DistanceSpacing: 1
BeatDivisor: 2
GridSize: 4

[Metadata]
Title:Raise This Barn
TitleUnicode:Raise This Barn
Artist:Daniel Ingram
ArtistUnicode:Daniel Ingram
Creator:rezoons
Version:Easy
Source:My Little Pony: Friendship is Magic
Tags:Gabe
BeatmapID:260499
BeatmapSetID:71542

[Difficulty]
HPDrainRate:2
CircleSize:3
OverallDifficulty:2
ApproachRate:2
SliderMultiplier:1.1
SliderTickRate:2

[Events]
//Background and Video events
Video,0,"Raise this barn.flv"
0,0,"RTBHQ.jpg",0,0
//Break Periods
2,20300,26156
2,42454,44617
2,60916,63079
2,79376,85233
2,101562,104277
//Storyboard Layer 0 (Background)
//Storyboard Layer 1 (Fail)
//Storyboard Layer 2 (Pass)
//Storyboard Layer 3 (Foreground)
//Storyboard Sound Samples
//Background Colour Transformations
3,100,163,162,255

[TimingPoints]
1870,461.538461538462,4,2,0,50,1,0
86793,-100,4,2,0,60,0,1
94177,-100,4,2,1,50,0,1
101540,468.75,4,2,1,30,1,0
102477,480,4,2,1,20,1,0
103437,600,4,2,1,20,1,0
105837,645.161290322581,4,2,1,30,1,0
109707,625,4,2,1,30,1,0
110332,652.173913043478,4,2,1,30,1,0
110984,618.556701030928,4,2,1,30,1,0
111602,638.297872340426,4,2,1,30,1,0
114155,652.173913043478,4,2,1,30,1,0
116111,643.776824034335,4,2,1,30,1,0
118042,662.983425414365,4,2,1,30,1,0
118704,641.711229946524,4,2,1,30,1,0
120629,681.818181818182,4,2,1,30,1,0
121310,638.297872340426,4,2,1,30,1,0
123224,659.340659340659,4,2,1,30,1,0
123883,638.297872340426,4,2,1,30,1,0
124521,705.882352941176,4,2,1,30,1,0
125226,612.244897959184,4,2,1,30,1,0
127674,508.474576271186,4,2,1,40,1,0
128690,503.14465408805,4,2,1,40,1,0
129696,461.538461538462,4,1,0,50,1,0

[Colours]
Combo1 : 242,168,13
Combo2 : 232,219,145
Combo3 : 255,128,0
Combo4 : 176,88,0
SliderBorder : 255,255,255

[HitObjects]
136,132,5562,6,0,B|188:80|256:96,1,110,2|0,0:0|0:0,0:0:0:0:
296,184,6485,2,0,B|248:232|172:224,1,110,2|0,0:0|0:0,0:0:0:0:
136,132,7408,5,0,0:0:0:0:
36,176,7870,1,2,0:0:0:0:
36,284,8331,1,0,0:0:0:0:
144,308,8793,1,2,0:0:0:0:
212,220,9254,6,0,B|229:269|229:269|277:301,1,110,0|2,0:0|0:0,0:0:0:0:
376,252,10177,1,0,0:0:0:0:
324,156,10639,1,2,0:0:0:0:
259,67,11100,5,0,0:0:0:0:
154,100,11562,1,2,0:0:0:0:
154,211,12023,1,0,0:0:0:0:
259,245,12485,1,4,0:0:0:0:
368,224,12946,22,2,L|440:232,2,55,2|2|2,0:0|0:0|0:0,0:0:0:0:
296,140,13870,2,2,L|304:76,2,55,2|2|2,0:0|0:0|0:0,0:0:0:0:
260,244,14793,6,0,P|208:212|184:160,1,110,0|2,0:0|0:0,0:0:0:0:
80,136,15716,1,0,0:0:0:0:
108,244,16177,1,4,0:0:0:0:
188,320,16639,6,0,P|349:187|318:155,1,330,2|2,0:0|0:0,0:0:0:0:
256,240,18485,2,0,P|388:78|420:109,1,330,2|2,0:0|0:0,0:0:0:0:
452,128,20100,1,4,0:0:0:0:
284,152,27716,6,0,B|332:180|300:216|356:252,1,110,2|0,0:0|0:0,0:0:0:0:
232,232,28639,2,0,B|184:204|216:168|160:132,1,110,2|0,0:0|0:0,0:0:0:0:
284,152,29562,6,0,B|286:94|286:94|296:64|344:64,1,110,2|2,0:0|0:0,0:0:0:0:
404,144,30485,2,0,B|403:201|403:201|392:232|344:232,1,110,2|2,0:0|0:0,0:0:0:0:
284,152,31408,6,0,P|208:136|160:160,1,110,2|0,0:0|0:0,0:0:0:0:
75,152,32331,2,0,P|151:136|199:160,1,110,2|0,0:0|0:0,0:0:0:0:
188,256,33254,5,2,0:0:0:0:
296,284,33716,1,2,0:0:0:0:
200,336,34177,1,2,0:0:0:0:
308,364,34639,1,4,0:0:0:0:
412,316,35100,22,0,B|436:292|436:292|460:284|460:284|496:248,1,110,2|0,0:0|0:0,0:0:0:0:
496,140,36023,2,0,B|473:163|473:163|449:171|449:171|412:208,1,110,2|0,0:0|0:0,0:0:0:0:
412,96,36946,5,0,0:0:0:0:
304,54,37408,1,2,0:0:0:0:
239,143,37870,1,0,0:0:0:0:
304,232,38331,1,2,0:0:0:0:
312,340,38793,6,0,B|255:345|201:291|198:238|198:238|145:235|91:181|97:125,1,330,2|2,0:0|0:0,0:0:0:0:
96,20,40639,2,0,B|152:14|206:68|209:121|209:121|262:124|316:178|310:234,1,330,2|2,0:0|0:0,0:0:0:0:
308,284,42254,1,4,0:0:0:0:
200,172,46177,6,0,B|185:131|217:111|201:63,1,110,2|0,0:0|0:0,0:0:0:0:
310,64,47100,2,0,B|294:112|326:132|311:172,1,110,2|0,0:0|0:0,0:0:0:0:
364,268,48023,6,0,P|308:284|252:268,1,110,2|0,0:0|0:0,0:0:0:0:
154,274,48946,2,0,P|204:287|260:271,1,110,2|0,0:0|0:0,0:0:0:0:
180,192,49870,6,0,B|208:52|256:260|304:52|332:192,1,220,2|2,0:0|0:0,0:0:0:0:
256,272,51254,1,2,0:0:0:0:
164,336,51716,5,0,0:0:0:0:
72,276,52177,1,2,0:0:0:0:
72,164,52639,1,0,0:0:0:0:
164,108,53100,1,6,0:0:0:0:
259,175,53562,22,0,P|279:231|223:287,1,110,2|0,0:0|0:0,0:0:0:0:
152,220,54485,1,2,0:0:0:0:
152,328,54946,1,2,0:0:0:0:
56,272,55408,22,0,L|56:356,2,55,2|0|0,0:0|0:0|0:0,0:0:0:0:
152,220,56331,1,2,0:0:0:0:
151,328,56793,1,2,0:0:0:0:
260,352,57254,6,0,B|324:248|204:136|296:8,1,330,2|2,0:0|0:0,0:0:0:0:
392,32,59100,2,0,B|470:137|350:249|414:353,1,330,2|2,0:0|0:0,0:0:0:0:
468,352,60716,1,4,0:0:0:0:
184,44,64639,6,0,P|120:60|84:112,1,110,2|0,0:0|0:0,0:0:0:0:
184,156,65562,1,2,0:0:0:0:
260,236,66023,1,0,0:0:0:0:
352,292,66485,6,0,P|329:326|265:342,1,110,2|0,0:0|0:0,0:0:0:0:
156,344,67408,2,0,L|100:344,2,55,2|2|0,0:0|0:0|0:0,0:0:0:0:
228,260,68331,6,0,P|268:228|272:152,1,110,2|0,0:0|0:0,0:0:0:0:
220,80,69254,1,2,0:0:0:0:
332,80,69716,1,2,0:0:0:0:
396,168,70177,6,2,B|444:188|444:188|476:244|440:304|440:304|380:320,1,220
312,244,71562,1,4,0:0:0:0:
232,168,72023,22,2,B|184:188|184:188|152:244|188:304|188:304|248:320,1,220
128,356,73408,1,0,0:0:0:0:
64,268,73870,5,2,0:0:0:0:
100,164,74331,1,0,0:0:0:0:
176,84,74793,2,0,B|228:132|268:92|308:136,1,110,2|0,0:0|0:0,0:0:0:0:
352,200,75716,5,2,0:0:0:0:
280,284,76177,1,0,0:0:0:0:
212,200,76639,2,2,L|208:136,2,55,2|0|2,0:0|0:0|0:0,0:0:0:0:
172,304,77562,5,0,0:0:0:0:
280,284,78023,2,0,P|344:340|388:332,1,110,2|0,0:0|0:0,0:0:0:0:
388,232,78946,2,0,L|448:232,1,55,2|4,0:0|0:0,0:0:0:0:
148,312,86793,5,4,0:0:0:0:
364,312,87716,1,4,0:0:0:0:
360,92,88639,2,0,P|284:76|240:96,1,110,2|8,0:0|0:0,0:0:0:0:
151,92,89562,2,0,P|227:76|272:100,1,110,2|8,0:0|0:0,0:0:0:0:
256,196,90485,5,4,0:0:0:0:
412,352,91408,1,4,0:0:0:0:
294,166,92331,2,0,B|302:110|302:110|356:80,1,110,4|2,0:0|0:0,0:0:0:0:
456,100,93254,2,0,B|448:156|448:156|392:188,1,110,2|4,0:0|0:0,0:0:0:0:
348,84,94177,6,2,P|256:32|164:84,1,220,6|6,0:0|0:0,0:0:0:0:
256,144,95562,1,2,0:0:0:0:
348,204,96023,2,2,P|256:256|164:204,1,220,6|6,0:0|0:0,0:0:0:0:
256,144,97408,1,4,0:0:0:0:
168,76,97870,6,0,B|96:104|84:152|84:152|68:204|0:236,1,220,6|6,0:0|0:0,0:0:0:0:
120,268,99254,1,2,0:0:0:0:
172,176,99716,2,0,B|194:226|246:242|246:242|294:254|322:326,1,220,6|2,0:0|0:0,0:0:0:0:
216,352,101100,1,4,0:0:0:0:
144,112,105837,6,0,P|176:184|232:184,1,110,2|0,0:0|0:0,0:0:0:0:
256,192,106804,1,0,0:0:0:0:
312,192,107127,2,0,P|335:198|367:270,1,110,2|0,0:0|0:0,0:0:0:0:
260,280,108417,21,2,0:0:0:0:
160,328,109062,1,2,0:0:0:0:
64,276,109707,2,0,P|72:172|108:148,1,110,2|0,0:0|0:0,0:0:0:0:
180,196,110984,6,0,P|152:104|136:92,1,110,0|2,0:0|0:0,0:0:0:0:
252,68,112240,1,0,0:0:0:0:
280,172,112878,1,2,0:0:0:0:
384,204,113516,21,2,0:0:0:0:
304,280,114155,1,2,0:0:0:0:
280,172,114807,2,0,P|212:160|156:184,1,110,2|0,0:0|0:0,0:0:0:0:
236,76,116111,6,0,B|272:76|272:76|316:84|316:84|376:84,1,110,2|0,0:0|0:0,0:0:0:0:
416,168,117398,2,0,B|380:168|380:168|336:176|336:176|276:176,1,110,2|2,0:0|0:0,0:0:0:0:
208,124,118704,6,2,B|184:180|212:232,1,110
100,236,119987,1,2,0:0:0:0:
104,124,120629,1,2,0:0:0:0:
208,72,121310,6,0,B|240:132|292:136,1,110,2|0,0:0|0:0,0:0:0:0:
396,176,122586,1,2,0:0:0:0:
360,276,123224,2,0,B|300:336|256:240|212:336|152:276,1,220
144,168,125226,22,2,P|256:68|368:180,1,330
356,308,127674,6,0,P|304:356|256:360,1,110,2|0,0:0|0:0,0:0:0:0:
168,312,128690,2,0,P|220:264|268:260,1,110,2|0,0:0|0:0,0:0:0:0:
256,192,129696,12,4,133157,0:0:0:0:
