osu file format v12

[General]
AudioFilename: 03 - Equestria Girls.mp3
AudioLeadIn: 0
PreviewTime: 71459
Countdown: 0
SampleSet: Soft
StackLeniency: 0.7
Mode: 0
LetterboxInBreaks: 1
WidescreenStoryboard: 0

[Editor]
Bookmarks: 30572
DistanceSpacing: 0.8
BeatDivisor: 4
GridSize: 4

[Metadata]
Title:Helping Twilight Win the Crown
TitleUnicode:Helping Twilight Win the Crown
Artist:Daniel Ingram
ArtistUnicode:Daniel Ingram
Creator:MagoichiSaica
Version:Kindness
Source:My Little Pony: Equestria Girls
Tags:Pinkie Pie Shannon Chan-Kent Rarity Kazumi Evans Applejack Rainbow Dash Ashleigh Ball Fluttershy Andrea Libman Twilight Sparkle Rebecca Shoichet
BeatmapID:369929
BeatmapSetID:149741

[Difficulty]
HPDrainRate:7
CircleSize:4
OverallDifficulty:6
ApproachRate:7
SliderMultiplier:1.6
SliderTickRate:2

[Events]
//Background and Video events
0,0,"Equestria Girls.png",0,0
Video,0,"EG.avi"
//Break Periods
2,50310,53952
//Storyboard Layer 0 (Background)
//Storyboard Layer 1 (Fail)
//Storyboard Layer 2 (Pass)
//Storyboard Layer 3 (Foreground)
//Storyboard Sound Samples
//Background Colour Transformations
3,100,163,162,255

[TimingPoints]
1265,610.562735321054,4,2,1,100,1,0
1265,-100,4,2,1,50,0,0
54852,535.714285714286,4,2,1,100,1,0
54852,-100,4,2,1,50,0,0
71459,-100,4,2,1,50,0,1
89137,-100,4,2,1,50,0,0
106280,-100,4,2,1,50,0,1
123423,-133.333333333333,4,2,1,50,0,0
142173,-100,4,2,1,50,0,0
159852,-100,4,2,1,50,0,1
175789,-100,4,2,1,50,0,0
175923,-100,4,2,1,50,0,1
176057,-100,4,2,1,50,0,0

[Colours]
Combo1 : 0,255,255
Combo2 : 64,0,128
Combo3 : 255,255,0
Combo4 : 128,0,255
Combo5 : 255,0,255

[HitObjects]
256,44,1265,1,0,0:0:0:0:
256,300,2486,2,0,L|256:216,1,80
444,192,3707,1,0,0:0:0:0:
188,192,4928,2,0,B|228:192|228:192|228:152,1,80
256,344,6149,5,0,0:0:0:0:
52,192,7370,1,0,0:0:0:0:
256,192,7675,1,0,0:0:0:0:
448,192,8591,1,0,0:0:0:0:
324,156,9202,1,0,0:0:0:0:
200,192,9812,2,0,B|240:204|240:204|280:192,2,80
256,76,11034,5,0,0:0:0:0:
200,192,11644,1,0,0:0:0:0:
256,76,12255,1,0,0:0:0:0:
300,124,12560,1,0,0:0:0:0:
344,168,12865,1,0,0:0:0:0:
256,260,13476,5,0,0:0:0:0:
128,260,14086,1,0,0:0:0:0:
232,188,14697,2,0,B|192:188|192:188|172:168|172:168|144:168|144:168|120:152|120:152|80:152,1,160
176,64,15918,1,0,0:0:0:0:
304,64,16529,1,0,0:0:0:0:
304,224,17139,2,0,L|304:64,1,160
408,140,18360,5,0,0:0:0:0:
408,268,18971,1,0,0:0:0:0:
280,268,19581,1,0,0:0:0:0:
220,248,19887,1,0,0:0:0:0:
180,196,20192,1,0,0:0:0:0:
180,68,20803,5,0,0:0:0:0:
168,52,21413,1,0,0:0:0:0:
152,40,22024,1,0,0:0:0:0:
132,32,22329,1,0,0:0:0:0:
112,28,22634,1,0,0:0:0:0:
104,156,23245,5,0,0:0:0:0:
104,284,23855,1,0,0:0:0:0:
104,156,24466,1,0,0:0:0:0:
104,220,24771,1,0,0:0:0:0:
104,284,25076,1,0,0:0:0:0:
232,288,25687,6,0,L|392:288,2,160
188,240,27213,1,0,0:0:0:0:
148,192,27519,2,0,L|148:32,2,160
276,192,29350,2,0,L|276:32,1,160
404,44,30572,6,0,P|432:120|404:192,1,160
276,176,31793,1,0,0:0:0:0:
212,176,32098,2,0,L|132:176,1,80
212,176,32708,1,0,0:0:0:0:
212,112,33014,6,0,B|244:80|244:80|280:80,1,80
344,80,33624,1,0,0:0:0:0:
400,112,33930,1,0,0:0:0:0:
440,164,34235,1,0,0:0:0:0:
444,228,34540,2,0,P|444:268|420:304,1,80
60,192,35456,5,0,0:0:0:0:
60,192,35761,2,0,B|112:192|112:192|128:168|140:152|160:144|160:144|200:144,1,160
192,80,36677,1,0,0:0:0:0:
248,48,36982,2,0,P|224:16|176:16,2,80
404,164,38204,5,0,0:0:0:0:
404,164,38509,1,0,0:0:0:0:
404,164,38814,2,0,L|352:232,1,80
304,264,39425,1,0,0:0:0:0:
244,284,39730,2,0,P|192:292|160:280,1,80
76,192,40646,6,0,L|76:112,1,80
132,140,41256,1,0,0:0:0:0:
180,100,41562,2,0,L|180:56,2,40
256,32,42172,1,0,0:0:0:0:
256,112,42477,1,0,0:0:0:0:
256,192,42783,1,0,0:0:0:0:
256,272,43088,1,0,0:0:0:0:
256,352,43393,1,0,0:0:0:0:
256,192,43699,1,0,0:0:0:0:
256,32,44004,1,0,0:0:0:0:
388,248,44614,6,0,P|360:288|328:304,1,80
124,135,45225,2,0,P|144:102|178:81,1,80
178,302,45836,2,0,P|144:281|124:248,1,80
333,81,46446,2,0,P|367:102|387:135,1,80
36,192,47057,1,0,0:0:0:0:
256,348,47362,1,0,0:0:0:0:
476,192,47667,1,0,0:0:0:0:
256,32,47973,1,0,0:0:0:0:
256,192,48278,12,0,49804,0:0:0:0:
256,192,50110,5,0,0:0:0:0:
104,96,54852,5,0,0:0:0:0:
232,96,55387,1,0,0:0:0:0:
392,96,55923,2,0,L|232:96,2,160
392,160,57262,1,0,0:0:0:0:
392,224,57530,1,0,0:0:0:0:
380,288,57798,2,0,L|320:340,1,80
192,332,58602,6,0,L|144:268,1,80
92,232,59137,1,0,0:0:0:0:
92,168,59405,2,0,L|36:168,2,40
96,104,59941,1,0,0:0:0:0:
144,60,60209,2,0,B|180:36|180:36|212:60,1,80
272,60,60744,2,0,B|308:36|308:36|340:60,1,80
364,192,61280,5,0,0:0:0:0:
368,324,61548,6,0,B|332:348|332:348|300:324,1,80
240,324,62084,2,0,B|204:348|204:348|172:324,1,80
132,276,62619,2,0,L|96:304,2,40
92,228,63155,1,0,0:0:0:0:
92,148,63423,2,0,L|92:228,1,80
156,148,63959,1,0,0:0:0:0:
236,148,64227,2,0,L|156:148,2,80
428,112,65030,6,0,B|448:164|448:204|424:268,1,160
84,112,66102,2,0,B|64:164|64:204|88:268,1,160
224,164,67173,6,0,B|200:200|200:200|220:240,1,80
283,196,67709,2,0,B|300:164|300:164|276:128,1,80
168,92,68244,2,0,B|144:128|144:128|160:160,1,80
344,292,68780,2,0,B|368:256|368:256|351:223,1,80
136,132,69316,1,0,0:0:0:0:
276,340,69584,1,0,0:0:0:0:
392,152,69852,1,0,0:0:0:0:
128,124,70119,1,0,0:0:0:0:
256,192,70387,12,0,71191,0:0:0:0:
239,76,71459,6,0,B|231:136|231:136|216:148,1,80
152,148,71994,2,0,B|160:208|160:208|176:220,1,80
304,219,72530,2,0,B|320:208|320:208|328:148,1,80
263,147,73066,2,0,B|248:136|248:136|240:76,1,80
300,56,73602,5,0,0:0:0:0:
364,44,73869,1,0,0:0:0:0:
424,68,74137,1,0,0:0:0:0:
460,120,74405,1,0,0:0:0:0:
484,180,74673,1,0,0:0:0:0:
480,244,74941,1,0,0:0:0:0:
456,304,75209,1,0,0:0:0:0:
392,312,75477,6,0,L|392:232,1,80
336,264,76012,2,0,L|256:264,1,80
288,208,76548,2,0,L|288:128,1,80
344,160,77084,1,0,0:0:0:0:
388,116,77352,2,0,L|440:116,2,40
344,68,77887,2,0,L|344:24,2,40
296,112,78423,1,0,0:0:0:0:
296,112,78691,5,0,0:0:0:0:
368,192,78959,1,0,0:0:0:0:
368,192,79227,5,0,0:0:0:0:
300,276,79494,1,0,0:0:0:0:
300,276,79762,5,0,0:0:0:0:
272,220,80030,6,0,L|312:220,2,40
272,220,80566,2,0,B|244:256|244:256|208:276|208:276|164:276|164:276|136:268,2,160
368,52,82173,2,0,P|380:100|420:120,1,80
144,332,82709,2,0,P|132:284|92:264,1,80
403,116,83244,2,0,P|373:90|368:52,1,80
108,267,83780,2,0,P|138:293|144:332,1,80
256,336,84316,5,0,0:0:0:0:
288,280,84584,1,0,0:0:0:0:
352,280,84852,1,0,0:0:0:0:
412,260,85119,2,0,B|448:240|448:240|452:200,1,80
388,200,85655,2,0,B|392:160|392:160|424:136,1,80
384,88,86191,1,0,0:0:0:0:
348,140,86459,2,0,B|320:108|320:108|300:108|300:108|288:84|288:84|272:84|272:84|256:68|256:68|224:64,1,160
164,44,87262,5,0,0:0:0:0:
48,112,87530,1,0,0:0:0:0:
48,272,87798,1,0,0:0:0:0:
164,340,88066,1,0,0:0:0:0:
348,340,88334,5,0,0:0:0:0:
464,272,88602,1,0,0:0:0:0:
464,144,89137,6,0,L|376:144,1,80
48,144,89673,2,0,L|128:144,1,80
128,212,90209,1,0,0:0:0:0:
256,212,90477,1,0,0:0:0:0:
256,84,90744,2,0,L|256:44,1,40
412,192,91280,5,0,0:0:0:0:
424,220,91414,1,0,0:0:0:0:
424,252,91548,1,0,0:0:0:0:
412,280,91682,1,0,0:0:0:0:
388,304,91816,1,0,0:0:0:0:
360,320,91950,1,0,0:0:0:0:
328,320,92084,1,0,0:0:0:0:
296,316,92218,1,0,0:0:0:0:
264,304,92352,2,0,P|220:284|200:256,2,80
160,228,93423,6,0,P|132:192|120:152,1,80
121,159,93825,1,0,0:0:0:0:
121,159,93959,2,0,P|116:108|132:80,1,80
352,156,94494,6,0,P|380:192|392:232,1,80
390,224,94896,1,0,0:0:0:0:
390,224,95030,2,0,P|396:276|380:304,1,80
260,320,95566,6,0,P|188:340|104:316,1,160
152,272,96369,2,0,P|184:244|224:244,1,80
325,161,96905,2,0,P|313:199|280:220,1,80
104,72,97709,22,0,L|144:56,1,40
224,136,97977,2,0,L|184:128,1,40
80,200,98244,2,0,L|120:196,1,40
192,288,98780,1,0,0:0:0:0:
344,76,99048,1,0,0:0:0:0:
232,312,99316,1,0,0:0:0:0:
348,260,99852,54,0,B|384:232|384:232|384:192,1,80
464,116,100387,1,0,0:0:0:0:
384,197,100655,2,0,B|384:156|384:156|344:120,1,80
316,24,101191,1,0,0:0:0:0:
355,129,101459,2,0,B|320:104|320:104|276:104,1,80
256,356,101994,22,0,L|256:272,1,80
256,188,102530,1,0,0:0:0:0:
256,24,102798,2,0,L|256:104,1,80
256,188,103334,1,0,0:0:0:0:
36,192,103602,2,0,L|116:192,1,80
232,312,104137,6,0,B|272:304|272:304|296:272,1,80
360,256,104673,1,0,0:0:0:0:
384,196,104941,2,0,B|408:164|408:164|408:120,1,80
360,84,105477,1,0,0:0:0:0:
360,84,105610,1,0,0:0:0:0:
360,84,105744,2,0,L|280:84,1,80
104,248,106280,2,0,L|188:248,1,80
280,84,106816,2,0,L|200:84,1,80
184,248,107352,2,0,L|268:248,1,80
408,192,107887,6,0,L|368:192,1,40
264,136,108155,2,0,L|304:116,1,40
396,60,108423,2,0,L|360:40,1,40
224,40,108691,2,0,B|180:56|180:56|172:76|172:76|144:80|144:80|132:104|132:104|116:140,2,160
288,40,110030,2,0,L|344:96,1,80
360,160,110566,1,0,0:0:0:0:
344,220,110834,2,0,L|300:296,1,80
272,236,111369,2,0,L|200:192,1,80
204,260,111905,2,0,L|136:308,1,80
96,256,112441,1,0,0:0:0:0:
96,256,112575,1,0,0:0:0:0:
96,224,112709,5,0,0:0:0:0:
96,192,112843,1,0,0:0:0:0:
96,160,112977,1,0,0:0:0:0:
96,128,113110,1,0,0:0:0:0:
104,96,113244,1,0,0:0:0:0:
120,68,113378,1,0,0:0:0:0:
152,60,113512,1,0,0:0:0:0:
184,60,113646,1,0,0:0:0:0:
216,60,113780,1,0,0:0:0:0:
348,92,114048,5,0,0:0:0:0:
388,232,114316,6,0,B|404:280|384:320|316:332|296:276,2,160
388,168,115655,2,0,L|388:84,2,80
324,168,116459,1,0,0:0:0:0:
288,116,116727,1,0,0:0:0:0:
256,172,116994,1,0,0:0:0:0:
228,116,117262,1,0,0:0:0:0:
288,116,117530,1,0,0:0:0:0:
256,172,117798,1,0,0:0:0:0:
228,116,118066,1,0,0:0:0:0:
192,168,118334,1,0,0:0:0:0:
48,148,118602,6,0,P|68:96|88:76,1,80
464,236,119137,2,0,P|444:288|424:308,1,80
84,79,119673,2,0,P|116:52|152:36,1,80
427,304,120209,2,0,P|396:332|360:348,1,80
150,36,120744,2,0,P|208:24|240:24,1,80
348,44,121280,5,0,0:0:0:0:
464,112,121548,1,0,0:0:0:0:
464,272,121816,1,0,0:0:0:0:
348,340,122084,1,0,0:0:0:0:
164,340,122352,1,0,0:0:0:0:
48,272,122620,1,0,0:0:0:0:
48,112,122888,1,0,0:0:0:0:
164,44,123156,1,0,0:0:0:0:
344,40,123423,6,0,B|364:80|372:120|368:156|360:176,2,120.000004577637
296,40,124762,1,0,0:0:0:0:
248,40,125030,1,0,0:0:0:0:
200,40,125298,2,0,L|156:40,2,30.0000011444092
220,84,125834,2,0,P|268:104|276:120,1,60.0000022888184
252,152,126369,2,0,P|260:184|256:212,1,60.0000022888184
208,208,126905,2,0,P|192:240|168:256,2,60.0000022888184
256,208,127709,5,0,0:0:0:0:
304,208,127977,1,0,0:0:0:0:
352,208,128244,2,0,L|372:232,2,30.0000011444092
352,208,128780,2,0,L|328:180,2,30.0000011444092
352,208,129316,1,0,0:0:0:0:
304,204,129584,6,0,B|288:176|288:176|300:152,1,60.0000022888184
260,204,130119,2,0,B|248:236|248:236|256:280,1,60.0000022888184
216,204,130655,2,0,B|208:176|208:176|220:144,1,60.0000022888184
256,116,131191,1,0,0:0:0:0:
256,264,131459,1,0,0:0:0:0:
352,260,131994,6,0,B|504:200|240:192|484:116|340:72,1,240.000009155274
248,80,133602,1,0,0:0:0:0:
164,128,134137,2,0,B|136:152|64:168|168:188,1,120.000004577637
164,244,135209,2,0,B|190:221|262:205|163:186,2,120.000004577637
292,304,136816,5,0,0:0:0:0:
432,144,137084,5,0,0:0:0:0:
220,64,137352,5,0,0:0:0:0:
96,316,137619,5,0,0:0:0:0:
312,216,137887,5,0,0:0:0:0:
108,84,138155,5,0,0:0:0:0:
208,284,138423,5,0,0:0:0:0:
408,116,138691,5,0,0:0:0:0:
176,52,138959,5,0,0:0:0:0:
332,316,139227,5,0,0:0:0:0:
392,60,139494,5,0,0:0:0:0:
100,188,139762,5,0,0:0:0:0:
256,192,140030,12,0,141637,0:0:0:0:
352,272,142173,6,0,B|368:216|372:172|372:136|368:108,1,160
340,96,142843,1,0,0:0:0:0:
312,80,142977,1,0,0:0:0:0:
284,68,143110,1,0,0:0:0:0:
252,60,143244,2,0,P|196:48|164:52,2,80
256,320,144316,1,0,0:0:0:0:
256,192,144852,6,0,L|256:272,1,80
312,240,145387,2,0,L|312:144,1,80
264,120,145923,2,0,B|224:88|224:88|196:112|196:112|160:88|160:88|132:108,2,160
220,168,147262,1,0,0:0:0:0:
196,228,147530,1,0,0:0:0:0:
160,280,147798,2,0,B|208:312|208:312|244:296,1,80
264,248,148334,2,0,B|304:208|304:208|328:208,1,80
376,168,148869,5,0,0:0:0:0:
380,104,149137,1,0,0:0:0:0:
380,40,149405,2,0,P|340:80|312:80,1,80
268,44,149941,2,0,P|232:72|228:104,2,80
332,44,150744,6,0,B|352:108|360:144|360:184|360:204,1,160
180,340,151816,2,0,B|160:276|152:240|152:200|152:180,1,160
472,192,152887,1,0,0:0:0:0:
388,96,153423,6,0,B|352:112|352:112|312:92,1,80
344,36,153959,2,0,B|308:20|308:20|268:40,1,80
300,96,154494,2,0,B|264:112|264:112|224:92,1,80
260,36,155030,2,0,B|223:17|223:17|187:33,1,80
124,40,155566,5,0,0:0:0:0:
60,152,155834,1,0,0:0:0:0:
136,264,156102,1,0,0:0:0:0:
328,32,156637,5,0,0:0:0:0:
432,192,156905,1,0,0:0:0:0:
332,324,157173,1,0,0:0:0:0:
204,320,157709,6,0,L|168:304,1,40
184,276,157977,2,0,L|144:244,1,40
176,228,158244,2,0,L|160:192,1,40
192,188,158512,2,0,L|192:136,1,40
224,152,158780,2,0,L|240:112,1,40
332,96,159316,6,0,L|332:176,1,80
280,140,159852,2,0,L|280:56,1,80
388,152,160387,2,0,L|388:232,1,80
216,100,160923,2,0,L|216:20,1,80
424,304,161459,1,0,0:0:0:0:
292,304,161994,6,0,L|212:304,1,80
244,248,162530,2,0,L|244:168,1,80
188,200,163066,2,0,L|144:200,2,40
152,144,163602,2,0,L|152:100,2,40
216,144,164137,2,0,L|296:144,1,80
264,88,164673,1,0,0:0:0:0:
424,88,164941,2,0,L|264:88,1,160
264,88,165744,1,0,0:0:0:0:
264,88,165878,1,0,0:0:0:0:
264,88,166012,1,0,0:0:0:0:
180,40,166280,6,0,P|140:48|112:80,1,80
332,344,166816,2,0,P|372:336|400:304,1,80
114,75,167352,2,0,P|96:112|92:152,1,80
397,308,167887,2,0,P|416:272|420:232,1,80
408,172,168423,1,0,0:0:0:0:
408,140,168557,1,0,0:0:0:0:
408,108,168691,1,0,0:0:0:0:
344,104,168959,6,0,L|256:104,1,80
296,160,169494,2,0,L|200:160,1,80
28,160,170030,1,0,0:0:0:0:
112,256,170566,2,0,P|120:304|144:324,1,80
176,268,171102,2,0,P|216:272|256:256,1,80
212,212,171637,2,0,P|240:184|284:176,1,80
224,140,172173,2,0,P|248:96|280:88,1,80
256,28,172709,5,0,0:0:0:0:
476,192,172977,1,0,0:0:0:0:
256,348,173244,1,0,0:0:0:0:
256,348,173780,1,0,0:0:0:0:
36,192,174048,1,0,0:0:0:0:
256,28,174316,1,0,0:0:0:0:
456,48,174852,5,0,0:0:0:0:
48,48,175119,5,0,0:0:0:0:
344,192,175387,5,0,0:0:0:0:
160,192,175655,5,0,0:0:0:0:
256,348,175923,5,0,0:0:0:0:
