osu file format v9

[General]
AudioFilename: Friendship is Magic Opening.mp3
AudioLeadIn: 474
PreviewTime: 6661
Countdown: 0
SampleSet: Soft
StackLeniency: 0.7
Mode: 0
LetterboxInBreaks: 0

[Editor]
Bookmarks: 16546
DistanceSpacing: 1
BeatDivisor: 4
GridSize: 8

[Metadata]
Title:Friendship Is Magic Theme Song
Artist:Daniel Ingram
Creator:[Dellirium]
Version:Twilight Sparkle
Source:My Little Pony: Friendship Is Magic
Tags:twilight sparkle pinkie pie fluttershy rainbow dash rarity applejack Kotya

[Difficulty]
HPDrainRate:7
CircleSize:4
OverallDifficulty:8
ApproachRate:8
SliderMultiplier:2
SliderTickRate:2

[Events]
//Background and Video events
0,0,"My Little Pwny.jpg"
//Break Periods
//Storyboard Layer 0 (Background)
//Storyboard Layer 1 (Fail)
//Storyboard Layer 2 (Pass)
//Storyboard Layer 3 (Foreground)
Animation,Foreground,Centre,"SB\RD.png",320,240,4,150,LoopForever M,0,4666,35493,370,150 R,0,4666,35493,0
//Storyboard Sound Samples
//Background Colour Transformations
3,100,163,162,255

[TimingPoints]
1248,540.540540540541,4,2,1,33,1,0
1383,-142.857142857143,4,2,0,33,0,0
7058,540.540540540541,4,2,1,33,1,1
7193,-100,4,2,1,33,0,0
15571,-100,4,2,0,33,0,0
19895,-100,4,2,0,5,0,0
20030,-100,4,2,0,33,0,0
24355,-100,4,2,1,33,0,1
28408,-100,4,2,1,22,0,1
33003,-100,4,2,1,11,0,0

[Colours]
Combo1 : 248,184,210
Combo2 : 210,159,228
Combo3 : 255,247,175
Combo4 : 156,219,250
Combo5 : 249,187,102

[HitObjects]
64,128,1383,2,0,B|88:72|152:72,1,100
448,256,2193,2,0,B|424:312|360:312,1,100
256,256,3275,1,0
200,120,3545,1,0
200,120,3680,1,0
200,120,3815,2,0,B|232:120|272:120|304:120,1,100
256,192,4896,12,0,6788
80,152,7058,6,0,B|176:112,1,100,8|0
248,176,7598,2,0,B|128:224,1,100
128,312,8139,2,0,B|328:232,1,200
313,237,8949,1,0
360,152,9220,1,8
80,72,9490,5,0
80,72,9625,1,0
80,72,9760,2,0,B|80:184|80:184,1,100,0|0
120,200,10166,2,0,B|120:80,2,100
152,240,10841,1,8
192,272,10976,1,0
152,304,11112,2,0,B|200:360|288:360|328:304,1,200,0|8
448,152,11922,5,8
400,144,12057,1,0
352,160,12193,2,0,B|254:172|222:121|218:61|257:10|357:36,1,300,0|8
296,288,13274,1,0
96,200,13544,6,0,B|193:187|225:238|229:298|191:350|91:324,1,300
192,112,14625,1,2
224,112,14760,1,0
256,112,14895,2,0,B|376:112,2,100
256,288,15706,1,4
184,224,15976,6,0,B|200:144|312:152|328:224,1,200
416,176,16787,1,8
416,272,17057,1,0
328,232,17328,2,0,B|280:256|232:224,1,100
200,192,17733,5,0
160,168,17868,2,0,B|104:144|56:176,1,100,8|0
120,256,18409,1,8
200,312,18679,1,0
296,312,18949,1,8
336,280,19085,1,0
248,232,19355,1,0
248,232,19490,2,0,B|248:112,1,100,8|4
56,176,20030,6,0,B|56:288,1,100,8|0
456,208,20571,2,0,B|456:96,1,100,8|0
416,80,20976,1,0
376,104,21112,2,0,B|376:232,2,100,8|0|4
288,152,21922,5,0
200,256,22193,1,8
336,264,22463,1,0
216,184,22733,1,8
264,312,23003,1,0
344,192,23274,1,8
344,192,23544,1,0
344,192,23679,1,8
136,192,23949,1,0
136,192,24085,1,8
256,128,24355,6,0,B|272:72|344:72,1,100,4|0
344,192,24895,2,0,B|264:264,1,100,8|0
408,288,25436,2,0,B|464:272|464:200,2,100,0|0|8
312,280,26247,5,0
264,256,26382,1,0
224,280,26517,1,8
128,288,26787,1,0
32,272,27058,1,8
32,272,27328,1,0
136,160,27598,2,0,B|179:53|328:56|371:165,1,300
256,192,28679,12,0,32463
