osu file format v12

[General]
AudioFilename: Equestria Girls.mp3
AudioLeadIn: 0
PreviewTime: 29322
Countdown: 1
SampleSet: Normal
StackLeniency: 0.5
Mode: 0
LetterboxInBreaks: 1
WidescreenStoryboard: 1

[Editor]
DistanceSpacing: 1
BeatDivisor: 4
GridSize: 4

[Metadata]
Title:Equestria Girls
TitleUnicode:Equestria Girls
Artist:Daniel Ingram
ArtistUnicode:Daniel Ingram
Creator:Itachi_Uchiha
Version:Easy
Source:
Tags:
BeatmapID:351907
BeatmapSetID:141018

[Difficulty]
HPDrainRate:2
CircleSize:2
OverallDifficulty:2
ApproachRate:3
SliderMultiplier:1.2
SliderTickRate:1

[Events]
//Background and Video events
0,0,"bg_bg.png",0,0
//Break Periods
2,24569,27850
//Storyboard Layer 0 (Background)
//Storyboard Layer 1 (Fail)
//Storyboard Layer 2 (Pass)
//Storyboard Layer 3 (Foreground)
Sprite,Foreground,Centre,"black.png",320,240 F,0,0,9999999,1
Sprite,Foreground,Centre,"bg_sw.png",320,240 F,0,79,4977,0,1
Sprite,Foreground,Centre,"flash.png",320,240 F,0,4671,4977,0,1 F,0,4977,5130,1,0
Sprite,Foreground,Centre,"bg.png",320,240 F,0,4977,161592,1
Sprite,Foreground,Centre,"bg.png",320,240 L,46441,16 F,1,0,1071,0.5,0 S,1,0,1071,1,1.1
Sprite,Foreground,Centre,"bg.png",320,240 L,80727,16 F,1,0,1071,0.5,0 S,1,0,1071,1,1.1
Sprite,Foreground,Centre,"bg.png",320,240 L,134298,24 F,1,0,1071,0.5,0 S,1,0,1071,1,1.1
Sprite,Foreground,Centre,"flash.png",320,240 F,0,134164,134298,0,1 F,0,134298,134432,1,0
Sprite,Foreground,Centre,"flash.png",320,240 F,0,151307,151441,0,1 F,0,151441,151575,1,0
//Storyboard Sound Samples
//Background Colour Transformations
3,100,163,162,255

[TimingPoints]
79,612.246398779247,4,1,1,50,1,0
29290,540.540540540541,4,1,1,50,1,0
30370,535.715680600215,4,1,1,50,1,0
31441,535.715680600215,4,1,1,50,1,0
46441,-100,4,1,1,50,0,1
63583,-100,4,1,1,50,0,0
80726,-100,4,1,1,50,0,1
97869,-100,4,1,1,50,0,0
134298,-100,4,1,1,50,0,1
158941,-100,4,1,1,50,0,0

[Colours]
Combo1 : 255,0,0
Combo2 : 230,230,0
Combo3 : 255,123,60
Combo4 : 128,0,255
Combo5 : 70,163,255
Combo6 : 254,54,199

[HitObjects]
256,84,4977,53,4,0:0:0:0:
256,204,5589,1,8,0:0:0:0:
200,308,6201,2,0,P|256:328|312:308,2,120,4|8|0,0:0|0:0|0:0,0:0:0:0:
152,196,8038,5,8,0:0:0:0:
200,88,8650,1,4,0:0:0:0:
256,64,8956,1,4,0:0:0:0:
316,68,9262,2,0,P|356:96|380:168,1,120,8|4,0:0|0:0,0:0:0:0:
336,272,10487,5,8,0:0:0:0:
216,252,11099,2,0,P|221:313|260:369,2,120,4|8|0,0:0|0:0|0:0,0:0:0:0:
280,152,12936,5,8,0:0:0:0:
400,156,13548,1,4,0:0:0:0:
428,208,13854,1,4,0:0:0:0:
432,268,14160,2,0,P|400:312|320:332,1,120,8|0,0:0|0:0,0:0:0:0:
256,248,15385,5,8,0:0:0:0:
136,248,15997,1,4,0:0:0:0:
96,204,16303,2,0,P|88:164|144:92,1,120,4|0,0:0|0:0,0:0:0:0:
248,100,17528,5,0,0:0:0:0:
304,84,17834,2,0,P|284:48|256:36,2,60,8|0|4,0:0|0:0|0:0,0:0:0:0:
372,180,19058,6,0,P|360:236|304:284,1,120,8|4,0:0|0:0,0:0:0:0:
252,176,20283,1,8,0:0:0:0:
132,184,20895,2,0,P|144:124|192:72,2,120,4|8|4,0:0|0:0|0:0,0:0:0:0:
236,248,22732,1,8,0:0:0:0:
324,332,23344,2,0,P|356:264|352:208,1,120,4|8,0:0|0:0,0:0:0:0:
256,164,29290,5,6,0:0:0:0:
164,240,29830,1,4,0:0:0:0:
148,120,30370,2,0,P|192:64|248:44,2,120,4|4|0,0:0|0:0|0:0,0:0:0:0:
164,240,31976,5,0,0:0:0:0:
236,336,32512,2,0,P|268:300|280:220,1,120,6|4,0:0|0:0,0:0:0:0:
352,132,33583,6,0,P|292:112|228:120,1,120,0|4,0:0|0:0,0:0:0:0:
128,164,34655,2,0,P|116:124|144:44,2,120,4|4|0,0:0|0:0|0:0,0:0:0:0:
224,232,36262,1,4,0:0:0:0:
244,112,36798,2,0,P|304:132|340:188,1,120,6|4,0:0|0:0,0:0:0:0:
364,292,37869,5,6,0:0:0:0:
256,240,38405,1,12,0:0:0:0:
136,260,38941,2,0,P|144:192|180:144,1,120,4|12,0:0|0:0,0:0:0:0:
292,140,40012,2,0,P|276:88|224:40,2,120,4|12|6,0:0|0:0|0:0,0:0:0:0:
308,260,41619,5,12,0:0:0:0:
252,284,41887,1,0,0:0:0:0:
192,292,42155,2,0,P|116:276|72:240,1,120,6|12,0:0|0:0,0:0:0:0:
176,176,43226,2,0,P|216:152|308:148,1,120,4|12,0:0|0:0,0:0:0:0:
400,184,44298,2,0,P|408:132|376:60,2,120,4|4|6,0:0|0:0|0:0,0:0:0:0:
304,256,45905,6,0,L|304:124,1,120,8|6,0:0|0:0,0:0:0:0:
208,64,46976,6,0,L|208:196,1,120,0|0,0:0|0:0,0:0:0:0:
160,292,48048,5,8,0:0:0:0:
88,196,48583,2,0,P|48:251|43:317,2,120,4|8|2,0:0|0:0|0:0,0:0:0:0:
140,164,49923,1,0,0:0:0:0:
164,108,50191,6,0,P|216:92|300:100,1,120,8|6,0:0|0:0,0:0:0:0:
360,184,51262,2,0,P|388:144|396:64,2,120,8|0|8,0:0|0:0|0:0,0:0:0:0:
416,292,52869,2,0,P|356:308|300:292,1,120,4|8,0:0|0:0,0:0:0:0:
184,308,53941,1,2,0:0:0:0:
140,268,54208,1,0,0:0:0:0:
112,216,54476,6,0,L|112:72,1,120,0|0,0:0|0:0,0:0:0:0:
220,44,55548,6,0,L|220:188,1,120,8|0,0:0|0:0,0:0:0:0:
264,276,56619,5,8,0:0:0:0:
324,260,56887,1,2,0:0:0:0:
372,220,57155,2,0,P|400:184|396:96,2,120,4|8|2,0:0|0:0|0:0,0:0:0:0:
256,192,58762,22,0,P|228:172|192:168,2,60,8|0|6,0:0|0:0|0:0,0:0:0:0:
332,284,59833,2,0,P|276:308|200:300,1,120,8|0,0:0|0:0,0:0:0:0:
136,216,60905,1,8,0:0:0:0:
216,128,61441,2,0,P|264:100|340:108,1,120,4|8,0:0|0:0,0:0:0:0:
408,188,62512,2,0,P|360:216|284:208,1,120,2|10,0:0|0:0,0:0:0:0:
184,252,63583,69,4,0:0:0:0:
72,204,64119,1,4,0:0:0:0:
168,132,64655,2,0,P|220:88|288:88,1,120,4|4,0:0|0:0,0:0:0:0:
340,180,65726,54,0,P|376:136|388:68,2,120,4|4|4,0:0|0:0|0:0,0:0:0:0:
256,264,67333,1,4,0:0:0:0:
156,196,67869,22,0,P|160:152|216:80,1,120,4|4,0:0|0:0,0:0:0:0:
320,72,68941,2,0,P|316:116|260:192,1,120,4|4,0:0|0:0,0:0:0:0:
204,276,70012,53,4,0:0:0:0:
304,344,70548,1,4,0:0:0:0:
400,276,71083,2,0,P|436:232|436:148,1,120,4|4,0:0|0:0,0:0:0:0:
328,132,72155,6,0,P|352:88|380:72,2,60,6|0|12,0:0|0:0|0:0,0:0:0:0:
224,188,73226,54,0,P|196:168|160:160,2,60,4|2|12,0:0|0:0|0:0,0:0:0:0:
320,260,74298,38,0,L|392:260,1,60,4|2,0:0|0:0,0:0:0:0:
352,208,74833,22,0,L|416:208,1,60,12|2,0:0|0:0,0:0:0:0:
384,156,75369,70,0,L|456:156,1,60,4|2,0:0|0:0,0:0:0:0:
416,104,75905,1,14,0:0:0:0:
308,48,76441,6,0,P|252:64|208:128,1,120,6|12,0:0|0:0,0:0:0:0:
320,168,77512,1,4,0:0:0:0:
328,228,77780,1,2,0:0:0:0:
308,284,78048,1,12,0:0:0:0:
208,216,78583,70,0,P|200:144|236:80,2,120,4|4|6,0:0|0:0|0:0,0:0:0:0:
108,280,80191,6,0,L|108:144,1,120,10|6,0:0|0:0,0:0:0:0:
208,96,81262,6,0,L|208:232,1,120,8|0,0:0|0:0,0:0:0:0:
320,256,82333,5,8,0:0:0:0:
432,216,82869,2,0,P|440:268|396:348,2,120,4|8|2,0:0|0:0|0:0,0:0:0:0:
384,180,84208,1,0,0:0:0:0:
384,120,84476,6,0,P|352:77|265:52,1,120,8|6,0:0|0:0,0:0:0:0:
276,172,85548,2,0,P|228:164|156:212,2,120,8|0|8,0:0|0:0|0:0,0:0:0:0:
360,256,87155,2,0,P|300:288|240:272,1,120,4|8,0:0|0:0,0:0:0:0:
132,292,88227,1,2,0:0:0:0:
92,248,88494,1,4,0:0:0:0:
64,196,88762,6,0,P|63:137|64:52,1,120,8|6,0:0|0:0,0:0:0:0:
180,40,89834,6,0,L|180:184,1,120,8|0,0:0|0:0,0:0:0:0:
296,196,90905,5,8,0:0:0:0:
308,256,91173,1,2,0:0:0:0:
292,312,91441,2,0,P|240:352|160:348,2,120,4|8|2,0:0|0:0|0:0,0:0:0:0:
364,216,93048,6,0,P|408:204|444:204,2,60,8|0|6,0:0|0:0|0:0,0:0:0:0:
276,132,94119,2,0,P|220:112|144:148,1,120,8|0,0:0|0:0,0:0:0:0:
108,236,95191,1,8,0:0:0:0:
220,276,95727,2,0,P|282:278|330:250,1,120,4|8,0:0|0:0,0:0:0:0:
364,136,96798,2,0,P|301:133|253:161,1,120,2|8,0:0|0:0,0:0:0:0:
152,228,97869,6,0,P|132:188|152:96,1,120,0|8,0:0|0:0,0:0:0:0:
256,80,98941,1,0,0:0:0:0:
372,115,99476,2,0,P|380:188|360:228,1,120,8|0,0:0|0:0,0:0:0:0:
256,292,100548,21,8,0:0:0:0:
184,196,101084,2,0,P|144:248|140:304,2,120,0|8|0,0:0|0:0|0:0,0:0:0:0:
236,164,102423,53,0,0:0:0:0:
260,108,102691,2,0,P|312:67|368:63,1,120,8|0,0:0|0:0,0:0:0:0:
352,184,103762,1,8,0:0:0:0:
276,276,104298,2,0,P|212:272|164:224,1,120,0|8,0:0|0:0,0:0:0:0:
260,156,105369,2,0,P|219:121|155:117,1,120,0|8,0:0|0:0,0:0:0:0:
60,192,106441,21,4,0:0:0:0:
44,248,106709,1,0,0:0:0:0:
52,308,106976,2,0,P|104:356|176:348,1,120,12|4,0:0|0:0,0:0:0:0:
252,292,108048,1,0,0:0:0:0:
364,244,108584,2,0,P|328:196|260:172,1,120,4|12,0:0|0:0,0:0:0:0:
160,140,109655,2,0,P|192:88|256:60,2,120,4|12|4,0:0|0:0|0:0,0:0:0:0:
208,248,111262,53,12,0:0:0:0:
312,304,111798,2,0,P|324:252|308:180,1,120,4|12,0:0|0:0,0:0:0:0:
260,80,112869,2,0,P|220:112|192:180,1,120,4|4,0:0|0:0,0:0:0:0:
220,292,113941,1,4,0:0:0:0:
336,268,114476,1,0,0:0:0:0:
432,340,115012,2,0,P|452:292|444:216,2,120,0|0|0,0:0|0:0|0:0,0:0:0:0:
336,268,116619,6,0,L|336:140,1,120,0|0,0:0|0:0,0:0:0:0:
284,40,117691,2,0,P|244:72|216:136,1,120,8|0,0:0|0:0,0:0:0:0:
256,248,118762,5,8,0:0:0:0:
340,332,119298,6,0,P|368:292|368:216,1,120,0|8,0:0|0:0,0:0:0:0:
285,138,120369,2,0,P|257:178|257:254,1,120,0|8,0:0|0:0,0:0:0:0:
172,336,121441,5,0,0:0:0:0:
132,224,121976,1,8,0:0:0:0:
36,152,122512,2,0,P|76:116|164:108,1,120,0|8,0:0|0:0,0:0:0:0:
220,192,123584,6,0,P|252:144|256:80,2,120,0|8|0,0:0|0:0|0:0,0:0:0:0:
116,248,125191,6,0,L|116:108,1,120,8|4,0:0|0:0,0:0:0:0:
216,64,126262,1,8,0:0:0:0:
332,100,126798,1,4,0:0:0:0:
256,192,127334,5,8,0:0:0:0:
276,312,127869,6,0,P|340:280|372:228,1,120,4|8,0:0|0:0,0:0:0:0:
346,122,128941,2,0,P|282:154|250:206,1,120,4|8,0:0|0:0,0:0:0:0:
176,284,130012,6,0,P|144:244|136:168,1,120,4|8,0:0|0:0,0:0:0:0:
213,87,131084,2,0,P|245:127|253:203,1,120,4|8,0:0|0:0,0:0:0:0:
232,312,132155,6,0,P|172:284|140:228,2,120,4|4|4,0:0|0:0|0:0,0:0:0:0:
352,292,133762,6,0,L|352:168,1,120,8|6,0:0|0:0,0:0:0:0:
256,100,134834,2,0,P|224:80|200:76,2,60,8|4|0,0:0|0:0|0:0,0:0:0:0:
180,192,135905,5,10,0:0:0:0:
216,308,136441,5,4,0:0:0:0:
276,296,136709,1,4,0:0:0:0:
320,256,136976,1,10,0:0:0:0:
332,136,137512,1,2,0:0:0:0:
272,148,137780,1,4,0:0:0:0:
228,188,138047,1,10,0:0:0:0:
120,240,138584,6,0,P|112:168|136:112,1,120,6|8,0:0|0:0,0:0:0:0:
240,84,139655,1,0,0:0:0:0:
288,120,139923,1,4,0:0:0:0:
316,176,140191,1,10,0:0:0:0:
280,292,140726,6,0,P|228:260|200:208,2,120,4|10|2,0:0|0:0|0:0,0:0:0:0:
396,320,142334,6,0,L|396:188,1,120,8|6,0:0|0:0,0:0:0:0:
332,100,143405,1,8,0:0:0:0:
276,124,143673,1,4,0:0:0:0:
228,160,143941,1,0,0:0:0:0:
256,276,144477,5,10,0:0:0:0:
140,240,145012,6,0,P|108:260|96:280,2,60,4|4|10,0:0|0:0|0:0,0:0:0:0:
228,160,146084,2,0,P|204:132|180:124,2,60,2|4|10,0:0|0:0|0:0,0:0:0:0:
256,276,147155,6,0,P|320:240|344:188,1,120,4|10,0:0|0:0,0:0:0:0:
314,83,148227,2,0,P|250:119|226:171,1,120,2|10,0:0|0:0,0:0:0:0:
144,244,149298,5,4,0:0:0:0:
256,280,149834,1,10,0:0:0:0:
341,201,150369,1,2,0:0:0:0:
448,256,150905,6,0,L|448:112,1,120,8|6,0:0|0:0,0:0:0:0:
332,100,151977,2,0,P|360:52|380:40,2,60,8|4|0,0:0|0:0|0:0,0:0:0:0:
256,192,153048,5,10,0:0:0:0:
172,108,153584,5,4,0:0:0:0:
116,84,153852,1,4,0:0:0:0:
56,88,154119,1,10,0:0:0:0:
104,196,154655,1,2,0:0:0:0:
160,220,154923,1,4,0:0:0:0:
220,216,155190,1,10,0:0:0:0:
308,132,155727,5,6,0:0:0:0:
424,164,156262,1,8,0:0:0:0:
340,248,156798,2,0,P|356:280|380:296,2,60,0|4|10,0:0|0:0|0:0,0:0:0:0:
308,132,157869,5,0,0:0:0:0:
188,112,158405,1,0,0:0:0:0:
88,180,158941,1,0,0:0:0:0:
