osu file format v14

[General]
AudioFilename: Daniel Ingram - Equestria Girls.mp3
AudioLeadIn: 0
PreviewTime: 70588
Countdown: 0
SampleSet: Soft
StackLeniency: 0.7
Mode: 0
LetterboxInBreaks: 0
EpilepsyWarning: 1
WidescreenStoryboard: 1

[Editor]
Bookmarks: 30060,39855,49651,52064,62954,71525,88668,97240,105811,131525,142240,150811,159383,176525,197954
DistanceSpacing: 1.1
BeatDivisor: 4
GridSize: 4
TimelineZoom: 1

[Metadata]
Title:Equestria Girls
TitleUnicode:Equestria Girls
Artist:Daniel Ingram
ArtistUnicode:Daniel Ingram
Creator:Gero
Version:Gericho's Magical Normal
Source:My Little Pony Equestria Girls
Tags:MLP MLPEG Friendship is Magic Twilight Sparkle Applejack Fluttershy Rainbow Dash Pinkie Pie Rarity Rebecca Shoichet Ashleigh Ball Andrea Libman Shannon Chan-Kent Kazumi Evans Meghan McCarthy Soundtrack Children's Music OST Movie Cafeteria Song Vicho Vicho-kun CDFA Reditum Collab Collaboration
BeatmapID:773809
BeatmapSetID:351098

[Difficulty]
HPDrainRate:4
CircleSize:3.5
OverallDifficulty:4
ApproachRate:5
SliderMultiplier:1.2
SliderTickRate:2

[Events]
//Background and Video events
0,0,"BG.jpg",0,0
Video,-520,"Video.avi"
//Break Periods
2,49851,52075
//Storyboard Layer 0 (Background)
//Storyboard Layer 1 (Fail)
//Storyboard Layer 2 (Pass)
//Storyboard Layer 3 (Foreground)
Sprite,Foreground,Centre,"SB/Names/Gero.png",320,240 M,0,28833,,551,439 S,0,28833,,1 F,0,28833,30058,0,1 F,0,30058,38935,1 F,0,38935,39547,1,0 M,0,62697,,551,439 S,0,62697,,1 F,0,62697,62965,0,1 F,0,62965,70866,1 F,0,70866,71268,1,0 M,0,88411,,551,439 S,0,88411,,1 F,0,88411,88679,0,1 F,0,88679,96580,1 F,0,96580,96982,1,0 M,0,105554,,551,439 S,0,105554,,1 F,0,105554,105822,0,1 F,0,105822,121893,1 F,0,121893,122429,1,0 M,0,122697,,551,439 S,0,122697,,1 F,0,122697,122965,0,1 F,0,122965,130866,1 F,0,130866,131268,1,0 M,0,141982,,551,439 S,0,141982,,1 F,0,141982,142250,0,1 F,0,142250,149750,1 F,0,149750,150286,1,0 M,0,159125,,551,439 S,0,159125,,1 F,0,159125,159393,0,1 F,0,159393,175465,1 F,0,175465,176000,1,0
Sprite,Foreground,Centre,"SB/Names/Vicho.png",320,240 M,0,39547,,551,438 S,0,39547,,1 F,0,39547,39853,0,1 F,0,39853,49037,1 F,0,49037,49649,1,0 M,0,54163,,551,438 S,0,54163,,1 F,0,54163,54469,0,1 F,0,54469,62330,1 F,0,62330,62697,1,0 M,0,71268,,551,438 S,0,71268,,1 F,0,71268,71536,0,1 F,0,71536,,1 F,0,71536,87607,1 F,0,87607,88411,1,0.01066681 M,0,96982,,551,438 S,0,96982,,1 F,0,96982,97250,0,1 F,0,97250,,1 F,0,97250,105018,1 F,0,105018,105554,1,0 M,0,131268,,551,438 S,0,131268,,1 F,0,131268,131536,0,1 F,0,131536,,1 F,0,131536,139572,1 F,0,139572,141179,1,0.00266632 M,0,150554,,551,438 S,0,150554,,1 F,0,150554,150822,0,1 F,0,150822,,1 F,0,150822,158322,1 F,0,158322,158857,1,0 M,0,176268,,551,439 S,0,176268,,1 F,0,176268,176536,0,1 F,0,176536,192608,1 F,0,192608,193143,1,0 F,0,193679,193947,1,0 F,0,193947,194215,1,0 F,0,194750,195018,1,0 F,0,195018,195286,1,0 F,0,195554,197965,1,0.04477612
//Storyboard Sound Samples

[TimingPoints]
30060,612.244897959184,4,2,1,80,1,0
44753,-100,4,2,1,60,0,0
47202,-100,4,2,1,70,0,0
49651,606.060606060606,4,2,1,80,1,0
52064,576.923076923077,4,2,1,80,1,0
53766,576.923076923077,4,2,1,80,1,0
54383,535.714285714286,4,2,2,70,1,0
71525,-100,4,2,2,70,0,1
79963,-100,4,2,2,70,0,0
80097,-100,4,2,2,70,0,1
87597,-100,4,2,2,70,0,0
105811,-100,4,2,2,70,0,1
114249,-100,4,2,2,70,0,0
114383,-100,4,2,2,70,0,1
121883,-100,4,2,2,70,0,0
122150,-100,4,2,2,40,0,0
122418,-100,4,2,2,50,0,0
122686,-100,4,2,2,60,0,0
122954,-100,4,2,1,60,0,0
131525,-100,4,2,1,70,0,0
139561,-100,4,2,1,10,0,0
141704,-100,4,2,1,50,0,0
150811,-100,4,2,1,60,0,0
157775,-100,4,2,1,70,0,0
159383,-100,4,2,1,80,0,1
167820,-100,4,2,1,80,0,0
167954,-100,4,2,1,80,0,1
176391,-100,4,2,1,80,0,0
176525,-100,4,2,1,80,0,1
184963,-100,4,2,1,80,0,0
185097,-100,4,2,1,80,0,1
193133,-100,4,2,1,80,0,0
193668,-100,4,2,1,80,0,1
195543,-100,4,2,1,60,0,0
195677,-100,4,2,1,5,0,0

[Colours]
Combo1 : 197,230,134
Combo2 : 248,167,227
Combo3 : 89,164,255
Combo4 : 165,97,201
Combo5 : 255,226,140
Combo6 : 255,0,0
Combo7 : 255,145,91
Combo8 : 196,138,87

[HitObjects]
108,80,30060,6,0,P|90:136|108:192,1,120,4|8,0:0|0:0,0:0:0:0:
172,308,31284,2,0,L|224:336,1,60,4|4,3:0|3:0,0:0:0:0:
288,336,31896,2,0,L|340:308,1,60,8|0,0:0|0:0,0:0:0:0:
400,276,32508,5,4,3:0:0:0:
312,176,33121,2,0,B|256:197|256:197|200:176,1,120,8|4,0:0|3:0,0:0:0:0:
152,132,34039,1,4,3:0:0:0:
200,88,34345,1,8,0:0:0:0:
320,31,34957,6,0,P|379:31|431:59,1,120,4|8,3:0|0:0,0:0:0:0:
348,160,36182,2,0,B|342:189|342:189|348:218,1,60,4|4,3:0|3:0,0:0:0:0:
308,272,36794,2,0,B|314:301|314:301|308:330,1,60,8|0,0:0|0:0,0:0:0:0:
256,372,37406,5,4,3:0:0:0:
176,268,38019,2,0,B|140:268|124:244|124:244|108:268|72:268,1,120,8|4,0:0|3:0,0:0:0:0:
25,314,38937,1,4,3:0:0:0:
71,359,39243,1,8,0:0:0:0:
176,268,39855,5,4,0:0:0:0:
67,195,40468,2,0,P|59:136|68:77,1,120,8|4,0:0|3:0,0:0:0:0:
104,24,41386,1,4,3:0:0:0:
140,80,41692,2,0,L|259:90,1,120,8|4,0:0|3:0,0:0:0:0:
324,99,42611,6,0,P|320:129|320:159,1,60,0|8,0:0|0:0,0:0:0:0:
324,224,43223,1,0,0:0:0:0:
339,288,43529,2,0,P|292:323|233:327,1,120,4|8,3:0|0:0,0:0:0:0:
127,248,44753,6,0,P|102:301|106:361,2,120,0|8|0,1:0|1:2|1:0,0:0:0:0:
224,156,46590,2,0,L|210:97,1,60,8|0,1:2|1:0,0:0:0:0:
256,52,47202,6,0,P|313:66|364:98,2,120,0|8|0,1:0|1:2|1:0,0:0:0:0:
124,52,49039,1,8,1:2:0:0:
124,52,49345,1,0,1:0:0:0:
124,52,49651,5,0,1:0:0:0:
144,244,53766,6,0,L|202:255,1,60,0|0,1:0|1:0,0:0:0:0:
260,304,54383,6,0,P|318:315|378:314,1,120,4|4,3:0|3:0,0:0:0:0:
468,216,55454,1,4,3:0:0:0:
432,160,55722,1,0,0:0:0:0:
444,96,55990,2,0,L|455:37,1,60,4|0,3:0|0:0,0:0:0:0:
324,48,56793,5,0,0:0:0:0:
276,92,57061,2,0,P|246:87|216:81,1,60,4|0,3:0|0:0,0:0:0:0:
151,72,57597,2,0,P|130:127|133:187,1,120,4|4,3:0|3:0,0:0:0:0:
116,320,58668,6,0,P|175:319|222:283,1,120,4|4,3:0|3:0,0:0:0:0:
256,156,59740,1,4,3:0:0:0:
308,200,60008,1,0,0:0:0:0:
372,208,60275,2,0,L|431:201,1,60,4|0,3:0|0:0,0:0:0:0:
432,68,61079,6,0,L|468:20,2,60,0|4|0,0:0|3:0|0:0,0:0:0:0:
407,127,61883,2,0,P|360:93|301:87,1,120,4|8,3:0|0:0,0:0:0:0:
200,168,62954,6,0,L|152:128,2,60,4|0|8,0:0|0:0|0:0,0:0:0:0:
124,276,64025,2,0,L|170:314,2,60,4|0|8,3:0|0:0|0:0,0:0:0:0:
200,168,65097,5,4,3:0:0:0:
256,136,65365,1,0,0:0:0:0:
312,168,65633,1,8,0:0:0:0:
432,224,66168,2,0,P|450:280|432:336,1,120,4|8,3:0|0:0,0:0:0:0:
312,280,67240,6,0,P|294:224|312:168,2,120,4|8|4,3:0|0:0|3:0,0:0:0:0:
256,316,68579,1,0,0:0:0:0:
200,280,68847,1,8,0:0:0:0:
80,224,69383,6,0,L|56:106,1,120,4|0,1:3|1:2,0:0:0:0:
176,48,70454,2,0,L|199:165,1,120,4|0,1:3|1:2,0:0:0:0:
140,196,71258,1,4,1:3:0:0:
79,224,71525,6,0,P|58:280|51:339,2,120,4|10|0,0:0|0:0|0:0,0:0:0:0:
196,272,73133,1,10,0:0:0:0:
248,312,73400,1,0,0:0:0:0:
300,272,73668,6,0,L|356:250,1,60,4|4,3:0|3:0,0:0:0:0:
424,251,74204,2,0,P|445:273|459:299,2,60,10|4|0,0:0|3:0|0:0,0:0:0:0:
428,120,75275,1,10,0:0:0:0:
368,92,75543,1,0,0:0:0:0:
315,132,75811,6,0,P|256:132|208:98,1,120,4|10,3:0|0:0,0:0:0:0:
96,32,76883,1,0,0:0:0:0:
60,88,77150,1,4,3:0:0:0:
72,152,77418,2,0,P|88:209|82:268,1,120,10|4,0:0|3:0,0:0:0:0:
76,336,78222,6,0,L|133:354,1,60,4|10,3:0|0:0,0:0:0:0:
200,356,78758,1,4,3:0:0:0:
252,316,79025,2,0,L|371:308,1,120,0|10,0:0|0:0,0:0:0:0:
440,195,80097,6,0,P|452:137|440:79,1,120,4|10,0:0|0:0,0:0:0:0:
315,36,81168,2,0,P|303:94|315:152,1,120,0|10,0:0|0:0,0:0:0:0:
324,220,81972,1,0,0:0:0:0:
272,264,82240,6,0,L|229:306,1,60,4|4,3:0|3:0,0:0:0:0:
164,324,82775,2,0,L|104:316,2,60,10|4|0,0:0|3:0|0:0,0:0:0:0:
152,192,83847,1,10,0:0:0:0:
152,192,84115,1,0,0:0:0:0:
152,192,84383,6,0,L|134:73,1,120,4|10,3:0|0:0,0:0:0:0:
260,32,85454,2,0,L|277:150,1,120,0|10,0:0|0:0,0:0:0:0:
292,216,86258,1,0,0:0:0:0:
344,256,86525,6,0,P|373:259|403:262,2,60,0|0|0,1:0|1:0|1:0,0:0:0:0:
392,132,87597,2,0,L|422:80,2,60,0|0|0,1:0|0:0|0:0,0:0:0:0:
292,216,88668,6,0,P|273:272|291:328,1,120,4|4,3:0|3:0,0:0:0:0:
412,272,89740,2,0,L|460:224,1,60,4|0,3:0|0:0,0:0:0:0:
501,182,90275,1,4,3:0:0:0:
400,100,90811,6,0,B|371:93|371:93|342:100,1,60,4|0,3:0|0:0,0:0:0:0:
285,134,91347,2,0,B|256:141|256:141|227:134,1,60,4|0,3:0|0:0,0:0:0:0:
171,100,91883,2,0,L|212:212,1,120,4|4,3:0|3:0,0:0:0:0:
308,304,92954,6,0,L|364:324,2,60,4|0|4,3:0|0:0|3:0,0:0:0:0:
212,212,94025,2,0,L|156:232,2,60,4|0|4,3:0|0:0|3:0,0:0:0:0:
308,120,95097,6,0,L|364:100,2,60,4|0|4,3:0|0:0|3:0,0:0:0:0:
256,80,95900,1,0,0:0:0:0:
204,120,96168,1,4,3:0:0:0:
256,240,96704,1,4,3:0:0:0:
108,292,97240,6,0,L|64:332,2,60,4|0|8,1:0|0:0|0:0,0:0:0:0:
236,323,98311,2,0,P|263:335|291:345,1,60,4|0,3:0|0:0,0:0:0:0:
356,343,98847,2,0,P|390:295|407:237,1,120,8|4,0:0|3:0,0:0:0:0:
412,172,99650,5,0,0:0:0:0:
412,172,99918,2,0,L|432:116,1,60,8|0,0:0|0:0,0:0:0:0:
415,51,100454,2,0,P|356:51|300:72,1,120,4|8,3:0|0:0,0:0:0:0:
284,204,101525,6,0,P|292:263|286:322,1,120,4|8,3:0|0:0,0:0:0:0:
232,364,102329,1,0,0:0:0:0:
175,327,102597,2,0,P|117:315|57:315,1,120,4|8,3:0|0:0,0:0:0:0:
60,184,103668,6,0,L|23:136,2,60,0|0|0,1:0|1:0|1:0,0:0:0:0:
116,220,104472,1,0,1:0:0:0:
180,199,104740,2,0,P|232:171|290:157,1,120,0|0,1:0|1:0,0:0:0:0:
400,80,105811,5,4,1:0:0:0:
436,136,106079,1,4,3:0:0:0:
472,192,106347,2,0,P|490:248|472:304,1,120,10|0,0:0|0:0,0:0:0:0:
356,368,107418,1,10,0:0:0:0:
256,280,107954,5,4,3:0:0:0:
208,324,108222,1,4,3:0:0:0:
156,368,108490,2,0,P|46:339|37:227,1,240,10|10,0:0|0:0,0:0:0:0:
92,192,109829,1,0,0:0:0:0:
148,160,110097,6,0,B|100:124|100:124|36:124,1,120,4|10,0:3|0:0,0:0:0:0:
128,24,111168,2,0,L|248:24,1,120,0|10,0:0|0:0,0:0:0:0:
308,48,111972,1,0,0:0:0:0:
368,76,112240,6,0,P|386:132|368:188,1,120,4|10,3:0|0:0,0:0:0:0:
260,264,113311,2,0,P|242:320|260:376,1,120,0|10,0:0|0:0,0:0:0:0:
320,352,114115,1,4,1:3:0:0:
376,320,114383,6,0,L|136:320,1,240,4|0,1:0|0:0,0:0:0:0:
28,256,115990,1,10,0:0:0:0:
8,192,116258,1,0,0:0:0:0:
28,128,116525,5,4,3:0:0:0:
144,68,117061,1,10,0:0:0:0:
164,132,117329,1,4,3:0:0:0:
144,196,117597,1,0,0:0:0:0:
28,128,118133,1,10,0:0:0:0:
28,128,118400,1,0,0:0:0:0:
28,128,118668,5,4,3:0:0:0:
144,68,119204,2,0,B|212:68|256:104|256:104|300:68|368:68,1,240,10|10,0:0|0:0,0:0:0:0:
484,128,120811,5,4,3:0:0:0:
484,128,121079,1,4,3:0:0:0:
484,128,121347,1,10,0:0:0:0:
368,196,121883,1,2,0:0:0:0:
368,196,122150,1,4,3:0:0:0:
368,196,122418,1,0,0:0:0:0:
256,264,122954,6,0,P|200:282|144:264,1,120,6|8,0:0|0:0,0:0:0:0:
96,217,123758,1,0,0:0:0:0:
41,179,124025,2,0,L|125:94,1,120,4|8,3:0|0:0,0:0:0:0:
256,120,125097,6,0,P|312:102|368:120,1,120,4|8,3:0|0:0,0:0:0:0:
416,167,125900,1,0,0:0:0:0:
471,205,126168,2,0,L|386:289,1,120,4|8,3:0|0:0,0:0:0:0:
256,320,127240,5,4,3:0:0:0:
126,289,127775,2,0,B|97:231|126:173|126:173|155:115|126:57,1,240,8|8,0:0|0:0,0:0:0:0:
6,115,129383,6,0,L|-8:52,2,60,4|0|8,3:0|0:0|0:0,0:0:0:0:
120,192,130454,2,0,L|106:129,2,60,4|4|8,3:0|3:0|3:2,0:0:0:0:
166,238,131258,1,4,3:0:0:0:
212,192,131525,6,0,P|243:243|258:300,1,120,4|8,3:2|0:0,0:0:0:0:
304,352,132329,2,0,L|422:334,1,120,4|0,3:0|0:0,0:0:0:0:
480,304,133133,1,8,0:0:0:0:
492,240,133400,2,0,P|494:210|498:180,1,60,0|4,0:0|3:0,0:0:0:0:
444,60,134204,5,8,0:0:0:0:
384,88,134472,1,0,0:0:0:0:
363,152,134740,2,0,P|304:149|251:122,1,120,4|8,3:0|0:0,0:0:0:0:
139,48,135811,6,0,P|118:103|124:162,1,120,4|8,3:0|0:0,0:0:0:0:
144,224,136615,2,0,L|132:282,1,60,4|0,3:0|0:0,0:0:0:0:
256,336,137418,1,8,0:0:0:0:
256,336,137686,1,0,0:0:0:0:
256,335,137954,6,0,P|315:327|374:334,2,120,0|0|0,1:0|1:0|1:0,0:0:0:0:
256,192,139561,12,2,141168,3:0:0:0:
156,132,142240,6,0,P|256:188|356:132,1,240,2|2,0:0|0:0,0:0:0:0:
432,24,143847,1,8,0:0:0:0:
508,132,144383,6,0,L|484:200,1,60,2|0,0:0|0:0,0:0:0:0:
444,236,144918,2,0,B|396:192|396:192|340:192,1,120,8|2,0:0|0:0,0:0:0:0:
300,244,145722,1,0,0:0:0:0:
256,292,145990,1,8,0:0:0:0:
171,192,146525,5,2,0:0:0:0:
256,92,147061,1,8,0:0:0:0:
341,192,147597,2,0,B|370:199|370:199|399:192,2,60,2|0|8,0:0|0:0|0:0,0:0:0:0:
256,92,148668,6,0,B|227:85|227:85|198:92,1,60,2|0,0:0|0:0,0:0:0:0:
150,138,149204,2,0,B|121:145|121:145|92:138,1,60,8|0,0:0|0:0,0:0:0:0:
44,91,149740,2,0,L|72:208,1,120,2|8,0:0|0:0,0:0:0:0:
184,280,150811,6,0,P|238:303|297:298,1,120,2|8,0:0|0:0,0:0:0:0:
336,252,151615,2,0,L|344:192,1,60,0|2,0:0|0:0,0:0:0:0:
452,116,152418,1,8,0:0:0:0:
324,88,152954,6,0,L|272:57,1,60,2|0,0:0|0:0,0:0:0:0:
215,36,153490,2,0,P|168:71|150:127,1,120,8|2,0:0|0:0,0:0:0:0:
144,188,154293,1,0,0:0:0:0:
172,240,154561,1,8,0:0:0:0:
256,324,155097,6,0,L|311:347,2,60,2|0|8,0:0|0:0|0:0,0:0:0:0:
332,232,156168,2,0,L|386:206,2,60,2|0|8,0:0|0:0|0:0,0:0:0:0:
260,136,157240,6,0,L|273:77,2,60,0|0|0,1:0|1:0|1:0,0:0:0:0:
244,196,158043,1,0,1:0:0:0:
191,228,158311,2,0,P|132:228|76:207,1,120,0|4,1:0|1:3,0:0:0:0:
4,96,159383,6,0,B|32:56|80:56|80:56|110:56,1,120,4|10,1:0|1:2,0:0:0:0:
157,9,160186,1,4,3:0:0:0:
204,56,160454,2,0,P|256:82|308:56,1,120,0|10,0:0|1:2,0:0:0:0:
401,149,161525,6,0,B|429:138|429:138|457:149,2,60,4|4|10,3:0|3:0|1:2,0:0:0:0:
307,241,162597,2,0,B|279:252|279:252|251:241,2,60,0|4|10,0:0|3:0|1:2,0:0:0:0:
401,333,163668,5,4,3:0:0:0:
495,241,164204,1,10,1:2:0:0:
401,149,164740,1,0,0:0:0:0:
354,102,165008,1,4,3:0:0:0:
401,55,165275,1,10,1:2:0:0:
277,102,165811,6,0,B|264:108|256:123|256:123|248:108|235:102,1,60,4|4,3:0|3:0,0:0:0:0:
169,102,166347,2,0,B|156:96|148:81|148:81|140:96|127:102,1,60,10|4,1:2|3:0,0:0:0:0:
61,102,166883,2,0,L|103:214,1,120,0|10,0:0|1:2,0:0:0:0:
56,261,167686,1,0,1:0:0:0:
104,308,167954,6,0,B|129:324|153:312|161:308|161:308|169:304|193:292|218:308,1,120,4|10,1:0|1:2,0:0:0:0:
256,252,168758,1,4,3:0:0:0:
294,308,169025,2,0,B|319:292|343:304|351:308|351:308|359:312|383:324|408:308,1,120,0|10,0:0|1:2,0:0:0:0:
343,192,170097,6,0,B|324:173|324:173|324:140,1,60,4|4,3:0|3:0,0:0:0:0:
280,92,170633,2,0,B|256:74|256:74|232:92,1,60,10|0,1:2|0:0,0:0:0:0:
188,140,171168,2,0,B|188:173|188:173|168:192,2,60,0|4|10,0:0|3:0|1:2,0:0:0:0:
256,28,172240,5,4,3:0:0:0:
256,28,172508,1,4,3:0:0:0:
256,28,172775,1,10,1:2:0:0:
324,140,173311,1,0,0:0:0:0:
324,140,173579,1,4,3:0:0:0:
324,140,173847,1,10,1:2:0:0:
256,252,174383,6,0,P|228:262|200:252,1,60,4|4,3:0|3:0,0:0:0:0:
153,205,174918,2,0,P|125:195|97:205,1,60,10|4,1:2|3:0,0:0:0:0:
50,252,175454,2,0,L|50:132,1,120,0|10,0:0|1:2,0:0:0:0:
153,205,176525,5,4,1:0:0:0:
128,336,177061,2,0,L|89:381,2,60,10|4|0,1:2|3:0|0:0,0:0:0:0:
176,300,177865,1,4,3:0:0:0:
232,336,178133,2,0,P|287:358|347:364,1,120,10|4,1:2|3:0,0:0:0:0:
372,304,178936,6,0,L|365:244,1,60,4|10,3:0|1:2,0:0:0:0:
472,176,179740,2,0,L|475:116,2,60,0|4|10,0:0|3:0|1:2,0:0:0:0:
359,123,180811,6,0,P|303:105|256:68,1,120,4|10,3:0|1:2,0:0:0:0:
140,92,181883,2,0,L|118:35,2,60,0|4|10,0:0|3:0|1:2,0:0:0:0:
80,196,182954,6,0,L|20:185,2,60,4|4|10,3:0|3:0|1:2,0:0:0:0:
140,204,183758,1,4,3:0:0:0:
199,216,184025,2,0,P|181:272|185:332,1,120,0|10,0:0|1:2,0:0:0:0:
304,348,185097,6,0,P|363:344|423:340,1,120,4|10,0:0|1:2,0:0:0:0:
480,316,185900,1,4,3:0:0:0:
479,315,186168,2,0,P|464:258|463:198,1,120,0|10,0:0|1:2,0:0:0:0:
436,80,187240,5,4,3:0:0:0:
384,48,187508,1,4,3:0:0:0:
331,76,187775,2,0,P|315:133|322:192,1,120,10|0,1:2|0:0,0:0:0:0:
332,252,188579,2,0,L|256:276,1,60,4|10,3:0|1:2,0:0:0:0:
212,168,189383,6,0,P|204:138|198:109,2,60,4|4|10,3:0|3:0|1:2,0:0:0:0:
155,272,190454,2,0,P|163:301|169:330,2,60,0|4|10,0:0|3:0|1:2,0:0:0:0:
80,180,191525,6,0,L|50:176|20:172,2,60,0|0|8,1:0|1:0|1:2,0:0:0:0:
132,164,192329,1,0,1:0:0:0:
131,164,192597,2,0,P|119:222|125:282,1,120,0|0,1:0|0:0,0:0:0:0:
216,360,193668,5,0,1:0:0:0:
216,360,193936,1,0,1:0:0:0:
256,184,194740,1,0,1:0:0:0:
256,184,195008,6,0,P|315:192|375:188,1,120,0|4,1:0|1:0,0:0:0:0:
256,192,195811,12,0,197954,0:0:0:0:
