osu file format v14

[General]
AudioFilename: Daniel Ingram - Equestria Girls.mp3
AudioLeadIn: 0
PreviewTime: 70588
Countdown: 0
SampleSet: Soft
StackLeniency: 0.7
Mode: 0
LetterboxInBreaks: 0
EpilepsyWarning: 1
WidescreenStoryboard: 1

[Editor]
Bookmarks: 30060,49651,52064,88668,95097,142240,148668,197954
DistanceSpacing: 0.5
BeatDivisor: 4
GridSize: 4
TimelineZoom: 1

[Metadata]
Title:Equestria Girls
TitleUnicode:Equestria Girls
Artist:Daniel Ingram
ArtistUnicode:Daniel Ingram
Creator:Gero
Version:CDFA's Magical Friendship
Source:My Little Pony Equestria Girls
Tags:MLP MLPEG Friendship is Magic Twilight Sparkle Applejack Fluttershy Rainbow Dash Pinkie Pie Rarity Rebecca Shoichet Ashleigh Ball Andrea Libman Shannon Chan-Kent Kazumi Evans Meghan McCarthy Soundtrack Children's Music OST Movie Cafeteria Song Vicho Vicho-kun CDFA Reditum Collab Collaboration
BeatmapID:773817
BeatmapSetID:351098

[Difficulty]
HPDrainRate:6.5
CircleSize:4.5
OverallDifficulty:7
ApproachRate:8
SliderMultiplier:2
SliderTickRate:2

[Events]
//Background and Video events
0,0,"BG.jpg",0,0
Video,-520,"Video.avi"
//Break Periods
2,49851,52075
2,88868,95097
2,142440,148668
//Storyboard Layer 0 (Background)
//Storyboard Layer 1 (Fail)
//Storyboard Layer 2 (Pass)
//Storyboard Layer 3 (Foreground)
//Storyboard Sound Samples

[TimingPoints]
30060,612.244897959184,4,2,1,80,1,0
44753,-100,4,2,1,60,0,0
47202,-100,4,2,1,70,0,0
49651,606.060606060606,4,2,1,80,1,0
52064,576.923076923077,4,2,1,80,1,0
53766,576.923076923077,4,2,1,80,1,0
54383,535.714285714286,4,2,2,70,1,0
71525,-100,4,2,2,70,0,1
79963,-100,4,2,2,70,0,0
80097,-100,4,2,2,70,0,1
87597,-100,4,2,2,70,0,0
105811,-100,4,2,2,70,0,1
114249,-100,4,2,2,70,0,0
114383,-100,4,2,2,70,0,1
121883,-100,4,2,2,70,0,0
122150,-100,4,2,2,40,0,0
122418,-100,4,2,2,50,0,0
122686,-100,4,2,2,60,0,0
122954,-100,4,2,1,60,0,0
131525,-100,4,2,1,70,0,0
139561,-100,4,2,1,10,0,0
141704,-100,4,2,1,50,0,0
150811,-100,4,2,1,60,0,0
157775,-100,4,2,1,70,0,0
159383,-100,4,2,1,80,0,1
167820,-100,4,2,1,80,0,0
167954,-100,4,2,1,80,0,1
176391,-100,4,2,1,80,0,0
176525,-100,4,2,1,80,0,1
184963,-100,4,2,1,80,0,0
185097,-100,4,2,1,80,0,1
193133,-100,4,2,1,80,0,0
193668,-100,4,2,1,80,0,1
195543,-100,4,2,1,60,0,0
195677,-100,4,2,1,5,0,0

[Colours]
Combo1 : 197,230,134
Combo2 : 248,167,227
Combo3 : 89,164,255
Combo4 : 165,97,201
Combo5 : 255,226,140
Combo6 : 255,0,0
Combo7 : 255,145,91
Combo8 : 196,138,87

[HitObjects]
56,48,30060,6,0,L|96:268,1,200,4|8,0:0|0:0,0:0:0:0:
256,132,31284,1,4,3:0:0:0:
356,124,31590,1,4,3:0:0:0:
316,216,31896,2,0,P|224:236|140:152,1,200,8|4,0:0|3:0,0:0:0:0:
172,76,32815,5,0,0:0:0:0:
256,132,33121,1,8,0:0:0:0:
356,124,33427,1,0,0:0:0:0:
416,204,33733,2,0,P|408:260|368:280,1,100,4|4,3:0|3:0,0:0:0:0:
280,240,34345,2,0,P|192:272|216:376,1,200,8|4,0:0|3:0,0:0:0:0:
360,240,35570,6,0,P|380:172|276:92,1,200,8|4,0:0|3:0,0:0:0:0:
208,144,36488,1,4,3:0:0:0:
116,108,36794,1,8,0:0:0:0:
52,184,37100,1,0,0:0:0:0:
148,204,37406,5,4,3:0:0:0:
148,204,37713,1,0,0:0:0:0:
176,300,38019,1,8,0:0:0:0:
256,240,38325,1,0,0:0:0:0:
336,300,38631,1,4,3:0:0:0:
364,204,38937,1,4,3:0:0:0:
364,204,39243,2,0,P|384:156|276:72,1,200,8|4,0:0|0:0,0:0:0:0:
188,72,40162,5,0,0:0:0:0:
140,84,40315,1,0,0:0:0:0:
92,96,40468,2,0,L|78:144,1,50,8|0,0:0|0:0,0:0:0:0:
113,179,40774,2,0,L|161:192,1,50
212,196,41080,2,0,P|264:208|280:272,1,100,4|4,3:0|3:0,0:0:0:0:
200,300,41692,2,0,P|264:344|376:292,1,200,8|4,0:0|3:0,0:0:0:0:
388,204,42611,5,0,0:0:0:0:
396,104,42917,1,8,0:0:0:0:
300,124,43223,1,0,0:0:0:0:
284,224,43529,2,0,P|224:204|196:68,1,200,4|8,3:0|0:0,0:0:0:0:
236,64,44294,2,0,P|168:80|80:32,1,150,0|0,0:0|1:0,0:0:0:0:
36,240,45366,6,0,P|80:264|156:160,1,200,8|0,1:2|1:0,0:0:0:0:
176,68,46284,1,0,1:0:0:0:
256,8,46590,1,8,1:2:0:0:
340,64,46896,1,0,1:0:0:0:
256,120,47202,5,0,1:0:0:0:
204,284,47508,1,0,1:0:0:0:
328,188,47815,1,8,1:2:0:0:
188,184,48121,1,0,1:0:0:0:
308,288,48427,1,0,1:0:0:0:
472,280,48733,1,0,1:0:0:0:
392,348,49039,5,8,1:2:0:0:
392,348,49192,1,0,1:0:0:0:
392,348,49345,1,0,1:0:0:0:
392,348,49498,1,0,1:0:0:0:
392,348,49651,5,0,1:0:0:0:
44,64,53766,5,0,1:0:0:0:
44,64,54054,1,0,1:0:0:0:
44,64,54383,6,0,P|108:64|172:184,1,200,4|4,3:0|3:0,0:0:0:0:
20,296,55454,1,4,3:0:0:0:
112,336,55722,1,0,0:0:0:0:
208,304,55990,1,4,3:0:0:0:
296,352,56258,2,0,P|356:352|384:224,1,200,0|0,0:0|0:0,0:0:0:0:
312,176,57061,5,4,3:0:0:0:
228,124,57329,1,0,0:0:0:0:
172,208,57597,2,0,P|116:196|128:56,1,200,4|4,3:0|3:0,0:0:0:0:
196,36,58400,1,6,3:0:0:0:
292,56,58668,5,4,3:0:0:0:
380,104,58936,1,0,0:0:0:0:
476,76,59204,2,0,P|480:140|348:196,1,200,4|4,3:0|3:0,0:0:0:0:
280,172,60008,1,0,0:0:0:0:
184,152,60275,1,4,3:0:0:0:
212,248,60543,6,0,P|288:276|380:180,1,200
368,108,61347,1,4,3:0:0:0:
284,164,61615,1,0,0:0:0:0:
191,123,61883,2,0,P|99:147|77:240,1,200,4|8,3:0|0:0,0:0:0:0:
148,304,62686,1,8,0:0:0:0:
148,304,62820,1,8,0:0:0:0:
148,304,62954,6,0,L|256:328,1,100,4|0,0:0|0:0,0:0:0:0:
344,332,63490,2,0,B|336:260|268:236|268:236|201:215,1,200,8|4,0:0|3:0,0:0:0:0:
108,184,64293,1,0,0:0:0:0:
80,88,64561,1,8,0:0:0:0:
180,84,64829,1,0,0:0:0:0:
228,180,65097,6,0,L|336:224,1,100,4|0,3:0|0:0,0:0:0:0:
408,168,65633,2,0,L|288:120,1,100,8|0,0:0|0:0,0:0:0:0:
404,80,66168,2,0,B|440:93|440:93|488:112|520:176|456:244,1,200,4|8,3:0|0:0,0:0:0:0:
376,256,66972,1,0,0:0:0:0:
284,216,67240,6,0,P|224:216|196:344,1,200,4|8,3:0|0:0,0:0:0:0:
284,316,68043,1,0,0:0:0:0:
376,356,68311,2,0,P|424:368|468:344,1,100,4|0,3:0|0:0,0:0:0:0:
508,256,68847,2,0,P|464:236|408:268,1,100,8|0,0:0|0:0,0:0:0:0:
320,236,69383,5,4,1:3:0:0:
184,132,69650,1,0,1:0:0:0:
116,308,69918,1,0,1:2:0:0:
256,176,70186,1,0,1:0:0:0:
44,264,70454,1,4,1:3:0:0:
112,88,70722,1,0,1:0:0:0:
140,216,70990,5,0,1:2:0:0:
157,233,71124,1,4,1:3:0:0:
174,250,71258,1,4,1:3:0:0:
191,267,71391,1,0,1:2:0:0:
208,284,71525,6,0,P|264:312|352:196,2,200,4|10|0,0:0|0:0|0:0,0:0:0:0:
164,28,73133,1,10,0:0:0:0:
200,120,73400,1,0,0:0:0:0:
168,216,73668,5,4,3:0:0:0:
204,308,73936,1,4,3:0:0:0:
272,236,74204,1,10,0:0:0:0:
296,140,74472,1,4,3:0:0:0:
364,64,74740,2,0,P|428:72|440:212,1,200,0|10,0:0|0:0,0:0:0:0:
364,220,75543,1,0,0:0:0:0:
264,236,75811,6,0,B|208:232|208:232|132:184|132:184|72:180,1,200,4|10,3:0|0:0,0:0:0:0:
212,32,76883,1,0,0:0:0:0:
276,108,77150,1,4,3:0:0:0:
372,80,77418,1,10,0:0:0:0:
412,172,77686,1,0,0:0:0:0:
512,168,77954,5,4,3:0:0:0:
504,268,78222,1,4,3:0:0:0:
404,276,78490,1,10,0:0:0:0:
328,344,78758,1,4,3:0:0:0:
256,272,79025,2,0,L|180:184,1,100,0|4,0:0|3:0,0:0:0:0:
140,108,79561,2,0,P|184:80|240:88,1,100,10|8,0:0|0:0,0:0:0:0:
276,104,79963,1,8,0:0:0:0:
316,132,80097,6,0,P|372:144|456:32,1,200,4|10,0:0|0:0,0:0:0:0:
360,36,80900,1,4,3:0:0:0:
260,24,81168,2,0,P|208:56|264:188,1,200,0|10,0:0|0:0,0:0:0:0:
332,172,81972,1,0,0:0:0:0:
408,236,82240,6,0,L|436:336,1,100,4|4,3:0|3:0,0:0:0:0:
344,292,82775,2,0,L|340:392,1,100,10|4,0:0|3:0,0:0:0:0:
256,336,83311,2,0,B|260:272|260:272|264:224|240:188|168:184,1,200,0|10,0:0|0:0,0:0:0:0:
92,136,84115,1,0,0:0:0:0:
180,92,84383,6,0,B|223:84|223:84|234:57|264:41|297:46|317:67|317:67|361:60,1,200,4|10,3:0|0:0,0:0:0:0:
468,224,85454,1,0,0:0:0:0:
400,300,85722,1,4,3:0:0:0:
304,268,85990,1,10,0:0:0:0:
216,316,86258,1,0,0:0:0:0:
164,232,86525,6,0,L|136:128,1,100,0|0,1:0|1:0,0:0:0:0:
256,52,87061,2,0,L|256:152,1,100,0|0,1:0|1:0,0:0:0:0:
348,232,87597,2,0,L|376:128,1,100,0|0,1:0|0:0,0:0:0:0:
256,52,88133,2,0,B|232:116|280:192|256:256,1,200,0|4,0:0|3:0,0:0:0:0:
44,20,96972,5,8,0:0:0:0:
44,20,97106,1,8,0:0:0:0:
44,20,97240,2,0,P|64:88|112:96,1,100,4|0,1:0|0:0,0:0:0:0:
184,84,97775,2,0,L|208:188,1,100,8|0,0:0|0:0,0:0:0:0:
305,181,98311,2,0,L|328:84,1,100,4|0,3:0|0:0,0:0:0:0:
424,64,98847,2,0,P|417:128|300:180,1,200,8|4,0:0|3:0,0:0:0:0:
212,144,99650,5,0,0:0:0:0:
120,188,99918,2,0,L|0:216,1,100,8|0,0:0|0:0,0:0:0:0:
104,272,100454,2,0,L|220:240,1,100,4|0,3:0|0:0,0:0:0:0:
276,308,100990,2,0,L|72:364,1,200,8|4,0:0|3:0,0:0:0:0:
16,288,101793,5,0,0:0:0:0:
0,188,102061,2,0,L|-4:80,1,100,8|0,0:0|0:0,0:0:0:0:
84,132,102597,2,0,L|136:40,1,100,4|0,3:0|0:0,0:0:0:0:
196,124,103133,2,0,B|248:56|248:56|312:48|352:112,1,200,8|0,0:0|1:0,0:0:0:0:
396,308,103936,5,0,1:0:0:0:
256,192,104204,1,0,1:2:0:0:
485,218,104472,1,0,1:0:0:0:
345,102,104740,1,0,1:0:0:0:
484,76,105008,1,0,1:0:0:0:
372,216,105276,5,0,1:2:0:0:
355,233,105410,1,4,1:3:0:0:
338,250,105544,1,4,1:3:0:0:
321,267,105677,1,0,1:2:0:0:
304,284,105811,6,0,P|248:312|160:196,2,200,4|10|0,0:0|0:0|0:0,0:0:0:0:
348,28,107418,1,10,0:0:0:0:
312,120,107686,1,0,0:0:0:0:
344,216,107954,5,4,3:0:0:0:
308,308,108222,1,4,3:0:0:0:
240,236,108490,1,10,0:0:0:0:
216,140,108758,1,4,3:0:0:0:
148,64,109025,2,0,P|84:72|72:212,1,200,0|10,0:0|0:0,0:0:0:0:
148,220,109829,1,0,0:0:0:0:
248,236,110097,6,0,B|304:232|304:232|380:184|380:184|440:180,1,200,4|10,0:3|0:0,0:0:0:0:
300,32,111168,1,0,0:0:0:0:
236,108,111436,1,4,3:0:0:0:
140,80,111704,1,10,0:0:0:0:
100,172,111972,1,0,0:0:0:0:
0,168,112240,5,4,3:0:0:0:
8,268,112508,1,4,3:0:0:0:
108,276,112775,1,10,0:0:0:0:
184,344,113043,1,4,3:0:0:0:
256,272,113311,2,0,L|332:184,1,100,0|4,0:0|3:0,0:0:0:0:
372,108,113847,2,0,P|328:80|272:88,1,100,10|4,0:0|1:3,0:0:0:0:
236,104,114249,1,10,0:0:0:0:
196,132,114383,6,0,P|140:144|56:32,1,200,4|10,1:0|0:0,0:0:0:0:
252,24,115454,2,0,P|304:56|248:188,1,200,0|10,0:0|0:0,0:0:0:0:
180,172,116258,1,0,0:0:0:0:
104,236,116525,6,0,L|76:336,1,100,4|4,3:0|3:0,0:0:0:0:
168,292,117061,2,0,L|172:392,1,100,10|4,0:0|3:0,0:0:0:0:
256,336,117597,2,0,B|252:272|252:272|248:224|272:188|344:184,1,200,0|10,0:0|0:0,0:0:0:0:
420,136,118400,1,0,0:0:0:0:
332,92,118668,6,0,B|288:84|288:84|277:57|247:41|214:46|194:67|194:67|150:60,1,200,4|10,3:0|0:0,0:0:0:0:
44,224,119740,1,0,0:0:0:0:
112,300,120008,1,4,3:0:0:0:
208,268,120275,1,10,0:0:0:0:
296,316,120543,1,0,0:0:0:0:
348,232,120811,6,0,L|376:128,1,100,4|4,3:0|3:0,0:0:0:0:
256,52,121347,2,0,L|256:152,1,100,10|0,0:0|0:0,0:0:0:0:
164,232,121883,2,0,L|136:128,1,100,2|4,0:0|3:0,0:0:0:0:
256,52,122418,2,0,B|280:116|232:192|256:256,1,200,0|6,0:0|0:0,0:0:0:0:
332,312,123222,5,0,0:0:0:0:
432,324,123490,1,8,0:0:0:0:
496,248,123758,1,0,0:0:0:0:
396,240,124025,1,4,3:0:0:0:
332,312,124293,1,0,0:0:0:0:
256,376,124561,2,0,P|204:368|204:232,1,200,8|4,0:0|3:0,0:0:0:0:
252,168,125365,5,0,0:0:0:0:
344,120,125633,1,8,0:0:0:0:
420,184,125900,1,0,0:0:0:0:
332,232,126168,2,0,L|316:336,1,100,4|0,3:0|0:0,0:0:0:0:
220,364,126704,2,0,L|248:232,1,100,8|4,0:0|3:0,0:0:0:0:
248,216,127106,1,8,3:2:0:0:
240,168,127240,6,0,B|184:156|120:228|36:200,1,200,4|8,3:0|0:0,0:0:0:0:
0,128,128043,1,4,3:0:0:0:
64,56,128311,2,0,L|176:16,1,100,0|4,0:0|3:0,0:0:0:0:
220,100,128847,2,0,L|436:128,1,200,8|4,0:0|3:0,0:0:0:0:
500,184,129650,5,0,0:0:0:0:
512,284,129918,2,0,L|444:360,1,100,8|0,0:0|0:0,0:0:0:0:
344,372,130454,2,0,P|316:320|168:320,1,200,4|8,3:0|3:2,0:0:0:0:
24,188,131525,6,0,L|4:68,1,100,4|0,3:2|0:0,0:0:0:0:
104,64,132061,2,0,L|128:188,1,100,8|4,0:0|3:0,0:0:0:0:
176,244,132597,1,0,0:0:0:0:
268,208,132865,2,0,P|328:208|376:356,1,200,0|0,0:0|0:0,0:0:0:0:
304,368,133668,6,0,L|172:360,1,100,4|0,3:0|0:0,0:0:0:0:
260,280,134204,2,0,L|144:224,1,100,8|0,0:0|0:0,0:0:0:0:
252,180,134740,2,0,L|188:88,1,100,4|0,3:0|0:0,0:0:0:0:
292,72,135275,2,0,L|364:168,1,100,8|4,0:0|3:0,0:0:0:0:
400,172,135677,1,8,0:0:0:0:
448,188,135811,6,0,P|448:244|376:276,1,100,4|0,3:0|0:0,0:0:0:0:
320,260,136347,1,8,0:0:0:0:
232,304,136615,1,4,3:0:0:0:
136,276,136883,1,0,0:0:0:0:
68,352,137150,1,4,3:0:0:0:
8,272,137418,2,0,L|0:152,1,100,8|0,0:0|0:0,0:0:0:0:
8,72,137954,5,0,1:0:0:0:
256,192,138222,12,0,141168,0:0:0:0:
256,192,141704,5,0,0:0:0:0:
256,192,142240,1,2,0:0:0:0:
48,32,150275,6,0,B|32:96|116:156|92:240,1,200,8|2,0:0|0:0,0:0:0:0:
276,304,151347,1,8,0:0:0:0:
376,292,151615,1,0,0:0:0:0:
476,280,151883,2,0,B|432:212|504:140|472:76,1,200,2|8,0:0|0:0,0:0:0:0:
284,32,152954,5,2,0:0:0:0:
184,36,153222,1,0,0:0:0:0:
160,132,153490,2,0,P|140:184|0:156,1,200,8|2,0:0|0:0,0:0:0:0:
60,92,154293,1,0,0:0:0:0:
148,48,154561,2,0,P|216:56|220:192,1,200,8|2,0:0|0:0,0:0:0:0:
256,268,155365,5,0,0:0:0:0:
339,305,155633,2,0,P|256:352|173:305,1,200,8|2,0:0|0:0,0:0:0:0:
256,268,156436,1,0,0:0:0:0:
270,169,156704,2,0,P|296:56|364:48,1,200,8|0,0:0|1:0,0:0:0:0:
452,96,157508,5,0,1:0:0:0:
448,268,157775,1,0,1:0:0:0:
348,136,158043,1,0,1:0:0:0:
512,188,158311,1,0,1:0:0:0:
352,228,158579,1,0,1:0:0:0:
256,188,158847,5,4,1:3:0:0:
232,184,158981,1,0,1:0:0:0:
208,188,159115,1,0,1:0:0:0:
184,192,159249,1,0,1:0:0:0:
164,204,159383,6,0,P|80:248|64:344,1,200,4|10,1:0|1:2,0:0:0:0:
164,324,160186,1,4,3:0:0:0:
256,288,160454,2,0,B|316:288|380:356|380:356|448:356,1,200,0|10,0:0|1:2,0:0:0:0:
492,164,161525,5,4,3:0:0:0:
400,128,161793,1,4,3:0:0:0:
320,192,162061,2,0,P|260:220|216:108,1,200,10|0,1:2|0:0,0:0:0:0:
228,24,162865,1,4,3:0:0:0:
284,108,163133,2,0,B|288:156|288:156|356:236|356:236|360:308,1,200,10|4,1:2|3:0,0:0:0:0:
292,356,163936,5,4,3:0:0:0:
220,284,164204,2,0,P|156:276|44:356,1,200,10|0,1:2|0:0,0:0:0:0:
20,252,165008,1,4,3:0:0:0:
4,152,165275,2,0,P|60:136|96:8,1,200,10|4,1:2|3:0,0:0:0:0:
196,20,166079,5,4,3:0:0:0:
296,12,166347,2,0,P|340:56|492:32,2,200,10|0|10,1:2|0:0|1:2,0:0:0:0:
256,104,167686,1,0,1:0:0:0:
256,104,167820,1,8,1:2:0:0:
256,104,167954,6,0,B|248:160|284:240|256:304,1,200,4|10,1:0|1:2,0:0:0:0:
164,336,168758,1,4,3:0:0:0:
144,240,169025,2,0,P|236:228|356:272,1,200,0|10,0:0|1:2,0:0:0:0:
472,112,170097,5,4,3:0:0:0:
372,92,170365,1,4,3:0:0:0:
272,76,170633,2,0,L|232:288,1,200,10|0,1:2|0:0,0:0:0:0:
156,332,171436,1,4,3:0:0:0:
124,236,171704,2,0,L|340:316,1,200,10|4,1:2|3:0,0:0:0:0:
408,324,172508,5,4,3:0:0:0:
500,284,172775,2,0,P|512:220|400:128,1,200,10|0,1:2|0:0,0:0:0:0:
328,160,173579,1,4,3:0:0:0:
236,200,173847,2,0,P|232:272|336:352,1,200,10|4,1:2|3:0,0:0:0:0:
400,288,174650,5,4,3:0:0:0:
412,188,174918,2,0,P|404:120|372:88,1,100,10|4,1:2|3:0,0:0:0:0:
288,68,175454,2,0,P|227:86|236:204,2,200,0|10|4,0:0|1:2|1:0,0:0:0:0:
480,124,177061,5,10,1:2:0:0:
444,216,177329,1,4,3:0:0:0:
400,308,177597,2,0,L|216:232,1,200,0|10,0:0|1:2,0:0:0:0:
52,112,178668,5,4,3:0:0:0:
148,80,178936,1,4,3:0:0:0:
164,180,179204,2,0,P|172:240|316:248,1,200,10|0,1:2|0:0,0:0:0:0:
340,184,180008,1,4,3:0:0:0:
240,164,180275,2,0,P|236:220|112:240,1,200,10|4,1:2|3:0,0:0:0:0:
40,60,181347,5,10,1:2:0:0:
240,36,181883,1,0,0:0:0:0:
340,44,182150,1,4,3:0:0:0:
440,52,182418,2,0,B|432:108|432:108|376:188|376:188|364:252,1,200,10|4,1:2|3:0,0:0:0:0:
304,312,183222,5,4,3:0:0:0:
204,328,183490,1,10,1:2:0:0:
244,236,183758,1,4,3:0:0:0:
144,252,184025,1,0,0:0:0:0:
180,160,184293,1,0,0:0:0:0:
280,148,184561,5,10,1:2:0:0:
360,208,184829,1,0,1:0:0:0:
360,208,184963,1,8,1:2:0:0:
360,208,185097,2,0,P|432:204|432:68,1,200,4|10,0:0|1:2,0:0:0:0:
372,44,185900,1,4,3:0:0:0:
292,104,186168,2,0,P|240:116|152:12,1,200,0|10,0:0|1:2,0:0:0:0:
24,76,187240,5,4,3:0:0:0:
24,176,187508,1,4,3:0:0:0:
24,276,187775,2,0,B|84:276|100:328|100:328|164:312|192:380,1,200,10|0,1:2|0:0,0:0:0:0:
256,292,188579,1,4,3:0:0:0:
327,364,188847,2,0,B|348:312|412:328|412:328|428:276|488:276,1,200,10|4,1:2|3:0,0:0:0:0:
512,180,189650,5,4,3:0:0:0:
464,92,189918,2,0,P|392:104|328:232,1,200,10|0,1:2|0:0,0:0:0:0:
256,276,190722,1,4,3:0:0:0:
185,204,190990,2,0,P|120:104|48:92,1,200,10|0,1:2|1:0,0:0:0:0:
12,184,191793,5,0,1:0:0:0:
52,276,192061,1,8,1:2:0:0:
148,308,192329,1,0,1:0:0:0:
244,276,192597,6,0,B|312:276|368:312|368:312|424:304|432:240,2,200,0|0|0,1:0|0:0|1:0,0:0:0:0:
244,276,193936,1,0,1:0:0:0:
148,308,194740,5,0,1:0:0:0:
148,308,195008,1,0,1:0:0:0:
52,276,195543,5,4,1:0:0:0:
256,192,195677,12,0,197954,0:0:0:0:
