osu file format v12

[General]
AudioFilename: Daniel Ingram - Becoming Popular.mp3
AudioLeadIn: 0
PreviewTime: 62638
Countdown: 0
SampleSet: Soft
StackLeniency: 0.7
Mode: 0
LetterboxInBreaks: 0

[Editor]
DistanceSpacing: 1
BeatDivisor: 4
GridSize: 4

[Metadata]
Title:Becoming Popular
TitleUnicode:Becoming Popular
Artist:Daniel Ingram
ArtistUnicode:Daniel Ingram
Creator:CDFA
Version:Easy
Source:My Little Pony: Friendship is Magic
Tags:Kazumi Evans Rarity mlp
BeatmapID:205994
BeatmapSetID:61551

[Difficulty]
HPDrainRate:3
CircleSize:3
OverallDifficulty:3
ApproachRate:4
SliderMultiplier:1
SliderTickRate:1

[Events]
//Background and Video events
0,0,"Rarity.jpg",0,0
Video,93,"Becoming Popular - MLP- Friendship Is Magic [HD].flv"
//Break Periods
2,44156,61336
2,83356,86398
//Storyboard Layer 0 (Background)
//Storyboard Layer 1 (Fail)
//Storyboard Layer 2 (Pass)
//Storyboard Layer 3 (Foreground)
//Storyboard Sound Samples
//Background Colour Transformations
3,100,163,162,255

[TimingPoints]
156,500,4,2,0,50,1,0
24303,-100,4,1,0,50,0,0
59156,500,4,1,0,50,1,0
85156,631.578947368421,4,2,0,50,1,0
87050,666.666666666667,4,2,0,50,1,0
87718,678.736666666667,4,2,0,50,1,0
89075,651.465798045603,4,2,0,50,1,0
91680,662.983425414365,4,2,0,50,1,0
93668,591.133425414365,4,2,0,50,1,0
94259,674.158181818181,4,2,0,50,1,0
95607,727.274418604651,4,2,0,50,1,0
97061,857.142857142857,4,2,0,50,1,0
98775,991.735537190083,4,2,0,50,1,0
100262,1000,4,2,0,50,1,0
101762,1066.66666666667,4,2,0,50,1,0
103362,1176.48,4,2,0,50,1,0
105266,714.281566265059,4,2,0,30,1,0

[HitObjects]
60,56,8156,1,4,0:0:0:0:
52,156,8656,2,0,P|132:220|232:188,1,200,2|2,0:0|0:0,0:0:0:0:
300,124,10156,2,0,P|364:100|400:120,1,100,0|2,0:0|0:0,0:0:0:0:
452,188,11156,2,0,P|448:264|336:276,1,200,0|4,0:0|0:0,0:0:0:0:
240,300,12656,5,2,0:0:0:0:
144,328,13156,1,0,0:0:0:0:
60,272,13656,2,0,L|16:164,1,100,2|0,0:0|0:0,0:0:0:0:
88,104,14656,2,0,L|136:212,1,100,2|0,0:0|0:0,0:0:0:0:
196,268,15656,2,0,P|240:272|256:224,1,100,2|4,0:0|0:0,0:0:0:0:
256,128,16656,5,2,0:0:0:0:
348,84,17156,1,0,0:0:0:0:
432,140,17656,1,2,0:0:0:0:
340,176,18156,2,0,P|344:276|428:276,2,200,0|2|4,0:0|0:0|0:0,0:0:0:0:
440,180,20656,6,0,P|516:240|492:348,1,200,2|2,0:0|0:0,0:0:0:0:
420,276,22156,2,0,L|304:252,1,100,0|2,0:0|0:0,0:0:0:0:
228,228,23156,2,0,P|192:240|188:280,2,75,0|2|0,0:0|0:0|0:0,0:0:0:0:
16,80,26156,6,0,P|108:116|168:88,2,150,4|0|8,0:0|0:0|0:0,0:0:0:0:
104,28,28156,2,0,P|184:20|236:80,1,150,0|2,0:0|0:0,0:0:0:0:
320,188,29656,6,0,P|372:248|400:244,1,100,8|4,0:0|0:0,0:0:0:0:
484,228,30656,2,0,P|480:304|452:320,1,100,8|0,0:0|0:0,0:0:0:0:
372,352,31656,1,8,0:0:0:0:
272,372,32156,2,0,P|208:372|136:316,1,150,0|2,0:0|0:0,0:0:0:0:
48,208,33656,5,8,0:0:0:0:
64,112,34156,2,0,P|152:96|216:136,2,150,4|0|8,0:0|0:0|0:0,0:0:0:0:
8,192,36156,2,0,P|16:268|80:288,2,150,0|2|8,0:0|0:0|0:0,0:0:0:0:
100,128,38156,5,4,0:0:0:0:
188,84,38656,2,8,P|296:80|344:152,1,200
352,248,40156,1,0,0:0:0:0:
256,276,40656,1,8,0:0:0:0:
160,244,41156,2,0,P|88:244|68:312,1,150,0|2,0:0|0:0,0:0:0:0:
44,56,62656,5,8,0:0:0:0:
72,152,63156,2,0,P|172:184|232:120,1,200,4|0,0:0|0:0,0:0:0:0:
296,48,64656,1,8,0:0:0:0:
396,44,65156,2,0,P|472:76|480:156,2,150,0|0|8,0:0|0:0|0:0,0:0:0:0:
296,32,67156,5,0,0:0:0:0:
196,24,67656,1,8,0:0:0:0:
112,80,68156,2,0,P|84:128|84:184,1,100,0|8,0:0|0:0,0:0:0:0:
104,272,69156,2,0,P|192:292|232:244,2,150,0|0|8,0:0|0:0|0:0,0:0:0:0:
3,268,71156,5,4,0:0:0:0:
8,168,71656,1,8,0:0:0:0:
52,80,72156,2,0,P|96:60|156:72,1,100,0|8,0:0|0:0,0:0:0:0:
236,108,73156,2,0,P|312:128|392:104,2,150,0|0|8,0:0|0:0|0:0,0:0:0:0:
136,124,75156,5,4,0:0:0:0:
76,204,75656,2,0,P|88:268|132:280,1,100,8|0,0:0|0:0,0:0:0:0:
214,280,76656,2,0,P|272:292|280:336,1,100,8|0,0:0|0:0,0:0:0:0:
192,368,77656,2,8,P|136:316|176:200,1,200
256,168,79156,1,4,0:0:0:0:
256,192,79656,12,4,83156,0:0:0:0:
236,320,87718,6,0,P|144:294|168:196,1,200,4|2,0:0|0:0,0:0:0:0:
352,192,90377,6,0,P|340:136|284:116,1,100,0|2,0:0|0:0,0:0:0:0:
212,96,91680,2,0,P|144:100|44:20,1,200,0|2,0:0|0:0,0:0:0:0:
232,20,94259,6,0,P|280:20|360:136,1,200,4|0,0:0|0:0,0:0:0:0:
348,232,96334,1,2,0:0:0:0:
264,308,97061,2,0,B|200:324|200:324|120:292|152:212,1,200,0|2,0:0|0:0,0:0:0:0:
256,88,100262,5,2,0:0:0:0:
256,192,100512,12,6,105266,0:0:0:0:
