osu file format v9

[General]
AudioFilename: B.B.B.F.F .mp3
AudioLeadIn: 1974
PreviewTime: 59093
Countdown: 0
SampleSet: Soft
StackLeniency: 0.7
Mode: 0
LetterboxInBreaks: 0
OverlayPosition: Below

[Editor]
Bookmarks: 55131,59659
DistanceSpacing: 1
BeatDivisor: 2
GridSize: 8

[Metadata]
Title:B.B.B.F.F
Artist:Daniel Ingram
Creator:ztrot
Version:Normal
Source:My Little Pony: Friendship is Magic
Tags:Mlp twilight shining armor big brother best friend forever dragonsparta moonshade mmzz

[Difficulty]
HPDrainRate:4
CircleSize:4
OverallDifficulty:5
ApproachRate:5
SliderMultiplier:1.6
SliderTickRate:2

[Events]
//Background and Video events
0,0,"l.php.jpg"
Video,0,"BGV.avi"
//Break Periods
//Storyboard Layer 0 (Background)
//Storyboard Layer 1 (Fail)
//Storyboard Layer 2 (Pass)
//Storyboard Layer 3 (Foreground)
//Storyboard Sound Samples
//Background Colour Transformations
3,100,163,162,255

[TimingPoints]
282,631.578947368421,4,2,0,60,1,0
5330,566.037735849057,4,2,1,100,1,0
27820,-100,4,2,1,18,0,0
29376,-100,4,2,1,100,0,0
52725,-100,4,2,0,60,0,0
55172,566.037735849057,4,2,0,60,1,0
59093,566.037735849057,4,2,1,100,1,0
59659,566.037735849057,4,2,1,100,1,0
75539,566.037735849057,4,2,0,60,1,0
80037,566.037735849057,4,2,0,60,1,0
88952,-100,4,2,0,5,0,0

[Colours]
Combo1 : 234,79,145
Combo2 : 53,59,117
Combo3 : 166,213,239
Combo4 : 194,155,199
SliderBorder : 255,255,255

[HitObjects]
184,56,282,2,0,B|80:64|80:160,1,160,0|0
160,144,1229,1,2
128,216,1545,2,0,B|136:312|240:312,1,160
216,232,2492,1,2
296,256,2808,2,0,B|368:320|440:256,1,160
368,208,3755,1,2
440,176,4071,1,0
96,80,5330,6,0,B|40:152|96:232,2,160,0|2|0
160,128,6745,1,0
224,80,7028,1,2
288,128,7311,2,0,B|360:184|440:128,1,160
360,80,8160,1,2
440,56,8443,1,0
512,96,8726,2,0,B|520:144|480:184,1,80
488,248,9292,1,2
360,344,9858,5,0
200,360,10424,1,2
152,296,10707,1,0
104,360,10990,2,0,B|56:360|40:320,1,80
80,256,11556,1,2
32,192,11839,2,0,B|16:104|104:48,1,160
136,120,12688,1,2
296,56,13254,5,4
256,128,13537,1,0
216,56,13820,1,2
352,136,14386,6,0,B|440:168|496:88,2,160,0|2|0
256,264,16084,1,2
256,344,16367,1,0
184,304,16650,2,0,B|88:304|64:208,2,160,0|2|0
256,160,18348,5,0
216,88,18631,1,0
296,88,18914,2,0,B|384:96|416:184,1,160,0|2
376,248,19763,5,0
320,304,20046,1,0
256,256,20330,1,0
192,304,20613,1,2
136,248,20896,2,0,B|64:192|104:104,1,160
176,64,21745,1,2
336,64,22311,5,4
288,128,22594,1,4
352,176,22877,1,2
400,112,23160,1,0
440,184,23443,6,0,B|488:272|408:336,1,160,0|2
384,248,24292,1,0
336,312,24575,2,0,B|272:376|184:328,1,160,0|2
256,272,25424,1,0
176,256,25707,2,0,B|88:208|136:120,1,160,0|2
200,176,26556,1,0
216,96,26839,2,0,B|272:24|368:56,1,160,0|2
472,160,27971,6,0,B|472:104,8,40,8|8|8|8|8|8|8|8|8
416,312,29669,5,0
352,264,29952,1,0
336,344,30235,2,0,B|248:344,1,80
232,264,30801,1,2
176,320,31084,2,0,B|136:344|96:320,1,80
136,248,31650,1,0
56,256,31933,2,0,B|8:184|40:96,1,160,2|0
104,56,32782,1,0
184,64,33065,6,0,B|240:136|336:96,2,160,2|0|2
256,208,34763,5,0
304,360,35330,1,2
256,296,35613,1,0
208,360,35896,2,0,B|120:360|96:256,1,160,0|2
208,144,37028,5,0
256,80,37311,1,0
304,144,37594,1,2
256,296,38160,1,0
256,296,38443,1,0
216,224,38726,6,0,B|256:208|296:224,2,80,2|0|0
120,352,39858,5,2
24,224,40424,1,4
24,144,40707,1,0
24,64,40990,1,2
184,64,41556,1,4
224,136,41839,1,0
288,80,42122,1,2
448,96,42688,5,4
448,176,42971,1,0
400,240,43254,2,0,B|368:272|400:320,2,80,2|0|0
464,280,44103,1,0
456,360,44386,2,0,B|400:407|340:378|324:329,1,160,2|0
256,368,45235,5,0
232,288,45518,2,0,B|160:240|80:272,1,160,2|0
8,232,46367,1,0
80,192,46650,2,0,B|160:160|152:48,2,160,2|0|2
32,344,48348,6,0,B|120:376|184:296,2,160,0|2|0
80,192,50046,1,2
176,78,50613,2,0,B|120:8|32:40,2,160,0|2|0
216,144,52028,1,0
296,144,52311,1,2
456,144,52877,6,0,B|384:200|416:296,1,160
448,360,53726,1,0
368,352,54009,2,0,B|288:328|208:376,1,160
128,344,54858,1,0
80,272,55172,2,0,B|16:216|56:120,1,160
136,136,56021,1,0
104,64,56304,1,0
256,112,56870,1,2
256,192,57436,12,0,58568
96,72,59093,5,0
160,120,59376,1,0
176,40,59659,2,0,B|216:56|256:40,1,80
280,120,60225,1,2
336,64,60508,2,0,B|376:40|416:64,1,80
376,136,61074,1,0
456,128,61357,2,0,B|504:200|472:288,1,160,2|0
408,328,62206,1,0
328,320,62489,6,0,B|272:248|176:288,2,160,2|0|2
256,176,64187,1,0
208,24,64753,1,2
256,88,65036,1,0
304,24,65319,2,0,B|392:24|416:128,1,160,0|2
304,240,66451,5,0
256,304,66734,1,0
208,240,67017,1,2
256,88,67583,1,4
256,88,67866,1,0
296,160,68149,2,0,B|256:176|216:160,2,80,2|0|0
392,32,69281,5,2
488,160,69847,1,0
488,240,70130,1,0
488,320,70413,1,2
328,320,70979,1,4
288,248,71262,1,0
224,304,71545,1,2
64,288,72111,5,0
64,208,72394,1,0
112,144,72677,2,0,B|144:112|112:64,2,80,2|0|0
48,104,73526,1,0
56,24,73809,2,0,B|112:-23|172:6|188:55,1,160,2|0
440,296,75539,5,0
344,168,76105,2,0,B|264:200|272:312,2,160
256,192,77803,12,0,79501
192,360,80037,6,0,B|112:336|96:240,3,160
256,248,82301,2,0,B|328:312|432:248|432:128|328:96,1,320
256,192,83999,12,0,87961
256,192,89093,12,0,93621
