osu file format v9

[General]
AudioFilename: B.B.B.F.F .mp3
AudioLeadIn: 1974
PreviewTime: 59093
Countdown: 0
SampleSet: Soft
StackLeniency: 0.7
Mode: 0
LetterboxInBreaks: 0
OverlayPosition: Below

[Editor]
Bookmarks: 55131,59659
DistanceSpacing: 0.8
BeatDivisor: 4
GridSize: 8

[Metadata]
Title:B.B.B.F.F
Artist:Daniel Ingram
Creator:ztrot
Version:Insane
Source:My Little Pony: Friendship is Magic
Tags:Mlp twilight shining armor big brother best friend forever dragonsparta moonshade mmzz

[Difficulty]
HPDrainRate:7
CircleSize:4
OverallDifficulty:8
ApproachRate:8
SliderMultiplier:2.5
SliderTickRate:2

[Events]
//Background and Video events
0,0,"l.php.jpg"
Video,0,"BGV.avi"
//Break Periods
//Storyboard Layer 0 (Background)
//Storyboard Layer 1 (Fail)
//Storyboard Layer 2 (Pass)
//Storyboard Layer 3 (Foreground)
//Storyboard Sound Samples
//Background Colour Transformations
3,100,163,162,255

[TimingPoints]
282,631.578947368421,4,2,0,60,1,0
5330,566.037735849057,4,2,1,100,1,0
27820,-100,4,2,1,18,0,0
29376,-100,4,2,1,100,0,0
52725,-100,4,2,0,60,0,0
55172,566.037735849057,4,2,0,60,1,0
59093,566.037735849057,4,2,1,100,1,0
59659,566.037735849057,4,2,1,100,1,0
75539,566.037735849057,4,2,0,60,1,0
80037,566.037735849057,4,2,0,60,1,0
88952,-100,4,2,0,5,0,0

[Colours]
Combo1 : 234,79,145
Combo2 : 53,59,117
Combo3 : 166,213,239
Combo4 : 194,155,199
SliderBorder : 255,255,255

[HitObjects]
256,336,282,1,2
256,240,597,1,0
168,288,913,2,0,B|96:288|72:216,1,125,2|0
168,184,1545,1,2
256,136,1860,1,0
344,184,2176,2,0,B|416:184|440:256,1,125,2|0
344,288,2808,5,2
256,336,3124,1,0
168,288,3439,1,2
208,200,3755,1,0
304,200,4071,1,2
48,48,5018,5,0
48,152,5330,1,4
136,104,5613,1,0
136,208,5896,1,2
48,256,6179,1,0
136,312,6462,2,0,B|192:352|256:312,1,125,4|0
196,231,7028,5,2
152,88,7311,2,0,B|184:32|256:8|328:32|360:88,1,250
312,232,8160,1,2
256,312,8443,1,0
352,320,8726,2,0,B|416:344|472:312,1,125,4|4
408,232,9292,1,2
456,144,9575,5,0
384,24,9858,1,4
256,64,10141,1,0
352,144,10424,1,2
320,184,10565,1,0
272,184,10707,1,2
232,160,10848,1,0
216,112,10990,2,0,B|184:56|104:64,1,125,4|0
32,136,11556,5,2
112,200,11839,2,0,B|248:224|288:368,1,250
384,336,12688,1,2
464,272,12971,1,2
416,264,13113,1,2
376,240,13254,1,4
368,192,13396,1,4
376,144,13537,1,4
416,120,13679,1,0
464,112,13820,1,2
448,192,14103,5,0
448,192,14245,1,0
448,192,14386,1,0
312,120,14669,1,0
200,120,14952,1,2
64,192,15235,1,0
256,224,15518,1,0
104,96,16084,5,2
56,96,16226,1,2
16,128,16367,1,6
16,176,16509,1,4
48,216,16650,1,4
328,200,16933,1,0
184,200,17216,1,2
464,216,17499,1,0
256,304,17782,1,4
464,40,18348,5,2
464,136,18631,1,0
376,88,18914,2,0,B|304:72|288:8,1,125,4|0
384,184,19480,1,2
464,240,19763,1,0
384,296,20046,2,0,B|312:304|296:376,1,125,4|0
464,336,20613,1,2
312,240,20896,2,0,B|240:280|176:232|152:168|208:104|232:112,1,250
264,176,21745,1,2
136,288,22028,5,2
96,264,22169,1,2
64,224,22311,1,4
64,176,22452,1,4
96,136,22594,5,4
136,104,22735,1,4
144,56,22877,1,2
48,64,23160,1,0
152,200,23443,1,4
256,64,23726,1,0
360,200,24009,1,2
464,64,24292,1,0
256,160,24575,2,0,B|280:280|160:296,1,187.5,4|0
166,295,25141,1,2
344,296,25424,1,0
408,224,25707,5,4
416,176,25848,1,0
424,128,25990,1,4
360,56,26273,1,2
256,184,26556,1,0
152,56,26839,1,4
104,48,26980,1,4
56,72,27122,1,4
48,120,27263,1,4
72,160,27405,2,0,B|112:208|184:208,1,125,2|4
488,352,27971,5,8
440,344,28113,1,8
400,312,28254,1,8
384,264,28396,1,8
400,216,28537,1,8
440,192,28679,1,8
488,184,28820,1,8
488,184,28962,1,8
488,184,29103,1,8
352,40,29669,5,4
256,200,29952,1,0
160,40,30235,2,0,B|88:56|64:112,1,125,4|0
64,112,30660,1,0
64,112,30801,1,2
256,152,31084,1,4
256,152,31226,1,4
216,104,31367,2,0,B|160:128|152:208,1,125,4|4
296,104,31933,2,0,B|352:128|360:208,1,125,2|0
200,272,32499,2,4,B|256:320|312:272,1,125
192,24,33065,5,2
96,64,33348,1,4
64,104,33490,1,0
32,144,33631,2,0,B|8:216|56:272,1,125,4|4
120,192,34197,5,2
256,96,34480,1,4
392,192,34763,1,4
256,232,35046,1,4
128,296,35329,1,2
384,296,35613,1,4
256,352,35896,1,4
256,232,36179,1,4
120,192,36462,5,2
392,192,36745,1,4
96,272,37028,1,4
416,112,37311,1,4
184,296,37594,1,2
328,88,37877,1,4
208,216,38160,1,4
304,168,38443,1,4
224,112,38726,5,6
176,120,38867,1,2
144,160,39009,1,4
104,192,39150,1,4
56,184,39292,1,4
56,280,39575,5,0
152,352,39858,2,0,B|224:352|256:288,1,125,2|0
160,256,40424,1,4
352,256,40707,1,4
360,352,40990,2,0,B|288:352|256:288,1,125,2|0
352,168,41556,1,4
160,168,41839,1,4
256,216,42122,6,0,B|256:88,1,125,2|0
160,72,42688,1,4
352,72,42971,1,4
440,120,43254,2,0,B|480:176|440:248,1,125,2|4
352,280,43820,1,4
160,280,44103,5,4
66,238,44386,2,0,B|32:176|72:120,1,125,2|0
144,192,44952,1,4
368,192,45235,1,4
256,224,45518,2,0,B|232:152|296:96,1,125,2|0
384,104,46084,1,4
320,320,46367,1,4
320,320,46509,1,4
320,320,46650,6,0,B|392:328|432:280,1,125,2|0
192,256,47216,2,0,B|120:264|80:216,1,125,4|4
320,192,47782,2,0,B|392:200|432:152,1,125,2|4
432,151,48207,1,4
432,151,48348,5,4
344,32,48631,1,4
168,32,48914,1,2
80,152,49197,1,0
256,112,49480,2,0,B|256:184|184:208,1,125,4|4
144,232,49905,1,4
128,280,50046,1,2
48,224,50330,1,0
232,296,50613,6,0,B|272:352|344:336,1,125,4|4
384,312,51037,1,4
400,264,51179,1,2
432,168,51462,1,0
344,112,51745,1,4
168,112,52028,1,4
128,88,52169,1,4
80,96,52311,1,2
104,192,52594,1,0
168,272,52877,6,0,B|96:288|88:360,1,125
192,368,53443,1,2
256,296,53726,1,0
344,272,54009,2,0,B|416:288|424:360,1,125
320,368,54575,1,2
208,184,55172,5,0
304,184,55455,1,0
256,96,55738,1,2
160,112,56021,1,0
352,112,56304,1,0
256,248,56587,1,0
136,184,56870,6,2,B|256:128|384:192,1,250
440,112,57719,1,0
336,32,58002,1,2
176,32,58285,1,0
72,112,58568,1,2
328,216,59093,5,0
304,360,59376,1,0
160,344,59659,2,0,B|88:328|64:272,1,125,4|4
40,232,60083,1,0
40,184,60225,1,2
200,128,60508,1,4
224,168,60649,1,0
264,200,60791,2,0,B|320:176|328:96,1,125,4|4
176,240,61357,2,0,B|120:216|112:136,1,125,2|0
328,256,61923,2,0,B|384:232|400:152,1,125,4|4
256,352,62489,5,2
352,352,62772,1,0
400,344,62913,1,0
440,312,63055,2,4,B|480:264|472:184,1,125
384,192,63621,5,2
256,288,63904,1,0
128,192,64187,2,0,B|88:136|120:72,1,125,4|4
320,128,64753,1,2
192,128,65036,1,4
384,192,65319,2,0,B|424:136|392:72,1,125,4|4
128,192,65885,5,2
384,192,66168,1,4
96,112,66451,1,4
416,272,66734,1,4
184,88,67017,1,2
328,296,67300,1,4
208,168,67583,1,4
304,216,67866,1,4
272,296,68149,5,2
312,320,68291,1,6
360,336,68432,1,4
408,320,68574,1,4
456,296,68715,1,2
456,104,68998,5,0
472,200,69281,2,0,B|400:200|368:136,1,125,2|4
256,280,69847,1,4
56,104,70130,1,4
40,200,70413,2,0,B|112:200|144:136,1,125,2|4
128,288,70979,1,4
384,288,71262,1,4
256,336,71545,6,0,B|216:272|296:272|248:208,1,125,2|4
360,128,72111,1,4
152,128,72394,1,4
48,192,72677,2,0,B|8:136|48:64,1,125,2|4
152,128,73243,1,4
360,128,73526,5,4
456,80,73809,2,0,B|490:142|450:198,1,125,2|4
384,272,74375,2,0,B|376:264|376:264|368:272|368:272|360:264|360:264|352:272|352:272|344:264|344:264|336:272|336:272|328:264|328:264|320:272|320:272|312:264|312:264|304:272|304:272|296:264|296:264|288:272|288:272|280:264|280:264|272:272|272:272|264:264|264:264|256:272|256:272|248:264|248:264|240:272|240:272|232:264|232:264|224:272|224:272|216:264|216:264|208:272|208:272|200:264|200:264|192:272|192:272|184:264|184:264|176:272|176:272|168:264|168:264|160:272|160:272|152:264|152:264|144:272|144:272|135:263|135:263|128:272|128:272|120:264,1,375
56,352,75539,5,0
120,96,76105,1,0
256,160,76388,1,0
392,96,76671,2,0,B|456:208|384:336,1,250
256,280,77520,1,0
128,336,77803,2,0,B|56:208|120:96,1,250
256,72,78652,1,0
224,144,78935,2,0,B|192:120|176:152|232:200|256:216|256:216|280:200|336:152|320:120|288:144,1,250
256,328,80037,5,0
184,256,80320,1,0
112,328,80603,1,2
40,256,80886,1,0
112,184,81169,2,0,B|112:112|176:80,1,125,2|0
172,82,81593,2,0,B|232:48|296:80,1,125,2|2
291,77,82018,1,0
256,328,82301,5,0
328,256,82584,1,0
400,328,82867,1,2
472,256,83150,1,0
400,184,83433,2,0,B|400:112|336:80,1,125,2|0
339,82,83857,2,0,B|280:48|216:80,1,125,2|2
220,77,84282,1,0
184,256,84565,5,0
256,328,84848,1,0
328,256,85131,2,0,B|384:216|384:144,1,125,2|0
184,256,85697,2,0,B|128:216|128:144,1,125,2|0
128,149,86121,1,2
385,149,86404,1,2
385,150,86546,1,0
256,216,86829,6,0,B|256:80,3,125,0|0|2|0
160,56,87961,2,0,B|96:64|56:128,1,125,2|0
59,122,88386,2,0,B|32:184|40:248,1,125,2|2
39,245,88810,1,0
256,192,89093,12,0,93621
