osu file format v9

[General]
AudioFilename: Art of the Dress.mp3
AudioLeadIn: 0
PreviewTime: 49460
Countdown: 0
SampleSet: Soft
StackLeniency: 0.7
Mode: 0
LetterboxInBreaks: 1

[Editor]
Bookmarks: 27238,49460,62380,85119,103724,111865,138326,158681,166822,191248,216435,234754
DistanceSpacing: 1
BeatDivisor: 4
GridSize: 4

[Metadata]
Title:Art of the Dress
Artist:Daniel Ingram
Creator:WiiAndii
Version:Hard
Source:My Little Pony: Friendship is Magic
Tags:Twilight Sparkle Spike Pinkie Pie Applejack Rainbow Dash Rarity Fluttershy Celestia Equestria

[Difficulty]
HPDrainRate:5
CircleSize:4
OverallDifficulty:5
ApproachRate:4
SliderMultiplier:1.4
SliderTickRate:2

[Events]
//Background and Video events
0,0,"Rarity-rarity-the-unicorn-29795069-900-675.jpg"
Video,0,"Art of the Dress.flv"
//Break Periods
2,58187,61060
2,103724,110545
2,132220,137006
2,146160,157361
//Storyboard Layer 0 (Background)
//Storyboard Layer 1 (Fail)
//Storyboard Layer 2 (Pass)
//Storyboard Layer 3 (Foreground)
//Storyboard Sound Samples
//Background Colour Transformations
3,100,114,100,180

[TimingPoints]
365,516.795865633075,4,2,0,80,1,0
49977,-100,4,1,0,70,0,0
58246,-100,4,2,0,80,0,0
68582,-100,4,1,0,70,0,0
95455,-100,4,1,0,80,0,1
103724,508.86269188364,4,2,0,80,1,0
138326,-100,4,1,0,85,0,0
146468,-100,4,2,0,80,0,0
158681,-100,4,1,0,70,0,0
166822,-100,4,2,0,50,0,0
211602,4000,4,2,0,50,1,0
214400,508.86269188364,4,1,0,75,1,0
214463,-83.3333333333333,4,1,0,75,0,0
216446,-83.3333333333333,4,1,0,75,0,1
234765,-83.3333333333333,4,1,0,85,0,0
244942,-83.3333333333333,4,1,0,85,0,1

[Colours]
Combo1 : 168,231,255
Combo2 : 239,245,250
Combo3 : 114,100,180
Combo4 : 219,175,237
Combo5 : 255,193,107
Combo6 : 248,88,162
Combo7 : 255,246,153
Combo8 : 248,185,206

[HitObjects]
400,288,4499,2,0,B|344:240|280:304,1,105
256,192,5274,2,0,B|192:248|120:184,1,140
72,152,6049,1,0
88,80,6308,1,0
144,40,6566,2,0,B|208:16|256:32,1,105
416,312,8633,6,0,B|368:352|320:312,1,105
368,216,9408,1,0
160,200,10184,1,0
224,168,10442,1,0
288,136,10700,2,2,B|320:120|344:96|344:96|368:128|392:152|392:152|368:176|368:216|368:216|336:216|304:240,1,280
176,192,12251,5,0
144,128,12509,1,0
176,64,12768,2,2,B|296:32|360:136,1,210
372,272,14060,1,0
320,320,14318,1,0
256,352,14576,1,0
188,336,14835,2,0,B|132:320|116:288,1,70
84,248,15352,2,0,B|64:212|68:176,2,70,2|0|2
220,220,16385,101,0
292,220,16644,1,0
360,220,16902,2,2,B|456:200|456:164|388:132|244:132,1,280
120,192,18452,1,0
60,156,18711,1,0
32,92,18969,2,2,B|32:32|72:16|140:40|248:136,1,280
256,192,21036,12,0,25171
304,268,27238,22,0,B|236:268|176:232,2,105,0|0|0
108,192,28788,1,0
80,128,29047,1,0
120,72,29305,2,2,B|176:32|256:60,1,140,0|0
208,268,31372,22,0,B|276:268|336:232,2,105,0|0|0
404,192,32922,1,0
432,128,33181,1,0
416,60,33439,2,0,B|392:32|344:32,1,70,8|0
284,36,33956,2,0,B|240:36|208:64,2,70,0|0|8
296,176,34990,85,0
224,176,35248,1,0
152,176,35507,2,0,B|112:176|88:204,1,70,8|0
44,256,36023,1,0
88,312,36282,2,0,B|112:340|152:340,2,70,0|8|0
132,256,37057,1,0
204,256,37315,1,0
276,256,37574,1,8
344,256,37832,2,0,B|380:256|408:228,1,70
448,172,38349,1,0
448,172,38607,1,8
328,96,39124,21,0
256,96,39383,1,0
188,96,39641,2,0,B|100:96|100:184,1,140,8|0
100,252,40416,1,0
52,304,40675,1,8
184,264,41191,1,0
256,264,41450,1,0
324,264,41708,2,0,B|412:264|412:176,1,140,8|0
412,108,42483,1,0
460,56,42742,1,8
328,108,43259,85,0
188,108,43775,2,8,B|88:156|84:240|116:288|184:328,1,280,8|8
256,192,45326,12,8,47910
324,276,49977,5,8
256,276,50235,2,0,B|172:276|128:232,1,140
88,172,51010,1,0
172,60,51527,1,8
304,108,52044,2,8,B|376:132|376:132|320:172|320:172|388:184|388:184|332:220|332:220|392:256|392:256|320:276,1,420,0|8
184,264,54111,5,0
168,196,54370,1,0
216,148,54628,2,8,B|296:112|320:200|376:264|456:284,1,280,8|8
460,140,56178,5,0
432,76,56437,1,0
364,60,56695,1,8
224,60,57212,2,0,B|184:60|152:80,1,70
96,116,57729,2,0,B|60:140|52:172,1,70,8|0
104,192,62380,6,0,B|128:120|180:96,1,105
256,60,63155,1,2
256,268,63930,1,0
256,340,64189,1,0
324,340,64447,2,0,B|476:276|472:104|240:56,1,420,0|2
208,192,66514,85,2
256,284,66902,1,0
308,192,67290,1,2
100,192,68065,1,14
200,96,68582,2,0,B|228:68|264:68,1,70,8|0
332,68,69098,2,0,B|368:68|396:96,2,70,8|0|8
256,188,70132,21,0
252,256,70390,1,0
240,324,70649,2,0,B|208:352|176:320,1,70
128,272,71166,2,0,B|104:248|104:204,2,70,0|0|8
256,216,72199,2,0,B|292:216|320:188,1,70
372,144,72716,2,0,B|372:72|292:36,1,140,0|0
224,36,73491,1,0
156,36,73750,1,8
148,176,74266,69,0
164,244,74525,1,0
232,244,74783,2,0,B|272:184|272:112,2,140,0|0|8
160,364,76333,2,0,B|192:384|228:364,1,70
292,336,76850,1,0
352,296,77109,1,0
400,244,77367,2,0,B|424:220|424:180,1,70
424,112,77884,1,8
308,192,78401,37,0
172,224,78917,2,0,B|160:192|172:156,1,70
256,192,79951,12,8,84085
148,192,85377,21,0
184,252,85636,1,0
220,192,85894,1,8
360,192,86411,1,0
324,132,86670,1,0
288,192,86928,1,8
160,88,87445,1,0
208,140,87703,1,0
256,188,87961,1,8
348,296,88478,1,0
300,244,88737,1,0
256,188,88995,1,8
116,180,89512,102,0,B|128:236|148:248,2,70,0|0|8
324,200,90545,2,0,B|348:152|344:128,2,70,0|0|8
244,316,91579,2,0,B|300:304|312:284,2,70,0|0|8
264,108,92612,2,0,B|216:84|192:88,2,70,0|0|8
376,192,93646,5,0
400,260,93905,1,0
364,320,94163,1,0
296,340,94421,2,0,B|224:340|168:292,1,140,8|0
128,236,95197,1,0
256,192,95455,12,4,99589
92,276,111865,6,0,B|132:304|196:276,1,105
256,192,112629,2,0,B|320:224|392:196,1,140
440,144,113392,1,0
416,76,113646,1,0
352,48,113901,2,0,B|280:28|208:52,1,140
84,148,115936,102,0,B|48:200|76:248,1,105
164,192,116699,1,0
376,192,117463,1,0
404,256,117717,1,0
384,324,117972,2,2,B|340:348|304:312,1,70
264,276,118481,2,0,B|248:236|264:196,2,70,0|0|2
256,136,119498,101,0
212,80,119753,1,0
144,104,120007,2,2,B|128:136|152:172,1,70
180,236,120516,1,0
232,284,120770,1,0
292,248,121025,2,0,B|320:228|336:192,1,70,2|0
376,136,121534,5,0
340,76,121788,1,0
272,56,122043,2,2,B|236:56|208:84,1,70
156,128,122551,2,0,B|132:152|132:192,2,70,0|0|2
188,264,123569,37,0
256,280,123824,1,0
320,252,124078,2,2,B|360:228|372:196,1,70
344,136,124587,1,0
412,128,124841,2,0,B|448:128|476:156,2,70,0|0|2
344,136,125605,1,0
276,156,125859,1,0
224,204,126113,2,2,B|200:228|200:272,1,70
228,332,126622,2,0,B|196:340|160:328,2,70,0|0|2
364,300,127640,21,0
436,180,128149,2,2,B|436:144|408:116,1,70
200,88,129167,2,2,B|132:104|116:196,1,140
256,192,130184,1,4
280,312,138326,6,0,B|336:288|360:244,2,105,8|0|8
160,272,139471,1,0
256,192,139853,1,0
256,192,139980,1,0
232,68,140362,2,0,B|176:92|152:136,2,105,8|0|8
352,112,141507,1,0
256,192,141889,1,0
232,312,142397,102,0,B|176:288|152:244,2,105,8|0|8
352,272,143669,1,0
256,192,143924,1,0
256,192,144051,1,0
280,68,144433,2,0,B|336:92|360:136,2,105,8|0|8
160,112,145578,1,0
256,192,145960,1,12
384,108,158681,69,8
324,72,158935,2,0,B|256:44|188:72,1,140,8|0
128,108,159698,1,0
128,108,159953,1,0
256,272,160716,1,8
396,280,161225,1,0
360,220,161479,2,0,B|288:184|224:184|156:216,1,210,8|0
232,96,162752,21,8
288,140,163006,2,0,B|324:140|352:112,2,70,0|0|0
256,204,163769,1,8
84,80,164533,1,0
64,148,164787,2,8,B|64:188|88:212,1,70,8|0
132,268,165296,1,0
132,268,165550,1,0
188,312,165805,2,0,B|212:336|252:336,2,70,8|0|0
276,200,166822,53,2
344,184,167077,1,0
372,120,167331,2,0,B|332:112|300:128,1,70,2|0
236,140,167840,1,0
256,72,168095,1,0
200,28,168349,2,0,B|164:28|136:56,1,70,2|0
84,104,168858,5,2
140,148,169112,1,0
120,216,169367,2,0,B|88:200|52:200,1,70,2|0
48,272,169876,1,0
116,292,170130,1,0
160,348,170385,2,0,B|184:324|188:284,1,70,2|0
224,224,170893,37,2
288,196,171148,1,0
356,184,171402,2,0,B|392:184|424:208,1,70,2|0
368,252,171911,1,0
432,276,172166,1,0
380,324,172420,2,0,B|344:320|312:300,1,70,2|0
256,260,172929,5,2
196,224,173183,1,0
152,280,173438,2,0,B|116:280|84:264,1,70,2|0
48,204,173947,1,0
96,152,174201,1,0
40,108,174456,2,0,B|60:80|100:72,1,70,2|0
164,44,174964,101,2
228,76,175219,1,0
280,32,175473,2,0,B|316:32|332:72,1,70,2|0
312,140,175982,1,0
380,128,176236,1,0
448,112,176491,2,0,B|460:80|448:40,2,70,2|0|2
480,176,177254,1,0
476,248,177509,2,0,B|436:236|400:240,1,70,2|0
428,308,178017,1,0
360,292,178272,1,0
300,328,178526,2,0,B|268:344|232:324,1,70,2|0
272,264,179035,85,2
204,244,179290,1,0
140,268,179544,2,0,B|140:304|108:332,2,70,2|0|2
88,224,180307,1,0
68,156,180562,2,0,B|36:144|16:108,2,70,2|0|2
96,92,181325,1,0
144,144,181579,2,0,B|168:120|172:80,2,70,2|0|2
212,168,182343,1,0
244,104,182597,2,0,B|276:124|292:152,1,70,2|0
348,108,183106,5,2
304,52,183361,1,0
372,40,183615,2,0,B|408:52|424:88,1,70,2|0
476,40,184124,1,0
488,108,184378,1,0
476,176,184633,2,0,B|440:176|412:148,2,70,2|0|2
472,248,185396,1,0
404,228,185650,2,2,B|404:264|420:296,1,70
460,352,186159,1,0
392,360,186414,1,0
348,308,186668,2,0,B|308:312|284:336,1,70,2|0
256,272,187177,21,2
280,208,187431,1,0
256,140,187686,2,0,B|220:140|188:160,1,70,2|0
200,228,188195,1,0
184,296,188449,1,0
116,312,188704,2,0,B|128:352|160:364,2,70,2|0|2
64,264,189467,1,0
128,240,189721,1,2
76,192,189976,1,0
32,136,190230,2,0,B|32:100|60:72,3,70,2|0|2|0
108,124,191248,1,0
152,72,191502,1,0
180,136,191757,2,0,B|212:152|216:192,1,70,2|0
172,248,192266,1,0
240,260,192520,1,0
284,204,192774,2,0,B|300:172|296:136,1,70,2|0
240,92,193283,5,0
308,68,193538,1,0
372,100,193792,2,0,B|400:72|436:72,1,70,2|0
432,144,194301,1,0
376,188,194555,1,0
440,216,194810,2,0,B|472:228|488:268,2,70,2|0|2
384,256,195573,1,0
432,308,195828,2,0,B|416:340|380:352,1,70,2|0
328,304,196337,1,0
312,236,196591,1,0
260,284,196845,2,0,B|248:316|272:352,2,70,2|0|2
240,216,197609,1,0
288,164,197863,2,0,B|260:144|220:148,1,70,2|0
168,196,198372,1,0
184,264,198626,1,0
208,332,198881,2,0,B|172:336|140:316,1,70
112,252,199390,53,2
72,312,199644,1,0
40,248,199899,2,0,B|40:212|72:188,1,70,2|0
140,180,200407,1,0
96,124,200662,1,0
28,132,200916,2,0,B|24:96|56:68,1,70,2|0
124,60,201425,53,0
168,116,201680,1,0
196,52,201934,2,0,B|228:68|240:108,1,70,2|0
216,172,202443,1,0
148,184,202697,1,0
192,240,202952,2,0,B|228:244|260:232,1,70,2|0
292,168,203461,69,2
332,228,203715,1,0
364,164,203969,2,0,B|388:192|416:208,1,70,2|0
484,232,204478,1,0
472,164,204733,1,0
484,96,204987,2,0,B|448:92|416:116,1,70,2|0
352,92,205496,37,0
404,44,205750,1,0
336,20,206005,2,0,B|300:20|284:60,1,70,2|0
292,128,206514,1,0
228,100,206768,1,0
220,32,207023,2,0,B|184:32|160:72,1,70,2|0
164,136,207531,85,0
100,104,207786,1,0
104,172,208040,2,0,B|72:188|72:232,1,70,2|0
144,232,208549,1,0
104,292,208804,1,0
36,292,209058,2,0,B|36:328|68:352,1,70,2|0
136,356,209567,21,0
180,300,209821,1,0
208,364,210076,2,0,B|240:348|252:312,1,70,2|0
316,344,210585,1,0
312,276,210839,1,0
332,208,211094,2,0,B|336:172|304:140,1,70,2|0
256,192,211602,1,0
304,152,215926,69,0
204,152,216181,1,0
212,252,216435,2,0,B|252:264|296:252,1,84.0000020027161,8|0
396,260,216944,2,0,B|416:220|412:176,3,84.0000020027161
452,88,217962,37,0
356,112,218216,1,0
296,192,218470,2,0,B|264:224|220:224,1,84.0000020027161,8|0
140,160,218979,2,0,B|96:160|64:192,2,84.0000020027161
16,320,219997,37,0
116,308,220251,1,0
192,240,220506,2,0,B|220:204|256:184,1,84.0000020027161,8|0
340,132,221015,1,0
436,100,221269,2,0,B|480:88|492:40,2,84.0000020027161
448,200,222032,37,0
360,248,222287,1,0
264,276,222541,2,0,B|224:288|180:272,1,84.0000020027161,8|0
100,216,223050,1,0
40,132,223305,2,0,B|16:92|16:48,2,84.0000020027161
140,124,224068,85,0
236,96,224322,1,0
336,88,224577,2,0,B|380:92|416:120,1,84.0000020027161,8|0
480,192,225086,2,0,B|496:232|484:280,1,84.0000020027161
412,340,225594,1,0
412,340,225849,1,0
312,332,226103,69,0
216,308,226358,1,0
160,224,226612,2,0,B|148:184|168:140,3,84.0000020027161,8|0|0|0
256,192,227630,1,0
256,192,227885,1,0
348,232,228139,5,0
344,132,228393,1,0
256,84,228648,1,8
172,136,228902,2,0,B|140:168|148:212,4,84.0000020027161
256,192,230174,1,0
256,192,230429,1,0
356,216,230683,2,0,B|336:256|296:276,1,84.0000020027161
200,296,231192,2,0,B|220:336|260:356,1,84.0000020027161
256,192,231701,12,4,233736
240,76,235008,69,0
140,68,235263,1,0
128,168,235517,1,0
328,264,236026,5,0
256,192,236281,1,0
184,120,236535,1,0
376,64,237044,37,0
456,128,237298,1,0
440,228,237553,1,0
256,308,238062,21,0
160,280,238316,1,0
108,192,238570,1,0
308,192,239079,69,0
220,144,239334,1,0
144,80,239588,1,0
128,280,240097,53,0
208,216,240351,1,0
296,164,240606,1,0
468,268,241115,85,0
380,220,241369,1,0
280,236,241624,1,0
84,192,242133,69,0
160,124,242387,1,0
256,88,242641,1,0
424,196,243150,1,0
348,264,243405,1,0
256,308,243659,1,0
156,292,243914,2,0,B|88:240|84:188,1,126.000003004074,0|0
200,108,244677,1,0
256,192,244931,12,4,249002
