osu file format v12

[General]
AudioFilename: Apple's To The Core (High Quality).mp3
AudioLeadIn: 0
PreviewTime: 14450
Countdown: 0
SampleSet: Normal
StackLeniency: 0.7
Mode: 0
LetterboxInBreaks: 1
WidescreenStoryboard: 1

[Editor]
Bookmarks: 5573,62092
DistanceSpacing: 1.2
BeatDivisor: 4
GridSize: 4

[Metadata]
Title:Apples to the core
TitleUnicode:Apples to the core
Artist:Daniel Ingram
ArtistUnicode:Daniel Ingram
Creator:CandyWind
Version:Hard
Source:My little pony Friendship is Magic
Tags:TaikoAce Mikoniance Applejack Ashleigh Ball Apple Bloom Michelle Creber Big McIntosh Peter New Granny Smith Tabita St. Germain Pinkie Pie Shannon Chan-Kent
BeatmapID:374057
BeatmapSetID:144312

[Difficulty]
HPDrainRate:6
CircleSize:3
OverallDifficulty:4
ApproachRate:7
SliderMultiplier:1.6
SliderTickRate:2

[Events]
//Background and Video events
0,0,"apples_to_the_core_by_dairry-d6g1ai1 (1).png",0,0
//Break Periods
2,77792,93698
//Storyboard Layer 0 (Background)
//Storyboard Layer 1 (Fail)
//Storyboard Layer 2 (Pass)
//Storyboard Layer 3 (Foreground)
//Storyboard Sound Samples
//Background Colour Transformations
3,100,163,162,255

[TimingPoints]
5573,500.083347224537,4,1,1,100,1,0

[HitObjects]
56,180,14571,2,0,P|120:260|192:236,2,160,0|0|0,0:0|0:0|0:0,0:0:0:0:
136,184,15822,1,0,0:0:0:0:
212,192,16072,2,0,P|186:121|100:120,2,160,0|0|0,0:0|0:0|0:0,0:0:0:0:
148,240,17322,1,0,0:0:0:0:
72,216,17572,2,0,P|148:164|228:216,1,160,0|0,0:0|0:0,0:0:0:0:
496,200,18572,2,0,B|416:176|320:200|328:200,1,160,0|0,0:0|0:0,0:0:0:0:
300,288,19323,1,0,0:0:0:0:
236,220,19573,1,0,0:0:0:0:
260,128,19823,1,0,0:0:0:0:
260,128,20073,2,0,P|192:128|192:332,1,320,0|0,0:0|0:0,0:0:0:0:
320,328,21323,5,0,0:0:0:0:
384,276,21573,1,0,0:0:0:0:
48,60,22074,2,0,B|44:152|128:200|136:192,1,160,0|0,0:0|3:3,0:0:0:0:
196,224,22824,1,0,0:0:0:0:
464,60,23074,6,0,B|468:152|384:200|376:192,1,160,0|0,0:0|3:3,0:0:0:0:
316,224,23824,1,0,0:0:0:0:
260,284,24074,1,0,0:0:0:0:
240,208,24324,1,0,0:0:0:0:
320,224,24574,1,0,0:0:0:0:
260,284,24825,1,0,0:0:0:0:
240,208,25075,1,0,0:0:0:0:
64,312,25325,5,0,0:0:0:0:
76,232,25575,2,0,P|128:144|148:168,3,160,0|0|0|0,0:0|3:3|3:3|3:3,0:0:0:0:
204,144,27325,1,0,0:0:0:0:
248,124,27450,1,0,0:0:0:0:
292,140,27575,1,0,0:0:0:0:
388,288,27826,1,0,0:0:0:0:
348,312,27951,1,0,0:0:0:0:
300,320,28076,1,0,0:0:0:0:
172,320,28326,6,0,P|56:336|36:228,1,240,0|0,0:0|0:0,0:0:0:0:
48,160,29326,1,0,0:0:0:0:
80,88,29576,2,0,B|196:0|208:68|236:80,1,160,0|0,0:0|3:3,0:0:0:0:
380,84,30326,5,0,0:0:0:0:
404,160,30576,1,0,0:0:0:0:
344,228,30827,1,0,0:0:0:0:
260,176,31077,2,0,P|168:220|144:188,1,160,0|0,3:3|3:3,0:0:0:0:
380,84,31827,1,0,0:0:0:0:
404,160,32077,1,0,0:0:0:0:
344,228,32328,1,0,0:0:0:0:
88,308,32577,5,0,0:0:0:0:
92,228,32827,2,0,P|124:144|196:140,1,160,0|0,3:3|3:3,0:0:0:0:
168,208,33577,2,0,L|248:260,1,80,0|0,3:3|3:3,0:0:0:0:
324,284,34078,1,0,0:0:0:0:
400,228,34328,1,0,0:0:0:0:
352,152,34578,2,0,P|308:192|240:128,3,160,0|0|0|0,0:0|3:3|0:0|3:3,0:0:0:0:
296,280,36328,1,0,0:0:0:0:
204,296,36578,2,0,P|153:242|91:283,3,160,0|0|0|0,0:0|0:0|0:0|0:0,0:0:0:0:
28,232,38329,2,0,P|32:144|40:140,1,80,0|0,0:0|3:3,0:0:0:0:
80,116,38829,2,0,P|136:92|184:104,1,80,0|0,3:3|3:3,0:0:0:0:
304,116,39579,2,0,P|256:164|232:148,1,80,0|0,3:3|3:3,0:0:0:0:
180,184,40080,6,0,P|100:160|96:144,1,80,0|0,3:3|0:0,0:0:0:0:
64,108,40580,1,0,0:0:0:0:
64,268,41080,2,0,P|248:356|460:200,1,480,0|0,3:3|0:0,0:0:0:0:
256,192,42831,1,0,0:0:0:0:
56,172,43081,2,0,P|235:30|448:116,1,480,0|0,0:0|0:0,0:0:0:0:
200,244,45081,2,0,B|312:240|308:240,2,80,0|0|0,0:0|0:0|0:0,0:0:0:0:
80,68,46582,5,0,0:0:0:0:
76,148,46832,1,0,0:0:0:0:
92,228,47082,1,0,0:0:0:0:
244,280,47582,2,0,P|272:216|296:224,1,80,0|0,0:0|0:0,0:0:0:0:
308,152,48082,2,0,B|408:96|412:100|388:112,2,80,0|0|0,0:0|0:0|0:0,0:0:0:0:
172,236,49083,1,0,0:0:0:0:
116,292,49333,1,0,0:0:0:0:
56,344,49583,1,0,0:0:0:0:
204,280,50083,5,0,0:0:0:0:
124,232,50333,1,0,0:0:0:0:
48,184,50583,2,0,P|80:92|108:116,3,160,0|0|0|0,0:0|0:0|0:0|0:0,0:0:0:0:
168,112,52334,1,0,0:0:0:0:
228,164,52584,1,0,0:0:0:0:
288,112,52834,1,0,0:0:0:0:
360,76,53084,2,0,P|424:120|376:208,2,160,0|0|0,0:0|0:0|0:0,0:0:0:0:
204,104,54584,5,0,0:0:0:0:
128,132,54835,1,0,0:0:0:0:
176,196,55085,1,0,0:0:0:0:
320,260,55585,2,0,P|400:236|460:280,1,160,0|0,0:0|0:0,0:0:0:0:
424,120,56585,1,0,0:0:0:0:
360,72,56835,1,0,0:0:0:0:
316,136,57085,1,0,0:0:0:0:
156,144,57586,2,0,P|100:120|0:160,3,160,0|0|0|0,0:0|0:0|0:0|0:0,0:0:0:0:
60,300,59586,5,0,0:0:0:0:
140,304,59836,1,0,0:0:0:0:
216,276,60086,1,0,0:0:0:0:
284,236,60336,1,0,0:0:0:0:
356,200,60587,1,0,0:0:0:0:
256,192,60837,12,0,62087,0:0:0:0:
80,116,62587,5,0,0:0:0:0:
80,164,62712,1,0,0:0:0:0:
84,212,62837,1,0,0:0:0:0:
100,300,63087,1,0,0:0:0:0:
184,320,63337,2,0,B|264:292|248:300|260:264,1,80,0|0,0:0|0:0,0:0:0:0:
332,292,63838,1,0,0:0:0:0:
376,184,64088,5,0,0:0:0:0:
328,180,64213,1,0,0:0:0:0:
288,204,64338,1,0,0:0:0:0:
184,320,64588,2,0,B|264:292|248:300|260:264,1,80,0|0,0:0|0:0,0:0:0:0:
216,216,65088,1,0,0:0:0:0:
192,136,65588,2,0,P|264:88|332:116,3,160,0|0|0|0,0:0|0:0|0:0|0:0,0:0:0:0:
412,220,67589,2,0,P|340:296|144:252,2,320,0|0|0,0:0|0:0|0:0,0:0:0:0:
284,168,70090,1,0,0:0:0:0:
236,168,70215,1,0,0:0:0:0:
188,168,70340,1,0,0:0:0:0:
96,168,70590,6,0,P|0:136|-8:160,1,160,0|0,0:0|0:0,0:0:0:0:
64,300,71590,2,0,P|144:312|180:252,1,160,0|0,0:0|0:0,0:0:0:0:
268,116,72591,2,0,P|332:84|392:144,1,160,0|0,0:0|0:0,0:0:0:0:
368,296,73591,2,0,P|244:328|208:304,1,160,0|0,0:0|0:0,0:0:0:0:
304,208,74591,5,0,0:0:0:0:
288,164,74716,1,0,0:0:0:0:
256,128,74841,1,0,0:0:0:0:
224,92,74966,1,0,0:0:0:0:
176,80,75091,1,0,0:0:0:0:
92,124,75341,1,0,0:0:0:0:
92,124,75592,2,0,P|84:272|220:252,1,320,0|0,0:0|0:0,0:0:0:0:
356,140,77092,1,0,0:0:0:0:
348,300,77592,1,0,0:0:0:0:
256,192,94598,12,0,96599,0:0:0:0:
28,184,97099,5,0,0:0:0:0:
68,224,97224,1,0,0:0:0:0:
116,192,97349,1,0,0:0:0:0:
188,112,97599,1,0,0:0:0:0:
264,216,97849,1,0,0:0:0:0:
304,256,97974,1,0,0:0:0:0:
348,224,98099,1,0,0:0:0:0:
468,196,98349,1,0,0:0:0:0:
496,312,98599,1,0,0:0:0:0:
452,332,98724,5,0,0:0:0:0:
404,340,98849,1,0,0:0:0:0:
312,348,99099,2,0,P|168:336|152:312,2,160,0|0|0,0:0|0:0|0:0,0:0:0:0:
300,188,100600,1,0,0:0:0:0:
304,108,100850,1,0,0:0:0:0:
228,132,101100,1,0,0:0:0:0:
196,208,101350,1,0,0:0:0:0:
124,208,101600,2,0,P|192:272|268:240,1,160,0|0,0:0|0:0,0:0:0:0:
376,212,102601,2,0,P|327:271|251:262,1,160,0|0,0:0|0:0,0:0:0:0:
256,100,103601,5,0,0:0:0:0:
140,208,104101,5,0,0:0:0:0:
124,252,104226,1,0,0:0:0:0:
144,296,104351,1,0,0:0:0:0:
260,348,104601,1,0,0:0:0:0:
368,296,104840,5,0,0:0:0:0:
388,252,104965,1,0,0:0:0:0:
372,208,105090,1,0,0:0:0:0:
256,192,105351,5,0,0:0:0:0:
336,124,105602,1,0,0:0:0:0:
332,76,105727,1,0,0:0:0:0:
288,60,105852,1,0,0:0:0:0:
192,56,106102,2,0,P|104:52|28:68,2,160,0|0|0,0:0|0:0|0:0,0:0:0:0:
256,192,107602,1,0,0:0:0:0:
320,328,108090,2,0,P|399:332|478:317,2,160,0|0|0,0:0|0:0|3:3,0:0:0:0:
452,232,109603,1,0,0:0:0:0:
416,160,109853,1,0,0:0:0:0:
336,152,110103,1,0,0:0:0:0:
176,148,110603,6,0,P|76:216|212:324,1,320,0|0,0:0|0:0,0:0:0:0:
252,192,112091,2,0,B|236:232|236:232|220:236|220:236|240:240|240:240|224:244|224:244|244:248|244:248|232:256|236:272|248:260|244:272|240:324,1,160,0|0,3:3|0:0,0:0:0:0:
336,192,113104,1,0,0:0:0:0:
400,116,113604,2,0,P|496:124|488:100,1,160,0|0,0:0|0:0,0:0:0:0:
460,292,114605,1,0,0:0:0:0:
380,300,114855,1,0,0:0:0:0:
300,308,115105,1,0,0:0:0:0:
4,289,115605,2,0,P|53:231|124:256,3,160,0|0|0|0,0:0|0:0|0:0|0:0,0:0:0:0:
296,288,117355,5,0,0:0:0:0:
292,208,117606,2,0,P|216:184|192:260,2,160,0|0|0,0:0|0:0|0:0,0:0:0:0:
408,100,119106,1,0,0:0:0:0:
388,176,119356,1,0,0:0:0:0:
364,252,119606,1,0,0:0:0:0:
220,188,120106,6,0,P|176:144|84:172,2,160,0|0|0,0:0|0:0|0:0,0:0:0:0:
64,228,121607,1,0,0:0:0:0:
4,296,122107,2,0,B|96:328|160:264|144:260,1,160,0|0,0:0|0:0,0:0:0:0:
236,128,123107,2,0,P|304:152|304:240,2,160,0|0|0,0:0|0:0|0:0,0:0:0:0:
92,60,124608,6,0,P|96:200|128:224,1,160,0|0,0:0|0:0,0:0:0:0:
176,228,125358,1,0,0:0:0:0:
256,228,125608,1,0,0:0:0:0:
324,176,125858,1,0,0:0:0:0:
392,132,126108,2,0,P|488:184|412:292,1,240,0|0,0:0|0:0,0:0:0:0:
372,320,127109,1,0,0:0:0:0:
256,172,127609,1,0,0:0:0:0:
196,120,127859,1,0,0:0:0:0:
88,244,128109,1,0,0:0:0:0:
256,192,128609,12,0,131610,0:0:0:0:
