osu file format v12

[General]
AudioFilename: Monochrome.mp3
AudioLeadIn: 1000
PreviewTime: 56418
Countdown: 0
SampleSet: Soft
StackLeniency: 0.7
Mode: 0
LetterboxInBreaks: 0
WidescreenStoryboard: 0

[Editor]
DistanceSpacing: 1.2
BeatDivisor: 4
GridSize: 4
TimelineZoom: 1

[Metadata]
Title:monochrome (TV Size)
TitleUnicode:monochrome (TV Size)
Artist:Dancing Dolls
ArtistUnicode:Dancing Dolls
Creator:Umi
Version:Insane
Source:SOUL EATER NOT!
Tags:opening ソウルイーターノット! kz livetune Vicho
BeatmapID:401004
BeatmapSetID:164748

[Difficulty]
HPDrainRate:7
CircleSize:4
OverallDifficulty:7
ApproachRate:8
SliderMultiplier:1.8
SliderTickRate:1

[Events]
//Background and Video events
Video,0,"op.avi"
0,0,"souleaternot.jpg",0,0
//Break Periods
//Storyboard Layer 0 (Background)
//Storyboard Layer 1 (Fail)
//Storyboard Layer 2 (Pass)
//Storyboard Layer 3 (Foreground)
//Storyboard Sound Samples
//Background Colour Transformations
3,100,163,162,255

[TimingPoints]
560,454.132606721163,4,2,2,60,1,0
2376,-100,4,2,1,60,0,0
15092,-100,4,2,2,50,0,0
16908,-100,4,2,1,60,0,0
36890,-100,4,2,2,60,0,0
37798,-100,4,2,1,60,0,0
38025,-100,4,2,2,60,0,0
38253,-100,4,2,1,60,0,0
55055,-100,4,2,2,60,0,0
56872,-100,4,2,1,70,0,1
71291,-100,4,2,1,70,0,0
71404,-100,4,2,1,70,0,1
85709,-100,4,2,1,60,0,0
87753,-100,4,2,1,5,0,0

[Colours]
Combo1 : 255,128,0
Combo2 : 10,192,245
Combo3 : 232,209,49
Combo4 : 240,30,119

[HitObjects]
256,192,787,12,8,1922,0:0:0:0:
168,119,2376,6,0,P|211:111|255:119,1,90,4|0,0:1|0:0,0:0:0:0:
424,248,2830,2,0,P|380:256|336:248,1,90
288,234,3171,1,0,0:0:0:0:
288,234,3284,2,0,L|288:328,1,90,0|0,0:0|0:0,0:0:0:0:
357,169,3738,1,0,0:0:0:0:
200,72,3965,1,0,0:0:0:0:
81,209,4193,6,0,P|125:211|166:188,1,90,2|0,0:0|0:0,0:0:0:0:
371,214,4647,2,0,P|327:212|286:235,1,90,0|0,0:0|0:0,0:0:0:0:
225,310,5101,1,0,0:0:0:0:
297,117,5328,1,0,0:0:0:0:
164,190,5555,1,0,0:0:0:0:
295,302,5782,6,0,P|382:270|416:195,1,180,2|0,0:0|0:0,0:0:0:0:
418,95,6463,1,0,0:0:0:0:
487,293,6690,1,0,0:0:0:0:
302,187,6917,2,0,P|256:194|220:233,2,90,0|0|0,0:0|0:0|0:0,0:0:0:0:
302,286,7599,1,0,0:0:0:0:
117,230,7826,6,0,P|105:163|117:97,1,135,2|0,0:0|0:0,0:0:0:0:
116,97,8280,1,0,0:0:0:0:
404,74,8507,2,0,P|414:163|404:252,1,180,0|0,0:0|0:0,0:0:0:0:
212,234,9188,2,0,P|184:198|176:154,1,90
302,286,9642,6,0,P|273:322|226:336,1,90,4|0,0:0|0:0,0:0:0:0:
129,305,10096,1,0,1:0:0:0:
323,189,10323,1,0,0:0:0:0:
173,90,10550,2,0,P|145:109|121:171,1,90
160,250,11005,1,0,1:0:0:0:
339,90,11232,6,0,P|367:109|391:171,1,90,2|0,0:0|0:0,0:0:0:0:
352,250,11686,1,0,0:0:0:0:
162,139,11913,2,0,P|118:137|73:140,1,90,0|0,1:0|0:0,0:0:0:0:
262,251,12367,2,0,P|306:253|351:250,1,90
440,109,12821,1,0,1:0:0:0:
352,250,13048,1,0,0:0:0:0:
301,49,13275,6,0,P|264:51|218:86,1,90,2|0,0:0|0:0,0:0:0:0:
171,295,13729,1,0,1:0:0:0:
107,218,13956,2,0,P|192:198|262:251,1,180,2|0,0:0|0:0,0:0:0:0:
301,342,14638,1,0,1:0:0:0:
412,169,14865,1,0,0:0:0:0:
262,251,15092,5,8,0:0:0:0:
230,242,15205,1,8,0:0:0:0:
206,221,15319,1,8,0:0:0:0:
190,193,15432,1,0,0:0:0:0:
187,161,15546,1,0,0:0:0:0:
344,109,15773,2,0,P|311:153|267:165,1,90,8|8,0:3|0:0,0:0:0:0:
279,164,16114,1,8,0:0:0:0:
279,164,16227,1,8,0:0:0:0:
247,70,16454,1,12,0:0:0:0:
306,261,16681,1,0,0:0:0:0:
437,201,16908,6,0,P|452:159|447:115,1,90,14|0,0:0|0:0,0:0:0:0:
359,206,17249,2,0,P|379:254|415:274,1,90,2|0,0:0|0:0,0:0:0:0:
502,340,17589,2,0,P|418:312|334:340,1,180,2|0,0:0|0:0,0:0:0:0:
502,340,18271,1,8,1:2:0:0:
452,210,18498,1,2,0:0:0:0:
438,181,18611,1,2,0:0:0:0:
424,152,18725,6,0,L|310:126,1,90,10|0,0:0|0:0,0:0:0:0:
267,207,19065,2,0,L|354:227,1,90,2|0,0:0|0:0,0:0:0:0:
219,270,19406,2,0,P|187:210|254:129,1,180,2|0,0:0|0:0,0:0:0:0:
306,332,20087,1,8,1:2:0:0:
146,334,20314,1,2,0:0:0:0:
146,334,20428,1,2,0:0:0:0:
146,334,20541,6,0,P|114:285|114:234,1,90,10|0,0:0|0:0,0:0:0:0:
38,218,20882,2,0,P|43:164|74:123,1,90,2|0,0:0|0:0,0:0:0:0:
13,70,21223,2,0,P|57:30|183:15,1,180,2|0,0:0|0:0,0:0:0:0:
294,129,21904,2,0,P|249:136|205:128,1,90,8|2,1:2|0:0,0:0:0:0:
182,108,22244,1,2,0:0:0:0:
158,89,22358,6,0,P|115:91|69:129,1,90,10|0,0:0|0:0,0:0:0:0:
79,219,22698,2,0,P|115:244|159:246,1,90,2|0,0:0|0:0,0:0:0:0:
232,168,23039,2,0,L|142:168,1,90,2|8,0:0|0:0,0:0:0:0:
229,276,23493,1,2,0:0:0:0:
365,65,23720,1,12,1:2:0:0:
365,65,24174,6,0,P|382:129|405:147,1,90,12|0,0:0|0:0,0:0:0:0:
438,164,24515,1,0,0:0:0:0:
438,164,24629,2,0,L|412:264,1,90,8|0,1:2|0:0,0:0:0:0:
238,319,25083,1,8,0:0:0:0:
339,210,25310,1,0,0:0:0:0:
445,345,25537,2,0,L|339:345,1,90,0|0,1:2|0:0,0:0:0:0:
203,192,25991,5,8,0:0:0:0:
119,301,26218,1,0,0:0:0:0:
119,301,26332,1,0,0:0:0:0:
119,301,26445,2,0,P|97:261|97:217,1,90,8|0,1:2|0:0,0:0:0:0:
225,108,26899,2,0,P|224:152|203:191,1,90,8|0,0:0|0:0,0:0:0:0:
97,217,27353,1,8,1:2:0:0:
258,296,27580,1,0,0:0:0:0:
347,87,27807,6,0,P|282:75|225:108,1,135,8|0,0:0|0:0,0:0:0:0:
298,168,28262,1,8,1:2:0:0:
155,41,28489,1,0,0:0:0:0:
220,205,28716,2,0,P|263:197|298:169,1,90,8|0,0:0|0:0,0:0:0:0:
483,254,29170,2,0,P|439:261|404:289,1,90,8|0,1:2|0:0,0:0:0:0:
481,351,29624,5,8,0:0:0:0:
512,167,29851,1,0,0:0:0:0:
497,139,29965,1,0,0:0:0:0:
481,111,30078,2,0,P|424:105|384:113,1,90,8|0,1:2|0:0,0:0:0:0:
218,189,30532,2,0,P|275:195|315:187,1,90,8|0,0:0|0:0,0:0:0:0:
392,110,30986,1,8,1:2:0:0:
427,271,31213,1,0,0:0:0:0:
431,302,31327,1,0,0:0:0:0:
436,333,31441,6,0,L|336:311,1,90,8|0,0:0|0:0,0:0:0:0:
167,264,31895,1,8,1:2:0:0:
317,207,32122,1,0,0:0:0:0:
210,352,32349,2,0,P|166:363|123:352,1,90,8|0,0:0|0:0,0:0:0:0:
60,165,32803,1,8,1:2:0:0:
166,206,33030,1,0,0:0:0:0:
287,44,33257,6,0,P|298:92|288:138,1,90,8|0,0:0|0:0,0:0:0:0:
278,179,33598,1,0,0:0:0:0:
278,179,33711,2,0,L|389:159,1,90,8|0,1:2|0:0,0:0:0:0:
460,196,34165,1,8,0:0:0:0:
328,280,34392,1,0,0:0:0:0:
372,72,34619,2,0,P|424:76|464:108,1,90,8|0,1:2|0:0,0:0:0:0:
278,179,35074,6,0,P|226:175|186:143,1,90,8|0,0:0|0:0,0:0:0:0:
123,73,35528,1,8,1:2:0:0:
177,248,35755,1,0,0:0:0:0:
383,176,35982,2,0,P|388:242|379:283,1,90,8|0,0:0|0:0,0:0:0:0:
350,358,36436,1,8,1:2:0:0:
471,223,36663,1,0,0:0:0:0:
290,246,36890,5,8,0:0:0:0:
262,229,37004,1,8,0:0:0:0:
235,212,37117,1,8,0:0:0:0:
207,197,37231,1,0,0:0:0:0:
179,182,37344,2,0,P|163:219|179:273,1,90,8|8,1:2|0:3,0:0:0:0:
332,104,37798,1,8,0:0:0:0:
290,246,38025,1,8,0:0:0:0:
123,112,38253,2,0,P|136:69|170:41,1,90,8|0,1:2|0:0,0:0:0:0:
293,168,38707,6,0,P|337:175|426:138,1,135,12|0,0:0|0:0,0:0:0:0:
419,143,39161,1,8,1:2:0:0:
491,254,39388,1,0,0:0:0:0:
293,168,39615,2,0,P|282:224|305:273,1,90,8|0,0:0|0:0,0:0:0:0:
448,338,40069,1,8,1:2:0:0:
349,338,40296,1,0,0:0:0:0:
491,254,40523,6,0,P|501:210|490:168,1,90,8|0,0:0|0:0,0:0:0:0:
388,90,40977,1,8,1:2:0:0:
216,225,41204,1,0,0:0:0:0:
216,225,41318,1,0,0:0:0:0:
216,225,41431,1,8,0:0:0:0:
264,111,41659,1,0,0:0:0:0:
352,204,41886,1,8,1:2:0:0:
264,32,42113,1,0,0:0:0:0:
148,168,42340,6,0,P|95:178|36:152,1,90,8|0,0:0|0:0,0:0:0:0:
23,151,42680,1,0,0:0:0:0:
23,151,42794,1,8,1:2:0:0:
75,264,43021,1,0,0:0:0:0:
105,66,43248,2,0,P|164:43|217:52,1,90,8|0,0:0|0:0,0:0:0:0:
371,79,43702,1,8,1:2:0:0:
240,206,43929,1,0,0:0:0:0:
288,37,44156,5,8,0:0:0:0:
168,129,44383,1,0,0:0:0:0:
366,202,44610,2,0,P|353:242|302:271,1,90,8|0,1:2|0:0,0:0:0:0:
117,201,45064,2,0,P|130:241|181:270,1,90,8|0,0:0|0:0,0:0:0:0:
314,268,45519,1,8,1:2:0:0:
201,191,45746,1,0,0:0:0:0:
87,365,45973,6,0,L|176:364,1,90,8|0,0:0|0:0,0:0:0:0:
208,365,46313,1,0,0:0:0:0:
239,365,46427,2,0,P|256:308|283:286,1,90,8|0,1:2|0:0,0:0:0:0:
494,351,46881,2,0,P|446:369|380:350,1,90,8|0,0:0|0:0,0:0:0:0:
343,155,47335,2,0,P|389:173|416:229,1,90,8|0,1:2|0:0,0:0:0:0:
408,364,47789,5,8,0:0:0:0:
508,214,48016,1,0,0:0:0:0:
299,266,48243,2,0,L|187:266,1,90,8|0,1:2|0:0,0:0:0:0:
177,266,48584,1,0,0:0:0:0:
145,266,48698,1,8,0:0:0:0:
270,157,48925,1,0,0:0:0:0:
385,343,49152,2,0,P|430:347|475:342,1,90,8|0,1:2|0:0,0:0:0:0:
300,234,49606,6,0,P|267:256|247:323,1,90,8|0,0:0|0:0,0:0:0:0:
248,350,49946,1,0,0:0:0:0:
248,350,50060,2,0,L|139:350,1,90,8|0,1:2|0:0,0:0:0:0:
364,165,50514,2,0,P|389:202|390:247,1,90,8|0,0:0|0:0,0:0:0:0:
362,341,50968,1,8,1:2:0:0:
289,273,51195,1,0,0:0:0:0:
344,81,51422,6,0,P|303:99|282:138,1,90,8|0,0:0|0:0,0:0:0:0:
122,209,51876,2,0,P|92:172|87:117,1,90,8|0,1:2|0:0,0:0:0:0:
241,267,52331,1,8,0:0:0:0:
241,298,52444,1,8,0:0:0:0:
241,329,52558,1,8,0:0:0:0:
373,246,52785,1,8,1:2:0:0:
216,83,53012,1,4,0:0:0:0:
256,192,53125,12,8,54374,0:0:0:0:
284,256,54601,5,8,0:0:0:0:
184,80,54828,1,8,0:0:0:0:
348,140,55055,6,0,L|307:158,3,45
260,178,55510,1,0,0:0:0:0:
416,228,55737,1,8,0:3:0:0:
312,78,55964,1,0,0:0:0:0:
310,118,56077,1,8,0:0:0:0:
307,158,56191,1,8,0:0:0:0:
405,317,56418,2,0,P|449:314|485:289,1,90,4|0,0:3|0:0,0:0:0:0:
291,253,56872,6,0,P|236:235|157:267,1,135,4|0,0:0|0:0,0:0:0:0:
155,344,57326,2,0,P|173:295|160:249,1,90,8|0,1:2|0:0,0:0:0:0:
107,70,57780,1,8,0:0:0:0:
220,153,58007,1,0,0:0:0:0:
76,196,58234,1,8,1:2:0:0:
220,49,58461,1,0,0:0:0:0:
219,255,58688,6,0,P|261:284|318:284,1,90,8|0,0:0|0:0,0:0:0:0:
119,168,59143,2,0,P|53:175|20:201,1,90,8|0,1:2|0:0,0:0:0:0:
23,234,59483,1,0,0:0:0:0:
54,274,59597,2,0,P|98:274|138:255,1,90,8|0,0:0|0:0,0:0:0:0:
256,116,60051,1,8,1:2:0:0:
195,321,60278,1,0,0:0:0:0:
119,168,60505,6,0,P|114:124|119:79,1,90,8|0,0:0|0:0,0:0:0:0:
393,78,60959,2,0,P|398:123|393:167,1,90,8|0,1:2|0:0,0:0:0:0:
247,25,61413,1,8,0:0:0:0:
201,184,61640,1,0,0:0:0:0:
393,78,61867,2,0,P|439:77|485:99,1,90,8|0,1:2|0:0,0:0:0:0:
293,276,62322,6,0,P|281:233|292:185,1,90,8|0,0:0|0:0,0:0:0:0:
307,144,62662,1,0,0:0:0:0:
307,144,62776,2,0,P|314:100|302:57,1,90,8|0,1:2|0:0,0:0:0:0:
201,184,63230,1,8,0:0:0:0:
389,209,63457,1,0,0:0:0:0:
299,376,63684,2,0,P|255:369|221:342,1,90,8|0,1:2|0:0,0:0:0:0:
100,215,64138,6,0,P|134:187|179:182,1,90,8|0,0:0|0:0,0:0:0:0:
314,231,64592,1,8,1:2:0:0:
354,120,64819,1,0,0:0:0:0:
383,332,65046,1,8,0:0:0:0:
205,268,65273,1,0,0:0:0:0:
430,217,65500,1,8,1:2:0:0:
228,150,65728,1,0,0:0:0:0:
277,342,65955,6,0,P|304:295|302:242,1,90,8|0,0:0|0:0,0:0:0:0:
209,66,66409,2,0,P|208:111|229:151,1,90,8|0,1:2|0:0,0:0:0:0:
344,224,66863,1,8,0:0:0:0:
302,83,67090,1,0,0:0:0:0:
205,268,67317,2,0,P|162:254|132:222,1,90,8|0,1:2|0:0,0:0:0:0:
372,148,67771,6,0,L|372:304,1,135,8|0,0:0|0:0,0:0:0:0:
372,283,68225,1,8,1:2:0:0:
474,92,68452,2,0,P|443:55|378:42,1,90,2|8,0:0|0:0,0:0:0:0:
181,193,68906,2,0,P|212:156|277:143,1,90,2|8,0:0|1:2,0:0:0:0:
441,334,69361,6,0,P|410:297|345:284,1,90,2|8,0:0|0:0,0:0:0:0:
272,286,69815,1,0,0:0:0:0:
437,180,70042,1,8,1:2:0:0:
424,151,70155,1,0,0:0:0:0:
411,121,70269,1,0,0:0:0:0:
397,92,70382,1,0,0:0:0:0:
383,63,70496,2,0,P|328:53|290:67,1,90,8|0,0:0|0:0,0:0:0:0:
183,218,70950,1,8,1:2:0:0:
84,174,71177,1,0,0:0:0:0:
151,322,71404,6,0,P|217:323|272:286,1,135,12|0,0:0|0:0,0:0:0:0:
272,286,71858,2,0,L|319:366,1,90,8|0,1:2|0:0,0:0:0:0:
183,218,72312,1,8,0:0:0:0:
277,185,72540,1,0,0:0:0:0:
73,336,72767,2,0,L|100:234,1,90,8|0,1:2|0:0,0:0:0:0:
300,98,73221,6,0,L|273:200,1,90,8|0,0:0|0:0,0:0:0:0:
170,338,73675,2,0,P|218:360|279:351,1,90,8|0,1:2|0:0,0:0:0:0:
412,231,74129,1,8,0:0:0:0:
442,334,74356,1,0,0:0:0:0:
341,302,74583,1,8,1:2:0:0:
468,149,74810,1,0,0:0:0:0:
259,242,75037,6,0,L|159:191,1,90,8|0,0:0|0:0,0:0:0:0:
133,180,75378,1,0,0:0:0:0:
133,180,75491,2,0,P|88:179|48:199,1,90,8|0,1:2|0:0,0:0:0:0:
231,98,75946,2,0,P|212:57|177:30,1,90,8|0,0:0|0:0,0:0:0:0:
333,180,76400,2,0,P|362:146|371:102,1,90,8|0,1:2|0:0,0:0:0:0:
301,32,76854,5,8,0:0:0:0:
227,213,77081,1,0,0:0:0:0:
214,241,77194,1,0,0:0:0:0:
202,270,77308,2,0,P|135:276|104:263,1,90,8|0,1:2|0:0,0:0:0:0:
268,118,77762,1,8,0:0:0:0:
347,291,77989,1,0,0:0:0:0:
416,220,78216,2,0,L|416:119,1,90,8|0,1:2|0:0,0:0:0:0:
498,334,78670,6,0,P|433:366|401:364,1,90,8|0,0:0|0:0,0:0:0:0:
166,302,79124,2,0,P|203:276|247:269,1,90,8|0,1:2|0:0,0:0:0:0:
347,291,79579,1,8,0:0:0:0:
241,380,79806,1,0,0:0:0:0:
177,110,80033,1,8,1:2:0:0:
118,232,80260,6,0,P|206:245|282:200,1,180,0|0,0:0|0:0,0:0:0:0:
118,232,80941,2,0,L|127:334,1,90,8|0,1:2|0:0,0:0:0:0:
282,201,81395,2,0,L|273:99,1,90,8|0,0:0|0:0,0:0:0:0:
258,13,81849,1,8,1:2:0:0:
376,207,82076,1,0,0:0:0:0:
182,81,82303,6,0,P|94:101|57:188,1,180,8|8,0:0|1:2,0:0:0:0:
297,263,82985,2,0,B|339:245|391:262|391:262|438:276|472:258,1,180,0|0,0:0|0:0,0:0:0:0:
432,168,83666,1,8,1:2:0:0:
341,353,83893,6,0,B|299:371|247:354|247:354|200:340|165:357,1,180,4|0,0:0|0:0,0:0:0:0:
127,128,84574,1,0,0:0:0:0:
245,170,84801,1,0,0:0:0:0:
148,252,85028,1,8,0:0:0:0:
214,56,85255,5,8,0:0:0:0:
36,199,85482,1,8,1:2:0:0:
250,284,85709,1,4,0:0:0:0:
256,192,85823,12,0,87753,0:0:0:0:
