osu file format v12

[General]
AudioFilename: Dancing Dolls - monochrome (TV Size).mp3
AudioLeadIn: 0
PreviewTime: 56364
Countdown: 0
SampleSet: Soft
StackLeniency: 0.7
Mode: 0
LetterboxInBreaks: 0
WidescreenStoryboard: 0

[Editor]
Bookmarks: 2330,16875,24148,38693,56875,71421,85739
DistanceSpacing: 1.2
BeatDivisor: 2
GridSize: 8
TimelineZoom: 1

[Metadata]
Title:monochrome (TV Size)
TitleUnicode:monochrome (TV Size)
Artist:Dancing Dolls
ArtistUnicode:Dancing Dolls
Creator:Dangaard
Version:Hard
Source:Soul Eater Not!
Tags:kz livetune ソウルイーターノット!
BeatmapID:416643
BeatmapSetID:172382

[Difficulty]
HPDrainRate:6
CircleSize:4
OverallDifficulty:7
ApproachRate:8
SliderMultiplier:1.4
SliderTickRate:2

[Events]
//Background and Video events
0,0,"soul eater not.jpg",0,0
Video,0,"soul eater not.avi"
//Break Periods
2,18893,24080
//Storyboard Layer 0 (Background)
//Storyboard Layer 1 (Fail)
//Storyboard Layer 2 (Pass)
//Storyboard Layer 3 (Foreground)
//Storyboard Sound Samples
//Background Colour Transformations
3,100,163,162,255

[TimingPoints]
512,454.545454545455,4,1,0,40,1,0
512,-133.333333333333,4,1,0,40,0,0
2330,-133.333333333333,4,2,0,60,0,0
13921,-133.333333333333,4,1,0,50,0,0
16989,-133.333333333333,4,1,0,40,0,0
24148,-100,4,1,0,55,0,0
38693,-100,4,1,0,60,0,0
53125,-100,4,2,0,30,0,0
54375,-100,4,1,0,45,0,0
54602,-100,4,1,0,50,0,0
54830,-100,4,1,0,55,0,0
55057,-100,4,1,0,60,0,0
55966,-100,4,1,0,65,0,0
56875,-80,4,1,0,70,0,1
85739,-80,4,1,0,70,0,0
85852,-80,4,2,0,30,0,0

[Colours]
Combo1 : 231,199,88
Combo2 : 222,75,141
Combo3 : 236,114,40
Combo4 : 61,49,46

[HitObjects]
256,272,1876,5,0,0:0:0:0:
256,272,2330,2,0,L|168:216,1,105.000004005432,6|0,0:0|0:0,0:0:0:0:
232,104,3125,1,0,0:0:0:0:
232,104,3239,1,0,0:2:0:0:
312,80,3466,1,0,0:0:0:0:
368,144,3693,2,0,L|344:192,1,52.5000020027161,0|0,0:0|0:0,0:0:0:0:
376,320,4148,2,0,L|424:224,1,105.000004005432,2|0,0:2|0:0,0:0:0:0:
376,320,5057,5,0,0:0:0:0:
296,288,5284,1,0,0:0:0:0:
216,320,5512,1,0,0:0:0:0:
136,352,5739,2,0,P|98:317|88:264,1,105.000004005432,2|0,0:2|0:0,0:0:0:0:
88,136,6421,2,0,L|112:184,1,52.5000020027161,0|0,0:0|0:0,0:0:0:0:
224,240,6875,2,0,L|200:192,2,52.5000020027161,0|0|0,0:0|0:0|0:0,0:0:0:0:
344,240,7557,2,0,P|400:190|400:112,1,157.500006008148,2|0,0:2|0:0,0:0:0:0:
328,56,8466,6,0,P|306:111|320:152,1,105.000004005432,0|0,0:0|0:0,0:0:0:0:
400,112,9148,1,0,0:0:0:0:
144,40,9602,1,6,0:2:0:0:
104,304,10057,2,0,L|128:256,1,52.5000020027161,0|0,1:0|0:0,0:0:0:0:
96,128,10512,2,0,L|48:224,1,105.000004005432,0|0,0:0|1:0,0:0:0:0:
192,192,11193,2,0,P|214:141|200:96,1,105.000004005432,2|0,0:2|0:0,0:0:0:0:
296,192,11875,2,0,L|344:216,1,52.5000020027161,0|0,1:0|0:0,0:0:0:0:
472,184,12330,2,0,L|376:136,1,105.000004005432,0|0,0:0|1:0,0:0:0:0:
304,24,13012,5,0,0:0:0:0:
304,24,13239,2,0,P|361:29|392:64,1,105.000004005432,2|0,0:2|1:0,0:0:0:0:
360,224,13921,2,2,P|257:292|152:224,1,262.500010013581,2|0,0:0|0:0,0:0:0:0:
156,220,15171,5,0,0:0:0:0:
160,216,15284,1,0,0:0:0:0:
164,212,15398,1,0,0:0:0:0:
168,208,15512,2,0,L|208:160,1,52.5000020027161,0|8,0:0|0:3,0:0:0:0:
96,288,15966,1,0,0:0:0:0:
96,288,16080,1,0,0:0:0:0:
96,288,16193,1,0,0:0:0:0:
152,352,16421,1,8,0:3:0:0:
40,224,16648,1,0,0:0:0:0:
152,352,16875,1,4,0:0:0:0:
256,192,16989,12,0,18693,0:0:0:0:
264,136,24830,5,0,0:0:0:0:
288,56,25057,2,0,P|320:40|360:40,1,70,0|0,0:0|0:0,0:0:0:0:
496,168,25512,1,0,0:0:0:0:
496,168,25739,2,0,P|440:208|368:208,1,140,2|0,0:2|0:0,0:0:0:0:
264,136,26421,6,0,L|232:200,1,70,0|0,0:0|0:0,0:0:0:0:
232,344,26875,2,0,L|264:280,1,70,0|0,0:0|0:0,0:0:0:0:
88,208,27330,1,0,0:0:0:0:
88,208,27557,2,0,P|104:288|160:328,1,140,2|0,0:2|0:0,0:0:0:0:
88,208,28239,6,0,P|64:176|32:160,1,70,0|0,0:0|0:0,0:0:0:0:
176,232,28693,1,0,0:0:0:0:
240,176,28921,1,0,0:0:0:0:
216,96,29148,1,0,0:0:0:0:
176,232,29375,2,0,P|216:288|288:312,1,140,2|0,0:2|0:0,0:0:0:0:
456,224,30057,6,0,L|384:240,1,70,0|0,0:0|0:0,0:0:0:0:
176,232,30512,2,2,L|320:200,1,140,0|0,0:2|0:0,0:0:0:0:
464,56,31193,2,2,P|397:76|360:136,1,140,0|0,0:0|0:0,0:0:0:0:
500,200,31875,2,2,P|476:168|444:144,1,70,0|0,0:0|0:0,0:0:0:0:
272,208,32330,5,0,0:0:0:0:
336,264,32557,1,0,0:0:0:0:
416,232,32784,1,0,0:0:0:0:
280,80,33012,2,2,P|221:44|152:48,1,140,0|0,0:0|0:0,0:0:0:0:
112,240,33693,2,2,P|176:209|192:144,1,140,0|0,0:0|0:0,0:0:0:0:
256,280,34375,6,2,P|240:320|232:360,1,70,0|0,0:0|0:0,0:0:0:0:
304,168,34830,2,2,P|392:128|456:208,1,210,2|0,0:0|0:0,0:0:0:0:
200,200,35739,2,2,P|133:183|80:136,1,140,2|0,0:0|0:0,0:0:0:0:
248,40,36421,1,0,0:0:0:0:
248,40,36648,1,0,0:0:0:0:
312,200,36875,5,0,0:0:0:0:
312,200,36989,1,0,0:0:0:0:
312,200,37102,1,0,0:0:0:0:
312,200,37216,1,2,0:3:0:0:
312,200,37330,2,0,L|344:264,1,70,0|0,0:0|0:0,0:0:0:0:
288,336,37671,1,0,0:0:0:0:
288,336,37784,2,0,L|256:272,1,70,2|8,0:3|0:3,0:0:0:0:
408,120,38239,1,8,0:3:0:0:
472,232,38466,1,0,0:0:0:0:
408,120,38693,6,0,L|272:88,1,140,4|2,0:0|0:2,0:0:0:0:
48,96,39375,1,0,0:0:0:0:
48,96,39602,2,0,L|184:128,1,140,0|2,0:0|0:2,0:0:0:0:
384,224,40284,1,0,0:0:0:0:
384,224,40511,2,0,L|248:192,1,140,0|2,0:0|0:2,0:0:0:0:
64,176,41193,5,0,0:0:0:0:
88,328,41421,1,0,0:0:0:0:
64,176,41648,1,2,0:2:0:0:
88,328,41875,2,0,P|128:320|160:272,1,70,2|0,0:2|0:0,0:0:0:0:
208,80,42330,2,2,P|175:141|184:208,1,140,0|2,0:0|0:2,0:0:0:0:
280,296,43012,1,0,0:0:0:0:
280,296,43239,2,2,P|313:235|304:168,1,140,0|2,0:0|0:2,0:0:0:0:
344,360,43921,2,2,P|412:375|480:360,2,140,0|0|0,0:0|0:0|0:0,0:0:0:0:
280,296,45057,1,0,0:0:0:0:
400,192,45284,5,2,0:2:0:0:
400,192,45512,2,0,L|376:264,1,70,2|0,0:2|0:0,0:0:0:0:
368,64,45966,2,2,P|438:62|496:96,1,140,0|2,0:0|0:2,0:0:0:0:
120,344,46875,2,2,P|64:288|64:208,1,140,0|2,0:0|0:2,0:0:0:0:
192,136,47557,2,2,P|208:203|160:248,1,140,0|0,0:0|0:0,0:0:0:0:
328,248,48239,1,2,0:2:0:0:
328,248,48466,2,2,P|397:268|448:312,1,140,0|2,0:0|0:2,0:0:0:0:
400,384,49148,1,2,0:2:0:0:
328,248,49375,5,0,0:0:0:0:
328,248,49602,2,2,L|368:112,1,140,2|2,0:0|0:2,0:0:0:0:
400,288,50284,2,2,P|304:328|248:256,1,210,2|2,0:0|0:2,0:0:0:0:
112,96,51193,2,2,P|208:56|264:128,1,210,2|2,0:0|0:2,0:0:0:0:
176,296,52102,1,0,0:0:0:0:
88,272,52330,1,0,0:0:0:0:
88,272,52443,1,0,0:0:0:0:
88,272,52557,1,2,0:2:0:0:
40,152,52784,1,2,0:2:0:0:
176,296,53012,1,4,0:2:0:0:
256,192,53125,12,0,54375,0:0:0:0:
256,64,54602,5,0,0:0:0:0:
256,64,54830,1,0,0:0:0:0:
368,136,55057,1,0,0:0:0:0:
368,136,55171,1,0,0:0:0:0:
368,136,55284,1,0,0:0:0:0:
368,136,55398,1,2,0:3:0:0:
368,136,55512,2,0,L|336:200,1,70,0|8,0:0|0:3,0:0:0:0:
416,304,55966,1,0,0:0:0:0:
416,304,56080,1,0,0:0:0:0:
416,304,56193,1,2,0:3:0:0:
496,160,56421,2,0,L|464:224,1,70,8|0,0:3|0:0,0:0:0:0:
496,160,56875,6,2,P|464:80|392:32,1,175,4|2,0:1|0:2,0:0:0:0:
104,264,57784,2,2,P|131:301|168:320,1,87.5,0|0,0:0|0:0,0:0:0:0:
104,264,58239,1,2,0:2:0:0:
56,352,58466,1,0,0:0:0:0:
192,224,58693,2,2,P|197:139|144:72,1,175,0|2,0:0|0:2,0:0:0:0:
192,224,59602,6,2,L|264:272,1,87.5,0|2,0:0|0:2,0:0:0:0:
176,328,60057,1,2,0:2:0:0:
280,168,60284,2,2,P|355:128|440:144,1,175,0|0,0:0|0:0,0:0:0:0:
192,136,60966,2,0,P|160:104|144:64,1,87.5,2|0,0:2|0:0,0:0:0:0:
280,168,61421,1,0,0:0:0:0:
248,48,61648,1,0,0:0:0:0:
280,168,61875,1,2,0:2:0:0:
248,48,62102,2,2,P|339:61|392:120,1,175,0|0,0:0|0:0,0:0:0:0:
136,352,63012,5,0,0:0:0:0:
48,248,63239,1,0,0:0:0:0:
136,352,63466,1,2,0:2:0:0:
48,248,63693,1,2,0:2:0:0:
464,136,64148,6,2,L|296:184,1,175,0|2,0:0|0:2,0:0:0:0:
208,48,64830,2,0,P|245:67|272:104,1,87.5,0|0,0:0|0:0,0:0:0:0:
200,280,65284,1,0,0:0:0:0:
176,152,65512,1,2,0:2:0:0:
200,280,65739,2,2,P|266:334|352:328,1,175,0|0,0:0|0:0,0:0:0:0:
176,152,66421,2,0,P|139:128|96:128,1,87.5,2|0,0:2|0:0,0:0:0:0:
24,280,66875,1,0,0:0:0:0:
344,48,67557,5,0,0:0:0:0:
480,160,67784,2,2,P|471:246|408:304,1,175,0|2,0:0|0:2,0:0:0:0:
224,144,68466,2,2,P|310:139|376:192,1,175,0|0,0:0|0:0,0:0:0:0:
264,280,69148,1,2,0:2:0:0:
96,256,69375,2,2,P|44:188|56:104,2,175,0|0|0,0:0|0:0|0:0,0:0:0:0:
184,88,70512,5,0,0:0:0:0:
184,88,70625,1,0,0:0:0:0:
184,88,70739,2,0,L|136:160,1,87.5,2|2,0:2|0:2,0:0:0:0:
176,296,71193,1,8,0:3:0:0:
392,224,71421,6,2,P|317:179|232:184,2,175,4|2|0,0:0|0:2|0:0,0:0:0:0:
288,296,72557,1,0,0:0:0:0:
352,104,72784,2,2,P|383:73|424:64,1,87.5,2|0,0:2|0:0,0:0:0:0:
288,296,73239,2,2,P|201:300|128:255,2,175,0|2|0,0:0|0:2|0:0,0:0:0:0:
392,224,74375,1,2,0:2:0:0:
352,104,74602,1,2,0:2:0:0:
168,32,74830,6,2,L|224:200,1,175,0|0,0:0|0:0,0:0:0:0:
40,184,75512,2,0,P|72:152|112:136,1,87.5,2|0,0:2|0:0,0:0:0:0:
392,152,75966,2,2,P|360:184|320:200,1,87.5,0|0,0:0|0:0,0:0:0:0:
264,32,76421,1,2,0:2:0:0:
392,152,76648,2,2,L|448:320,2,175,0|0|0,0:0|0:0|0:0,0:0:0:0:
248,208,77784,5,0,0:0:0:0:
392,152,78011,1,2,0:2:0:0:
248,208,78238,1,2,0:2:0:0:
40,48,78693,6,2,P|125:37|192:88,1,175,0|2,0:0|0:2,0:0:0:0:
248,208,79375,1,0,0:0:0:0:
120,320,79602,2,2,P|76:243|88:160,1,175,0|2,0:0|0:2,0:0:0:0:
376,96,80284,2,2,P|420:173|408:256,1,175,0|0,0:0|0:0,0:0:0:0:
176,160,80966,2,2,L|248:208,1,87.5,2|0,0:2|0:0,0:0:0:0:
248,208,81421,1,0,0:0:0:0:
16,312,82102,5,0,0:0:0:0:
16,312,82330,2,2,P|86:362|168:344,1,175,0|2,0:0|0:2,0:0:0:0:
256,136,83012,2,2,P|176:70|176:176,1,262.5,0|2,0:0|0:2,0:0:0:0:
384,264,83921,2,2,P|436:198|419:115,1,175,0|0,0:0|0:0,0:0:0:0:
192,72,84602,6,0,L|144:144,1,87.5,2|0,0:2|0:0,0:0:0:0:
208,360,85057,1,0,0:0:0:0:
208,360,85171,1,0,0:0:0:0:
208,360,85284,2,0,L|256:288,1,87.5,0|8,0:0|0:3,0:0:0:0:
192,72,85739,1,4,0:0:0:0:
256,192,85852,12,0,87784,0:0:0:0:
