osu file format v13

[General]
AudioFilename: monochrome (TV Size).mp3
AudioLeadIn: 0
PreviewTime: 56307
Countdown: 0
SampleSet: Soft
StackLeniency: 0.7
Mode: 0
LetterboxInBreaks: 0
WidescreenStoryboard: 0

[Editor]
DistanceSpacing: 1
BeatDivisor: 4
GridSize: 4
TimelineZoom: 1

[Metadata]
Title:monochrome (Anime Ver.)
TitleUnicode:monochrome (Anime Ver.)
Artist:Dancing Dolls
ArtistUnicode:Dancing Dolls
Creator:Kenezz
Version:Hard
Source:Soul Eater Not!
Tags:opening gero no_gu kz livetune
BeatmapID:401147
BeatmapSetID:164827

[Difficulty]
HPDrainRate:6
CircleSize:4
OverallDifficulty:6
ApproachRate:7
SliderMultiplier:1.8
SliderTickRate:1

[Events]
//Background and Video events
Video,0,"Opening.avi"
0,0,"BG.jpg",0,0
//Break Periods
//Storyboard Layer 0 (Background)
//Storyboard Layer 1 (Fail)
//Storyboard Layer 2 (Pass)
//Storyboard Layer 3 (Foreground)
//Storyboard Sound Samples
//Background Colour Transformations
3,100,163,162,255

[TimingPoints]
2380,454.545454545455,4,2,1,50,1,0
15107,-100,4,1,1,50,0,0
16698,-100,4,2,1,60,0,0
36925,-100,4,1,1,50,0,0
38516,-100,4,2,1,60,0,0
54993,-100,4,1,1,50,0,0
56925,-100,4,2,1,80,0,1
71357,-100,4,2,1,80,0,0
71470,-100,4,2,1,80,0,1
85789,-100,4,2,1,80,0,0
85902,-100,4,2,1,30,0,0

[Colours]
Combo1 : 254,202,82
Combo2 : 255,74,111
Combo3 : 51,142,255

[HitObjects]
256,192,561,12,4,1925,1:0:0:0:
176,340,2380,6,0,P|256:376|336:340,1,180,12|0,0:0|0:0,0:0:0:0:
304,256,3061,1,0,0:0:0:0:
304,256,3175,1,0,0:0:0:0:
304,256,3289,2,0,L|328:168,1,90,0|0,0:0|0:0,0:0:0:0:
208,256,3743,2,0,L|184:168,1,90,0|0,0:0|0:0,0:0:0:0:
56,38,4198,6,0,L|104:212,1,180,2|0,0:0|0:0,0:0:0:0:
96,300,4880,1,2,0:0:0:0:
181,329,5107,2,0,P|219:350|263:338,1,90,0|0,0:0|0:0,0:0:0:0:
397,274,5561,2,0,P|359:253|316:265,1,90,0|0,0:0|0:0,0:0:0:0:
455,345,6016,6,0,L|408:172,1,180,2|0,0:0|0:0,0:0:0:0:
420,84,6698,1,2,0:0:0:0:
330,54,6925,2,0,P|292:33|248:45,1,90,0|0,0:0|0:0,0:0:0:0:
114,109,7380,2,0,P|152:130|195:118,1,90,0|0,0:0|0:0,0:0:0:0:
332,208,7834,6,0,B|280:208|256:168|256:168|232:208|180:208,1,180,2|0,0:0|0:0,0:0:0:0:
164,296,8516,2,0,P|196:328|208:372,1,90,2|0,0:0|0:0,0:0:0:0:
304,370,8970,2,0,P|316:327|348:296,1,90,2|0,0:0|0:0,0:0:0:0:
416,240,9425,1,0,0:0:0:0:
336,124,9652,6,0,P|256:160|176:124,1,180,4|8,0:0|0:0,0:0:0:0:
104,72,10334,1,0,0:0:0:0:
176,16,10561,2,0,B|228:20|256:52|256:52|284:20|336:16,1,180,2|8,0:0|0:0,0:0:0:0:
336,196,11243,6,0,B|284:192|256:160|256:160|228:192|176:196,1,180,2|0,0:0|0:0,0:0:0:0:
96,236,11925,1,8,0:0:0:0:
88,324,12152,1,0,0:0:0:0:
176,344,12380,2,0,P|256:308|336:344,1,180,2|8,0:0|0:0,0:0:0:0:
424,324,13061,1,0,0:0:0:0:
364,256,13289,6,0,P|316:184|328:96,1,180,2|0,0:0|0:0,0:0:0:0:
148,128,13970,2,0,P|196:200|184:288,1,180,2|0,0:0|0:0,0:0:0:0:
120,352,14652,1,0,0:0:0:0:
60,284,14880,1,0,0:0:0:0:
124,220,15107,6,0,L|228:132,1,135,0|0,0:0|0:0,0:0:0:0:
276,120,15561,1,0,0:0:0:0:
388,164,15789,2,0,L|284:252,1,135,8|8,0:0|2:0,0:0:0:0:
236,264,16243,1,8,2:0:0:0:
160,312,16470,1,8,1:0:0:0:
160,312,16698,1,0,2:0:0:0:
60,220,16925,6,0,P|18:168|24:104,1,135,12|2,0:0|0:0,0:0:0:0:
52,68,17380,1,8,0:0:0:0:
108,144,17607,2,0,P|192:140|272:92,1,180,2|0,0:0|0:0,0:0:0:0:
356,60,18289,1,8,0:0:0:0:
452,164,18516,5,2,0:0:0:0:
452,164,18630,1,0,0:0:0:0:
452,164,18743,2,0,P|494:216|488:280,1,135,10|2,0:0|0:0,0:0:0:0:
460,316,19198,1,8,0:0:0:0:
404,240,19425,2,0,P|320:244|240:292,1,180,2|0,0:0|0:0,0:0:0:0:
152,264,20107,1,8,0:0:0:0:
196,144,20334,5,2,0:0:0:0:
196,144,20448,1,0,0:0:0:0:
196,144,20561,2,0,P|256:116|316:144,1,135,10|2,0:0|0:0,0:0:0:0:
360,156,21016,1,8,0:0:0:0:
340,64,21243,2,0,P|256:36|172:64,1,180,2|0,0:0|0:0,0:0:0:0:
112,136,21925,1,8,0:0:0:0:
196,240,22152,5,2,0:0:0:0:
196,240,22266,1,0,0:0:0:0:
196,240,22380,2,0,P|256:268|316:240,2,135,10|2|2,0:0|0:0|0:0,0:0:0:0:
124,184,23289,1,8,0:0:0:0:
96,268,23516,1,0,0:0:0:0:
172,320,23743,2,0,P|256:348|340:320,1,180,10|4,0:0|0:0,0:0:0:0:
444,44,24652,5,8,0:0:0:0:
372,96,24880,2,0,P|328:112|284:104,1,90
145,38,25334,2,0,P|187:20|231:27,1,90,0|8,0:0|0:0,0:0:0:0:
200,112,25789,1,0,0:0:0:0:
192,276,26016,6,8,B|147:296|129:338|129:338|93:310|45:315,1,180,10|8,0:0|0:0,0:0:0:0:
8,236,26698,1,0,0:0:0:0:
92,200,26925,2,0,P|120:172|168:164,1,90,8|0,0:0|0:0,0:0:0:0:
343,219,27380,2,0,P|299:227|260:208,1,90,8|0,0:0|0:0,0:0:0:0:
320,108,27834,6,8,B|364:87|382:45|382:45|418:73|466:68,1,180,10|8,0:0|0:0,0:0:0:0:
504,148,28516,1,0,0:0:0:0:
420,184,28743,2,0,P|392:212|344:220,1,90,8|0,0:0|0:0,0:0:0:0:
168,164,29198,2,0,P|212:156|252:176,1,90,8|0,0:0|0:0,0:0:0:0:
335,324,29652,6,0,P|255:359|176:324,1,180,10|8,0:0|0:0,0:0:0:0:
256,272,30334,1,0,0:0:0:0:
176,215,30561,2,0,P|256:180|336:216,1,180,8|8,0:0|0:0,0:0:0:0:
416,260,31243,1,0,0:0:0:0:
488,120,31470,6,0,B|400:144|400:144|372:112|324:96,1,180,10|8,0:0|0:0,0:0:0:0:
236,96,32152,1,0,0:0:0:0:
156,52,32380,2,0,P|112:40|72:56,2,90,8|0|8,0:0|0:0|0:0,0:0:0:0:
120,136,33061,1,0,0:0:0:0:
24,264,33289,6,0,B|112:240|112:240|140:272|188:288,1,180,10|8,0:0|0:0,0:0:0:0:
276,288,33970,1,0,0:0:0:0:
356,332,34198,2,0,P|400:344|440:328,2,90,10|0|8,0:0|0:0|0:0,0:0:0:0:
392,248,34880,1,0,0:0:0:0:
344,136,35107,6,0,L|160:124,1,180,10|8,0:0|0:0,0:0:0:0:
164,36,35789,2,0,L|344:47,1,180,2|0,0:0|0:0,0:0:0:0:
428,72,36470,1,8,0:0:0:0:
480,144,36698,1,0,0:0:0:0:
484,232,36925,6,0,L|476:332,1,90,0|0,1:0|1:0,0:0:0:0:
432,312,37266,2,0,L|427:362,1,45,0|2,1:0|3:0,0:0:0:0:
332,376,37607,1,8,3:0:0:0:
328,288,37834,2,0,L|336:188,1,90,8|0,0:0|1:0,0:0:0:0:
380,208,38175,2,0,L|384:157,1,45,0|8,0:0|0:0,0:0:0:0:
392,72,38516,1,0,0:0:0:0:
256,40,38743,6,0,P|216:104|256:192,1,180,4|8,0:0|0:0,0:0:0:0:
208,268,39425,1,0,0:0:0:0:
256,344,39652,2,0,P|296:280|256:192,1,180,10|8,0:0|0:0,0:0:0:0:
304,116,40334,1,0,0:0:0:0:
228,68,40561,6,0,L|52:28,1,180,10|8,0:0|0:0,0:0:0:0:
24,112,41243,1,0,0:0:0:0:
16,200,41470,1,10,0:0:0:0:
104,176,41698,2,0,P|108:224|84:264,1,90,0|8,0:0|0:0,0:0:0:0:
12,308,42152,1,0,0:0:0:0:
128,336,42380,6,0,P|176:288|192:176,1,180,10|8,0:0|0:0,0:0:0:0:
256,116,43061,1,0,0:0:0:0:
318,180,43289,2,0,P|326:268|384:336,1,180,10|0,0:0|0:0,0:0:0:0:
476,332,43970,1,0,0:0:0:0:
423,259,44198,6,0,P|403:220|408:176,1,90,10|0,0:0|0:0,0:0:0:0:
496,200,44652,1,8,0:0:0:0:
488,112,44880,1,0,0:0:0:0:
460,28,45107,2,0,L|284:68,1,180,10|8,0:0|0:0,0:0:0:0:
256,152,45789,1,0,0:0:0:0:
340,296,46016,6,0,B|256:328|256:328|172:296,2,180,10|8|10,0:0|0:0|0:0,0:0:0:0:
404,232,47152,1,0,0:0:0:0:
437,315,47380,2,0,P|475:294|493:254,1,90,8|0,0:0|0:0,0:0:0:0:
492,100,47834,6,0,B|444:80|424:43|424:43|392:72|340:72,1,180,10|8,0:0|0:0,0:0:0:0:
256,124,48516,2,0,B|304:140|321:181|321:181|352:152|405:151,1,180,2|0,0:0|0:0,0:0:0:0:
391,241,49198,1,8,0:0:0:0:
391,241,49425,1,0,0:0:0:0:
341,312,49652,6,0,P|256:314|212:240,1,180,10|8,0:0|0:0,0:0:0:0:
256,160,50334,1,0,0:0:0:0:
300,240,50561,2,0,P|259:313|171:313,1,180,10|8,0:0|0:0,0:0:0:0:
108,232,51243,1,0,0:0:0:0:
20,284,51470,6,0,B|72:308|88:341|88:341|126:313|171:313,1,180,10|8,0:0|0:0,0:0:0:0:
256,260,52152,2,0,B|208:244|191:203|191:203|160:232|107:233,1,180,2|8,0:0|0:0,0:0:0:0:
121,143,52834,1,8,0:0:0:0:
121,143,53061,1,4,0:0:0:0:
256,192,53175,12,8,54652,0:0:0:0:
184,132,55107,6,0,L|208:76,4,45,0|0|0|0|2,1:0|1:0|1:0|1:0|3:0,0:0:0:0:
256,192,55789,1,8,3:0:0:0:
328,252,56016,2,0,L|304:308,4,45,8|8|0|0|8,0:0|0:0|1:0|1:0|1:0,0:0:0:0:
356,48,56925,6,0,B|298:32|298:32|228:13|180:38,1,180,4|8,0:0|0:0,0:0:0:0:
92,27,57607,1,0,0:0:0:0:
92,116,57834,2,0,L|31:181,1,90,8|0,0:0|0:0,0:0:0:0:
39,305,58289,2,0,L|100:240,1,90,8|0,0:0|0:0,0:0:0:0:
156,336,58743,6,0,B|213:351|213:351|283:370|331:345,1,180,10|8,0:0|0:0,0:0:0:0:
420,357,59425,1,0,0:0:0:0:
420,268,59652,2,0,L|481:203,2,90,8|0|8,0:0|0:0|0:0,0:0:0:0:
332,176,60334,6,0,B|280:176|256:216|256:216|232:176|180:176,1,180,2|0,0:0|0:0,0:0:0:0:
164,88,61016,2,0,P|196:56|208:12,1,90,8|0,0:0|0:0,0:0:0:0:
304,14,61470,2,0,P|316:57|348:88,1,90,8|0,0:0|0:0,0:0:0:0:
408,152,61925,1,8,0:0:0:0:
336,268,62152,6,0,P|249:282|181:226,1,180,2|0,0:0|0:0,0:0:0:0:
104,180,62834,1,8,0:0:0:0:
64,260,63061,2,0,L|16:336,2,90,0|8|0,0:0|0:0|0:0,0:0:0:0:
104,180,63743,1,8,0:0:0:0:
176,116,63970,5,0,0:0:0:0:
176,116,64084,1,0,0:0:0:0:
176,116,64198,2,0,P|262:101|330:157,1,180,4|8,0:0|0:0,0:0:0:0:
408,204,64880,1,0,0:0:0:0:
448,124,65107,2,0,L|496:48,2,90,8|0|8,0:0|0:0|0:0,0:0:0:0:
408,204,65789,1,0,0:0:0:0:
332,304,66016,6,0,P|256:348|180:304,1,180,10|8,0:0|0:0,0:0:0:0:
256,256,66698,1,0,0:0:0:0:
182,207,66925,2,0,P|256:163|332:204,1,180,10|8,0:0|0:0,0:0:0:0:
408,252,67607,1,0,0:0:0:0:
344,108,67834,6,0,P|256:84|168:108,1,180,10|8,0:0|0:0,0:0:0:0:
172,196,68516,2,0,B|224:200|256:224|256:224|288:200|340:196,1,180,2|0,0:0|0:0,0:0:0:0:
408,252,69198,1,8,0:0:0:0:
340,360,69425,6,0,B|288:356|256:332|256:332|224:356|172:360,1,180,2|0,0:0|0:0,0:0:0:0:
84,340,70107,1,8,0:0:0:0:
24,276,70334,1,0,0:0:0:0:
84,208,70561,1,8,0:0:0:0:
84,208,70675,1,8,0:0:0:0:
84,208,70789,1,8,0:0:0:0:
24,144,71016,2,0,L|40:52,1,90,8|8,0:0|0:0,0:0:0:0:
172,28,71470,6,0,B|256:60|256:60|340:28,1,180,4|8,0:0|0:0,0:0:0:0:
428,52,72152,1,0,0:0:0:0:
420,140,72380,2,0,P|467:135|499:109,2,90,8|0|8,0:0|0:0|0:0,0:0:0:0:
392,224,73061,1,0,0:0:0:0:
340,356,73289,6,0,B|256:324|256:324|172:356,1,180,10|8,0:0|0:0,0:0:0:0:
84,332,73970,1,0,0:0:0:0:
92,244,74198,2,0,P|44:248|12:274,2,90,8|0|8,0:0|0:0|0:0,0:0:0:0:
196,224,74880,6,0,B|240:200|256:160|256:160|272:200|316:224,1,180,2|0,0:0|0:0,0:0:0:0:
404,212,75561,1,8,0:0:0:0:
344,144,75789,2,0,P|329:105|332:56,1,90,0|8,0:0|0:0,0:0:0:0:
256,8,76243,1,0,0:0:0:0:
180,57,76470,2,0,P|183:102|168:144,1,90,8|0,0:0|0:0,0:0:0:0:
172,280,76925,6,0,P|256:308|340:280,1,180,10|8,0:0|0:0,0:0:0:0:
416,232,77607,2,0,L|504:216,1,90,0|8,0:0|0:0,0:0:0:0:
508,128,78061,2,0,L|420:144,1,90,0|8,0:0|0:0,0:0:0:0:
372,68,78516,1,0,0:0:0:0:
312,136,78743,6,0,B|299:188|255:203|211:218|198:270,1,180,4|8,0:0|0:0,0:0:0:0:
256,340,79425,1,0,0:0:0:0:
313,270,79652,2,0,B|300:218|256:203|212:188|200:136,1,180,10|8,0:0|0:0,0:0:0:0:
140,68,80334,1,0,0:0:0:0:
4,128,80561,6,0,L|92:144,1,90,10|0,0:0|0:0,0:0:0:0:
96,232,81016,2,0,L|8:216,1,90,8|0,0:0|0:0,0:0:0:0:
172,280,81470,2,0,P|256:308|340:280,1,180,2|8,0:0|0:0,0:0:0:0:
404,216,82152,1,0,0:0:0:0:
328,128,82380,6,0,B|288:96|288:96|212:96|188:28,1,180,10|8,0:0|0:0,0:0:0:0:
323,29,83061,2,0,B|300:96|224:96|224:96|184:128,1,180,2|0,0:0|0:0,0:0:0:0:
120,192,83743,1,8,0:0:0:0:
168,312,83970,6,0,B|213:283|255:304|297:324|343:296,1,180,2|0,0:0|0:0,0:0:0:0:
408,232,84652,1,8,0:0:0:0:
344,168,84880,1,0,0:0:0:0:
256,192,85107,1,8,0:0:0:0:
256,192,85220,1,8,0:0:0:0:
256,192,85334,1,8,0:0:0:0:
168,216,85561,1,8,0:0:0:0:
104,152,85789,1,4,0:0:0:0:
256,192,85902,12,2,87720,0:0:0:0:
