osu file format v9

[General]
AudioFilename: -galaxias!-galaxias!------DANCEROID Ver.-.mp3
AudioLeadIn: 0
PreviewTime: -1
Countdown: 1
SampleSet: Normal
StackLeniency: 0.7
Mode: 0
LetterboxInBreaks: 1

[Editor]
DistanceSpacing: 0.8
BeatDivisor: 2
GridSize: 8

[Metadata]
Title:Galaxias
Artist:Danceroid
Creator:MaiHagiwara1
Version:Maam Normal
Source:Danceroid
Tags:

[Difficulty]
HPDrainRate:4
CircleSize:5
OverallDifficulty:4
ApproachRate:4
SliderMultiplier:1.4
SliderTickRate:1

[Events]
//Background and Video events
0,0,"p_maam.jpg"
Video,0,"galaxias! galaxias! DANCEROID Ver. - YouTube.flv"
//Break Periods
//Storyboard Layer 0 (Background)
//Storyboard Layer 1 (Fail)
//Storyboard Layer 2 (Pass)
//Storyboard Layer 3 (Foreground)
//Storyboard Sound Samples
//Background Colour Transformations
3,100,163,162,255

[TimingPoints]
17597.2844799068,487.092060399415,4,1,0,100,1,0

[Colours]
Combo1 : 255,255,255
Combo2 : 250,241,135
Combo3 : 5,145,211
Combo4 : 1,5,63
Combo5 : 226,90,152

[HitObjects]
88,64,15648,2,0,B|184:168,2,140
80,72,17597,6,0,B|160:160,2,70
176,64,18571,6,0,B|264:152,2,70
104,88,19545,6,0,B|120:240|224:272,2,210
160,96,21494,6,0,B|296:240,1,140
392,88,22224,6,0,B|432:200|368:256,1,140
384,224,23442,1,0
240,224,23929,1,0
128,224,24416,1,0
136,152,24660,1,0
136,152,24903,1,0
256,192,25390,12,0,27339
256,120,28069,5,0
312,184,28313,1,0
96,120,28800,6,0,B|240:248,1,140
240,56,29774,6,0,B|336:208|272:256,1,210
120,128,31235,5,0
152,184,31722,1,0
200,136,31966,1,0
200,136,32210,1,0
256,208,32453,1,0
312,136,32697,1,0
80,88,33184,2,0,B|88:208|144:272|216:280|280:176|288:104|320:24|408:32|448:96|456:200|440:272|392:320|336:352|264:352|184:344|144:336|96:312,1,840
72,88,37080,2,0,B|216:208,1,140
240,64,38055,6,0,B|336:168|296:288|152:280|112:216|104:112|24:112|16:248|56:336|168:368|248:376|320:344|368:296,1,700
112,64,40977,5,0
168,160,41464,1,0
224,88,41951,1,0
272,160,42438,1,0
336,112,42926,5,0
352,168,43413,1,0
416,96,43656,1,0
416,96,43900,1,0
432,200,44143,1,0
432,200,44387,1,0
280,264,44874,1,0
208,208,45361,1,0
256,160,45848,1,0
320,136,46335,1,0
376,72,47309,1,0
400,136,47553,1,0
400,136,47796,1,0
336,200,48040,1,0
336,200,48284,1,0
152,128,48771,5,0
208,208,49258,1,0
256,96,49745,1,0
304,160,50232,1,0
360,56,50719,5,0
360,56,50963,1,0
400,120,51206,1,0
400,120,51450,1,0
368,168,51693,1,0
256,208,51937,1,0
256,208,52180,1,0
152,176,52911,5,0
152,176,53155,1,0
192,128,53398,1,0
152,176,53642,1,0
192,128,53885,1,0
272,112,54129,1,0
280,200,54616,5,0
336,168,54859,1,0
280,200,55103,1,0
336,168,55346,1,0
280,200,55590,1,0
72,48,56564,2,0,B|208:208,1,210
168,80,57538,6,0,B|280:160,2,70
312,64,58513,6,0,B|368:152|320:216|232:240|208:176|184:136|176:104,2,280
80,72,60948,6,0,B|200:184,1,140
368,80,61922,6,0,B|408:176|296:224|200:168|200:96|176:64|104:64|72:136|80:256|168:312,1,490
96,96,64358,6,0,B|224:232,1,140
456,96,65332,6,0,B|440:200|400:248,2,140
128,56,67037,2,0,B|216:152,3,70
144,72,68254,6,0,B|160:224|168:232,1,140
200,80,69229,6,0,B|312:208,1,140
216,80,70203,6,0,B|360:176|320:272|320:264,1,210
216,192,71420,1,0
216,192,71664,1,0
136,128,72151,5,0
216,192,72638,1,0
264,112,73125,1,0
328,184,73856,5,0
368,80,74099,1,0
432,144,75074,1,0
416,208,75561,5,0
256,216,76048,1,0
280,160,76535,1,0
192,160,77022,1,0
192,160,77266,1,0
224,96,77509,1,0
352,72,77996,1,0
384,136,78483,1,0
280,184,78970,5,0
280,184,79457,1,0
168,160,79701,1,0
208,240,79945,5,0
256,128,80675,1,0
320,80,80919,1,0
320,80,81406,1,0
384,96,81649,1,0
296,184,82136,1,0
296,184,82380,5,0
240,192,82624,5,0
240,192,83111,5,0
112,80,83598,5,0
144,144,83841,5,0
240,88,84328,5,0
280,152,84815,1,0
280,152,85059,5,0
280,152,85303,1,0
352,112,85546,1,0
288,240,86033,1,0
240,272,86277,5,0
192,280,86520,1,0
144,248,86764,5,0
136,192,87007,1,0
176,160,87251,1,0
