osu file format v4

[General]
AudioFilename: YTMND Soundtrack - Volume 9 - 13 - Daler Mehndi - Tunak Tunak Tun.mp3
AudioLeadIn: 0
AudioHash: e3bcb257651ac6d3fd21cfec147b7463
PreviewTime: -1
Countdown: 1
SampleSet: Normal
EditorBookmarks: 29200,64438,70936,104125,117120,142512,155807,188996,201392,234081,240279

[Metadata]
Title:Tunak Tunak Tun
Artist:Daler Mehndi
Creator:mtmcl
Version:Hard

[Difficulty]
HPDrainRate:5
CircleSize:5
OverallDifficulty:5
SliderMultiplier: 1.4
SliderTickRate: 1

[Events]
//Background and Video events
//Break Periods
2,64537,69736
2,104325,115920
2,142512,154507
2,189097,200492
2,234081,239279
//Storyboard Layer 0 (Background)
//Storyboard Layer 1 (Failing)
//Storyboard Layer 2 (Passing)
//Storyboard Layer 3 (Foreground)
//Storyboard Sound Samples
//Background Colour Transformations
3,100,163,162,255

[TimingPoints]
29150,399.866711096301,4,1,0,100

[HitObjects]
256,192,29150,1,0
256,192,29249,1,0
192,192,29449,1,0
192,192,29549,1,0
192,128,29749,1,0
256,128,29949,1,0
256,128,30049,1,0
320,128,30249,1,0
320,128,30349,1,0
320,192,30549,1,0
320,256,30749,1,0
320,256,30849,1,0
256,256,31049,1,0
256,256,31149,1,0
192,256,31349,1,0
128,256,31549,1,0
128,192,31749,1,0
128,128,31949,1,0
256,96,32348,2,0,C|256:96|288:96,1,35
288,160,32648,2,0,C|288:160|320:160,1,35
320,224,32948,1,0
384,224,33148,2,0,C|384:224|384:192,1,35
384,128,33448,2,0,C|384:128|384:96,1,35
448,96,33748,1,0
448,160,33948,2,0,C|448:160|448:192,1,35
448,256,34248,2,0,C|448:256|448:288,1,35
448,352,34548,1,0
384,352,34748,2,0,C|384:352|320:352|288:352|288:288,1,140
160,288,35547,1,0
160,288,35647,1,0
160,224,35847,1,0
160,224,35947,1,0
160,224,36047,1,0
160,224,36147,1,0
96,224,36347,1,0
96,224,36447,1,0
96,288,36647,1,0
96,288,36747,1,0
96,288,36847,1,0
96,288,36947,1,0
32,288,37147,1,0
32,288,37247,1,0
32,224,37447,1,0
32,224,37547,1,0
32,224,37647,1,0
32,224,37747,1,0
32,160,37947,1,0
96,160,38147,1,0
160,160,38346,1,0
288,160,38746,2,0,C|288:160|288:192,1,35
352,192,39046,1,0
352,192,39146,1,0
352,192,39246,1,0
352,192,39346,1,0
416,192,39546,2,0,C|416:192|416:224,1,35
480,224,39846,1,0
480,224,39946,1,0
480,224,40046,1,0
480,224,40146,1,0
480,288,40346,2,0,C|480:288|448:288,1,35
384,288,40646,1,0
384,288,40746,1,0
384,288,40846,1,0
384,288,40946,1,0
320,288,41146,1,0
256,288,41345,1,0
192,288,41545,1,0
256,192,41745,12,0,44744
192,224,45344,2,0,B|192:224|288:160|352:320,1,210
448,256,46344,1,0
448,192,46544,1,0
448,128,46744,1,0
384,128,46944,1,0
384,192,47144,1,0
448,192,47343,1,0
448,128,47543,2,0,B|448:128|448:96|416:64,1,70
352,64,47943,1,0
288,64,48143,1,0
224,64,48343,2,0,B|224:64|160:64|128:64|96:128,1,140
96,256,49143,1,0
224,256,49543,1,0
288,256,49743,1,0
352,256,49943,1,0
288,256,50143,1,0
288,192,50342,1,0
288,128,50542,1,0
288,64,50742,2,0,B|288:64|160:64|96:160,1,210
128,288,51742,1,0
256,288,52142,1,0
320,288,52342,1,0
416,288,52742,2,0,B|416:288|416:256|384:224,1,70
384,160,53142,1,0
384,96,53341,1,0
320,96,53541,1,0
320,160,53741,1,0
256,160,53941,2,0,B|256:160|192:128|96:160,1,140
64,160,54541,1,0
64,224,54741,2,0,B|64:224|64:320|160:320,1,140
256,320,55541,1,0
384,320,55941,1,0
384,256,56141,1,0
384,320,56340,1,0
384,256,56540,1,0
384,320,56740,1,0
384,256,56940,1,0
384,320,57140,2,0,B|384:320|256:256|256:64,1,280
192,96,58140,1,0
64,96,58540,1,0
64,160,58740,1,0
64,288,59140,1,0
128,288,59339,1,0
192,288,59539,1,0
192,352,59739,1,0
128,352,59939,1,0
128,288,60139,1,0
128,224,60339,1,0
128,96,60739,1,0
192,96,60939,1,0
256,96,61139,2,0,B|256:96|352:96|352:128,1,105
416,192,61739,1,0
416,256,61939,1,0
288,256,62338,1,0
288,192,62538,1,0
224,192,62738,1,0
224,256,62938,1,0
160,256,63138,1,0
160,192,63338,1,0
160,128,63538,2,0,B|160:128|320:128|448:32,1,280
256,192,70936,12,0,75134
256,192,75534,1,0
256,192,75633,1,0
320,192,75833,1,0
320,192,75933,1,0
320,256,76133,1,0
256,256,76333,1,0
256,256,76433,1,0
192,256,76633,1,0
192,256,76733,1,0
192,192,76933,1,0
192,128,77133,1,0
192,128,77233,1,0
256,128,77433,1,0
256,128,77533,1,0
320,128,77733,1,0
384,128,77933,1,0
384,192,78133,1,0
384,256,78333,1,0
256,288,78732,2,0,C|256:288|224:288,1,35
224,224,79032,2,0,C|224:224|192:224,1,35
192,160,79332,1,0
128,160,79532,2,0,C|128:160|128:192,1,35
128,256,79832,2,0,C|128:256|128:288,1,35
64,288,80132,1,0
64,224,80332,2,0,C|64:224|64:192,1,35
64,128,80632,2,0,C|64:128|64:96,1,35
64,32,80932,1,0
128,32,81132,2,0,C|128:32|192:32|224:32|224:96,1,140
352,96,81931,1,0
352,96,82031,1,0
352,160,82231,1,0
352,160,82331,1,0
352,160,82431,1,0
352,160,82531,1,0
416,160,82731,1,0
416,160,82831,1,0
416,96,83031,1,0
416,96,83131,1,0
416,96,83231,1,0
416,96,83331,1,0
480,96,83531,1,0
480,96,83631,1,0
480,160,83831,1,0
480,160,83931,1,0
480,160,84031,1,0
480,160,84131,1,0
480,224,84331,1,0
416,224,84531,1,0
352,224,84730,1,0
224,224,85130,2,0,C|224:224|224:192,1,35
160,192,85430,1,0
160,192,85530,1,0
160,192,85630,1,0
160,192,85730,1,0
96,192,85930,2,0,C|96:192|96:160,1,35
32,160,86230,1,0
32,160,86330,1,0
32,160,86430,1,0
32,160,86530,1,0
32,96,86730,2,0,C|32:96|64:96,1,35
128,96,87030,1,0
128,96,87130,1,0
128,96,87230,1,0
128,96,87330,1,0
192,96,87530,1,0
256,96,87729,1,0
320,96,87929,1,0
320,224,88330,1,0
256,224,88530,1,0
192,224,88730,1,0
128,224,88930,1,0
128,224,89030,1,0
128,224,89130,1,0
64,224,89329,1,0
64,160,89529,1,0
64,32,89929,1,0
128,32,90129,1,0
192,32,90329,1,0
320,32,90729,1,0
320,96,90929,1,0
320,160,91129,1,0
320,160,91229,1,0
320,160,91329,1,0
256,160,91529,1,0
192,160,91729,1,0
128,160,91929,1,0
64,160,92129,1,0
64,160,92228,1,0
64,160,92328,1,0
64,224,92528,1,0
64,288,92728,1,0
192,288,93128,1,0
256,288,93328,1,0
320,288,93528,1,0
448,288,93928,2,0,B|448:288|448:128|320:32,1,280
256,32,94928,1,0
192,32,95128,1,0
128,32,95327,1,0
128,32,95427,1,0
128,32,95527,1,0
64,32,95727,1,0
64,96,95927,1,0
64,224,96327,1,0
128,224,96527,1,0
192,224,96727,1,0
320,224,97127,1,0
320,160,97327,1,0
256,192,97527,12,0,100326
256,192,100726,1,0
192,192,100926,1,0
128,192,101126,2,0,B|128:192|128:128|64:96,1,105
160,32,101725,2,0,B|160:32|192:64|256:64,1,70
416,96,102525,1,0
416,160,102725,1,0
416,256,103025,1,0
320,256,103325,1,0
256,256,103525,1,0
192,256,103725,1,0
192,192,103925,1,0
256,192,104125,1,0
256,192,117120,1,0
256,128,117320,1,0
256,192,117520,1,0
256,128,117720,1,0
192,128,117920,1,0
192,128,118020,1,0
192,128,118120,1,0
192,128,118220,1,0
192,128,118320,1,0
192,192,118520,1,0
192,256,118720,1,0
256,256,118920,1,0
320,256,119120,1,0
320,256,119219,1,0
320,256,119319,1,0
320,256,119419,1,0
320,256,119519,2,0,B|320:256|320:96|480:32,1,280
480,96,120519,1,0
480,160,120719,1,0
480,224,120919,1,0
480,288,121119,2,0,B|480:288|480:320,4,35
416,288,121719,1,0
352,288,121919,1,0
288,288,122119,1,0
224,288,122318,2,0,B|224:288|224:256,4,35
288,32,123518,1,0
352,32,123718,1,0
352,96,123918,1,0
288,96,124118,1,0
256,160,124318,1,0
288,160,124418,1,0
320,160,124518,1,0
352,160,124618,1,0
384,160,124718,1,0
384,224,124918,1,0
384,288,125118,1,0
384,352,125317,1,0
320,352,125517,1,0
320,320,125617,1,0
320,288,125717,1,0
320,256,125817,1,0
320,224,125917,1,0
256,192,126117,12,0,129116
256,192,130116,2,0,B|256:192|416:192|448:96,1,210
352,224,131116,2,0,B|352:224|384:224|416:192,1,70
416,128,131515,2,0,B|416:128|320:128,1,70
288,128,131915,2,0,B|288:128|288:32,1,70
224,64,132315,2,0,B|224:64|192:64|160:96,1,70
128,128,132715,2,0,B|128:128|128:224,1,70
128,256,133115,2,0,B|128:256|224:256,1,70
256,256,133515,2,0,B|256:256|256:160,1,70
256,128,133915,2,0,B|256:128|352:128,1,70
384,128,134314,2,0,B|384:128|384:224,1,70
384,256,134714,2,0,B|384:256|480:256,1,70
448,320,135114,2,0,B|448:320|416:320|384:352,1,70
256,352,135714,1,0
192,352,135914,2,0,B|192:352|96:128,1,210
192,64,136914,1,0
256,64,137114,1,0
256,192,137513,1,0
320,192,137713,1,0
384,192,137913,1,0
448,192,138113,1,0
448,256,138313,1,0
384,256,138513,1,0
320,256,138713,1,0
256,256,138913,1,0
256,192,139113,1,0
320,192,139313,1,0
320,256,139513,1,0
320,320,139713,1,0
256,320,139913,1,0
192,320,140113,1,0
128,320,140312,1,0
128,256,140512,1,0
192,256,140712,1,0
192,192,140912,1,0
256,192,141112,1,0
256,256,141312,1,0
256,320,141512,1,0
192,320,141712,1,0
192,192,142112,1,0
192,128,142312,1,0
256,192,155707,12,0,159906
256,192,160306,2,0,B|256:192|288:192,7,35
288,192,161106,2,0,B|288:192|288:160,7,35
288,160,161905,2,0,B|288:160|320:160,7,35
320,160,162705,1,0
384,160,162905,1,0
448,160,163105,1,0
448,288,163505,1,0
448,288,163605,1,0
448,288,163705,1,0
448,288,163805,1,0
448,288,163905,1,0
448,288,164005,1,0
448,288,164105,1,0
448,288,164204,1,0
416,288,164304,1,0
416,288,164404,1,0
416,288,164504,1,0
416,288,164604,1,0
416,288,164704,1,0
416,288,164804,1,0
416,288,164904,1,0
416,288,165004,1,0
384,288,165104,1,0
384,288,165204,1,0
384,288,165304,1,0
384,288,165404,1,0
384,288,165504,1,0
384,288,165604,1,0
384,288,165704,1,0
384,288,165804,1,0
384,288,165904,1,0
384,224,166104,1,0
384,160,166304,1,0
256,160,166704,2,0,B|256:160|224:160,7,35
221,160,167503,1,0
221,160,167603,1,0
221,160,167703,1,0
221,160,167803,1,0
221,160,167903,1,0
221,160,168003,1,0
221,160,168103,1,0
221,160,168203,1,0
221,160,168303,2,0,B|221:160|224:192,7,35
224,192,169103,1,0
160,192,169303,1,0
96,192,169503,1,0
256,192,169903,12,0,170502
256,192,170602,12,0,171302
256,192,171402,12,0,172702
192,160,173102,1,0
256,160,173302,1,0
320,160,173502,1,0
384,160,173702,1,0
384,160,173802,1,0
384,160,173902,1,0
448,160,174101,1,0
448,224,174301,1,0
448,352,174701,1,0
384,352,174901,1,0
320,352,175101,1,0
192,352,175501,1,0
192,288,175701,1,0
192,224,175901,1,0
192,224,176001,1,0
192,224,176101,1,0
256,224,176301,1,0
320,224,176501,1,0
384,224,176701,1,0
448,224,176901,1,0
448,224,177000,1,0
448,224,177100,1,0
448,160,177300,1,0
448,96,177500,1,0
320,96,177900,1,0
256,96,178100,1,0
192,96,178300,1,0
64,96,178700,2,0,B|64:96|64:256|192:352,1,280
256,352,179700,1,0
320,352,179900,1,0
384,352,180099,1,0
384,352,180199,1,0
384,352,180299,1,0
448,352,180499,1,0
448,288,180699,1,0
448,160,181099,1,0
384,160,181299,1,0
320,160,181499,1,0
192,160,181899,1,0
192,224,182099,1,0
256,192,182299,12,0,185098
256,192,185498,1,0
320,192,185698,1,0
384,192,185898,2,0,B|384:192|384:256|448:288,1,105
352,352,186497,2,0,B|352:352|320:320|256:320,1,70
96,288,187297,1,0
96,224,187497,1,0
96,128,187797,1,0
192,128,188097,1,0
256,128,188297,1,0
320,128,188497,1,0
320,192,188697,1,0
256,192,188897,1,0
64,320,201692,2,0,B|64:320|256:192|416:192,1,350
128,224,203291,2,0,B|128:224|320:352|480:352,1,350
320,224,204891,1,0
320,160,205091,1,0
256,160,205291,1,0
256,224,205491,1,0
256,288,205691,1,0
320,288,205891,1,0
384,288,206091,1,0
384,224,206290,1,0
384,160,206490,1,0
384,96,206690,1,0
320,96,206890,1,0
256,96,207090,1,0
192,96,207290,1,0
128,96,207490,1,0
128,288,208090,2,0,B|128:288|128:128,1,140
127,147,208690,1,0
127,148,208890,1,0
127,148,209090,1,0
127,148,209289,1,0
224,224,209689,2,0,B|224:224|224:64,1,140
223,83,210289,1,0
223,84,210489,1,0
223,84,210689,1,0
223,84,210888,1,0
352,96,211289,1,0
416,96,211489,1,0
480,96,211689,1,0
416,96,211889,1,0
416,160,212089,1,0
416,224,212288,1,0
416,288,212488,1,0
416,224,212688,1,0
352,224,212888,1,0
288,224,213088,1,0
224,224,213288,1,0
288,224,213488,1,0
288,160,213688,1,0
288,96,213888,1,0
320,224,214888,2,0,B|320:224|224:160|160:320,1,210
64,256,215888,1,0
64,192,216088,1,0
64,128,216288,1,0
128,128,216488,1,0
128,192,216688,1,0
64,192,216887,1,0
64,128,217087,2,0,B|64:128|64:96|96:64,1,70
160,64,217487,1,0
224,64,217687,1,0
288,64,217887,2,0,B|288:64|352:64|384:64|416:128,1,140
416,256,218687,1,0
288,256,219087,1,0
224,256,219287,1,0
160,256,219487,1,0
224,256,219687,1,0
224,192,219886,1,0
224,128,220086,1,0
224,64,220286,2,0,B|224:64|352:64|416:160,1,210
384,288,221286,1,0
256,288,221686,1,0
192,288,221886,1,0
96,288,222286,2,0,B|96:288|96:256|128:224,1,70
128,160,222686,1,0
128,96,222885,1,0
192,96,223085,1,0
192,160,223285,1,0
256,160,223485,2,0,B|256:160|320:128|416:160,1,140
448,160,224085,1,0
448,224,224285,2,0,B|448:224|448:320|352:320,1,140
256,320,225085,1,0
128,320,225485,1,0
128,256,225685,1,0
128,320,225884,1,0
128,256,226084,1,0
128,320,226284,1,0
128,256,226484,1,0
128,320,226684,2,0,B|128:320|256:256|256:64,1,280
320,96,227684,1,0
448,96,228084,1,0
448,160,228284,1,0
448,288,228684,1,0
384,288,228883,1,0
320,288,229083,1,0
320,352,229283,1,0
384,352,229483,1,0
384,288,229683,1,0
384,224,229883,1,0
384,96,230283,1,0
320,96,230483,1,0
256,96,230683,2,0,B|256:96|160:96|128:160,1,140
96,192,231283,1,0
96,256,231483,1,0
224,256,231882,1,0
224,192,232082,1,0
288,192,232282,1,0
288,256,232482,1,0
352,256,232682,1,0
352,192,232882,1,0
352,128,233082,2,0,B|352:128|192:128|64:32,1,280
256,192,240479,12,0,244678
256,192,245078,1,0
256,192,245177,1,0
320,192,245377,1,0
320,192,245477,1,0
320,256,245677,1,0
256,256,245877,1,0
256,256,245977,1,0
192,256,246177,1,0
192,256,246277,1,0
192,192,246477,1,0
192,128,246677,1,0
192,128,246777,1,0
256,128,246977,1,0
256,128,247077,1,0
320,128,247277,1,0
384,128,247477,1,0
384,192,247677,1,0
384,256,247877,1,0
256,288,248276,2,0,C|256:288|224:288,1,35
224,224,248576,2,0,C|224:224|192:224,1,35
192,160,248876,1,0
128,160,249076,2,0,C|128:160|128:192,1,35
128,256,249376,2,0,C|128:256|128:288,1,35
64,288,249676,1,0
64,224,249876,2,0,C|64:224|64:192,1,35
64,128,250176,2,0,C|64:128|64:96,1,35
64,32,250476,1,0
128,32,250676,2,0,C|128:32|192:32|224:32|224:96,1,140
352,96,251475,1,0
352,96,251575,1,0
352,160,251775,1,0
352,160,251875,1,0
352,160,251975,1,0
352,160,252075,1,0
416,160,252275,1,0
416,160,252375,1,0
416,96,252575,1,0
416,96,252675,1,0
416,96,252775,1,0
416,96,252875,1,0
480,96,253075,1,0
480,96,253175,1,0
480,160,253375,1,0
480,160,253475,1,0
480,160,253575,1,0
480,160,253675,1,0
480,224,253875,1,0
416,224,254075,1,0
352,224,254274,1,0
224,224,254674,2,0,C|224:224|224:192,1,35
160,192,254974,1,0
160,192,255074,1,0
160,192,255174,1,0
160,192,255274,1,0
96,192,255474,2,0,C|96:192|96:160,1,35
32,160,255774,1,0
32,160,255874,1,0
32,160,255974,1,0
32,160,256074,1,0
32,96,256274,2,0,C|32:96|64:96,1,35
128,96,256574,1,0
128,96,256674,1,0
128,96,256774,1,0
128,96,256874,1,0
192,96,257074,1,0
256,96,257273,1,0
320,96,257473,1,0
320,224,257873,1,0
256,224,258073,1,0
192,224,258273,1,0
128,224,258473,1,0
128,224,258573,1,0
128,224,258673,1,0
64,224,258872,1,0
64,160,259072,1,0
64,32,259472,1,0
128,32,259672,1,0
192,32,259872,1,0
320,32,260272,1,0
320,96,260472,1,0
320,160,260672,1,0
320,160,260772,1,0
320,160,260872,1,0
256,160,261072,1,0
192,160,261272,1,0
128,160,261472,1,0
64,160,261672,1,0
64,160,261771,1,0
64,160,261871,1,0
64,224,262071,1,0
64,288,262271,1,0
192,288,262671,1,0
256,288,262871,1,0
320,288,263071,1,0
448,288,263471,2,0,B|448:288|448:128|320:32,1,280
256,32,264471,1,0
192,32,264671,1,0
128,32,264870,1,0
128,32,264970,1,0
128,32,265070,1,0
64,32,265270,1,0
64,96,265470,1,0
64,224,265870,1,0
128,224,266070,1,0
192,224,266270,1,0
320,224,266670,1,0
320,160,266870,1,0
256,192,267070,12,0,269869
256,192,270269,1,0
192,192,270469,1,0
128,192,270669,2,0,B|128:192|128:128|64:96,1,105
160,32,271268,2,0,B|160:32|192:64|256:64,1,70
416,96,272068,1,0
416,160,272268,1,0
416,256,272568,1,0
320,256,272868,1,0
256,256,273068,1,0
192,256,273268,1,0
192,192,273468,1,0
256,192,273668,1,0
320,192,273868,2,0,B|320:192|352:192,7,35
352,192,274668,2,0,B|352:192|352:160,7,35
352,160,275467,2,0,B|352:160|384:160,7,35
384,160,276267,1,0
448,160,276467,1,0
512,160,276667,1,0
512,288,277067,1,0
512,288,277167,1,0
512,288,277267,1,0
512,288,277367,1,0
512,288,277467,1,0
512,288,277567,1,0
512,288,277667,1,0
512,288,277766,1,0
480,288,277866,1,0
480,288,277966,1,0
480,288,278066,1,0
480,288,278166,1,0
480,288,278266,1,0
480,288,278366,1,0
480,288,278466,1,0
480,288,278566,1,0
448,288,278666,1,0
448,288,278766,1,0
448,288,278866,1,0
448,288,278966,1,0
448,288,279066,1,0
448,288,279166,1,0
448,288,279266,1,0
448,288,279366,1,0
448,288,279466,1,0
448,224,279666,1,0
448,160,279866,1,0
320,160,280266,2,0,B|320:160|288:160,7,35
285,160,281065,1,0
285,160,281165,1,0
285,160,281265,1,0
285,160,281365,1,0
285,160,281465,1,0
285,160,281565,1,0
285,160,281665,1,0
285,160,281765,1,0
285,160,281865,2,0,B|285:160|288:192,7,35
288,192,282665,1,0
224,192,282865,1,0
160,192,283065,1,0
256,192,283465,12,0,284064
256,192,284164,12,0,284864
256,192,284964,12,0,286264
64,160,286964,1,0
160,160,287263,1,0
256,160,287563,1,0
352,160,287863,1,0
448,160,288163,1,0
448,288,288563,1,0
352,288,288863,1,0
256,288,289163,1,0
160,288,289463,1,0
64,288,289763,1,0
64,160,290163,1,0
160,160,290462,1,0
256,160,290762,1,0
352,160,291062,1,0
448,160,291362,1,0
448,224,291562,2,0,B|448:224|416:224,3,35
416,320,292162,2,0,B|416:320|384:320,3,35
288,320,292762,2,0,B|288:320|256:320,3,35
