osu file format v5

[General]
AudioFilename: Daler_Menhdi-01-Tunak_Tunak_Tun.mp3
AudioLeadIn: 0
PreviewTime: -1
Countdown: 1
SampleSet: Normal
StackLeniency: 0.7
Mode: 0
LetterboxInBreaks: 1
EditorBookmarks: 1204,29312,45497,75697,88397,116897,130197,160497,172897,189297

[Metadata]
Title:Tunak Tunak Tun
Artist:Daler Mehndi
Creator:Pokebis
Version:Hard
Source:
Tags:

[Difficulty]
HPDrainRate:5
CircleSize:5
OverallDifficulty:5
SliderMultiplier:1.4
SliderTickRate:3

[Events]
//Background and Video events
1,2350,"Tunak Tunak Tun.AVI"
//Break Periods
2,117065,129058
//Storyboard Layer 0 (Background)
//Storyboard Layer 1 (Failing)
//Storyboard Layer 2 (Passing)
//Storyboard Layer 3 (Foreground)
//Storyboard Sound Samples
//Background Colour Transformations
3,100,163,162,255

[TimingPoints]
29312,399.786780383795,4,1,0,100

[HitObjects]
96,80,29312,1,0
208,80,29711,1,0
320,80,30111,1,0
432,80,30511,1,0
432,192,30911,1,0
432,304,31310,1,0
320,304,31710,1,0
320,304,31910,1,0
320,304,32110,1,0
208,304,32510,5,0
96,304,32910,1,0
96,192,33309,1,0
96,80,33709,1,0
208,80,34109,1,0
320,80,34509,1,0
432,80,34909,1,0
432,80,35108,1,0
432,80,35308,1,0
448,192,35708,6,2,B|304:192,1,140
192,192,36508,2,2,B|32:192,1,140
48,352,37307,2,2,B|192:352,1,140
304,352,38107,1,2
304,352,38307,1,2
304,352,38507,1,2
416,352,38906,6,2,B|320:224,1,140
272,144,39706,2,2,B|384:24,1,140
496,80,40506,2,2,B|384:208,1,140
288,192,41305,1,2
288,192,41505,1,2
288,192,41705,1,2
176,192,42105,6,2,B|176:32,1,140
64,80,42904,2,2,B|64:224,1,140
64,336,43704,2,2,B|208:336,1,140
320,336,44503,1,2
320,336,44703,1,2
320,336,44903,1,2
416,192,45503,5,0
304,192,45903,2,0,B|208:192,1,70
128,192,46502,2,0,B|128:96,2,70
128,240,47102,2,0,B|128:336,2,70
128,192,47702,1,0
32,240,48101,2,0,B|32:144,1,70
32,112,48501,1,0
32,32,48801,1,0
112,32,49101,1,0
160,32,49301,1,0
256,64,49701,5,0
304,64,49901,1,0
352,64,50100,1,0
400,64,50300,1,0
448,64,50500,1,0
448,64,50700,1,0
448,112,50900,2,0,B|448:256,1,140
448,304,51500,1,0
336,304,51899,5,0
224,304,52299,2,0,B|128:304,1,70
64,256,52899,2,0,B|64:160,2,70
64,304,53499,2,0,B|64:400,2,70
24,280,54098,1,0
16,176,54498,2,0,B|16:80,1,70
16,48,54898,1,0
96,48,55198,1,0
176,24,55498,1,0
176,72,55697,1,0
280,48,56097,5,0
328,48,56297,1,0
376,48,56497,1,0
424,48,56697,1,0
472,48,56897,1,0
472,48,57097,1,0
472,96,57297,2,0,B|472:248,1,140
472,288,57896,1,0
360,288,58296,5,0
248,288,58696,2,0,B|152:288,1,70
256,208,59296,2,0,B|256:112,2,70
224,248,59895,2,0,B|144:248,2,70
224,248,60495,1,0
128,288,60895,2,0,B|128:192,1,70
128,160,61294,1,0
128,80,61594,1,0
208,80,61894,1,0
256,80,62094,1,0
368,80,62494,5,0
368,128,62694,1,0
368,176,62894,1,0
368,224,63093,1,0
320,224,63293,1,0
320,224,63493,1,0
272,224,63693,2,0,B|128:224,1,140
80,224,64293,1,0
192,64,64693,5,0
304,64,65092,2,0,B|304:160,1,70
272,208,65692,2,0,B|176:208,2,70
336,208,66292,2,0,B|432:208,2,70
304,248,66891,1,0
352,336,67291,2,0,B|256:336,1,70
224,336,67691,1,0
144,336,67991,1,0
144,256,68291,1,0
144,208,68491,1,0
176,112,68890,5,0
224,112,69090,1,0
272,112,69290,1,0
320,112,69490,1,0
320,160,69690,1,0
320,160,69890,1,0
320,208,70090,2,0,B|144:208,1,140
180,208,70689,1,0
144,112,71089,5,0
256,112,71489,1,0
304,96,71689,2,0,B|352:0|208:-32|112:64|176:192|256:224|336:160,1,420
432,208,73288,1,0
432,320,73688,1,0
320,336,74088,2,0,B|176:304|192:176|288:80|416:48,1,420
288,48,75687,5,0
192,112,76087,1,0
288,176,76486,1,0
176,208,76886,1,0
272,272,77286,1,0
160,304,77686,1,0
280,304,78085,1,0
280,304,78285,1,0
280,304,78485,1,0
400,304,78885,6,2,B|400:144,1,140
400,64,79685,1,2
288,64,80084,1,2
176,64,80484,2,2,B|32:64,1,140
64,176,81284,1,2
64,176,81484,1,2
64,176,81684,1,2
176,176,82083,5,2
288,176,82483,1,4
192,240,82883,2,0,B|352:240,1,140
448,240,83683,2,4,B|448:96,1,140
336,112,84482,1,0
336,112,84682,1,2
336,112,84882,1,4
224,112,85282,5,4
176,208,85681,1,2
288,176,86081,1,4
224,272,86481,1,2
336,240,86881,2,4,B|208:176,1,140
208,64,87680,1,0
208,64,87880,1,6
208,64,88080,1,0
208,112,88280,6,0,B|208:208,3,70
208,240,89080,2,0,C|208:282,1,35
216,304,89280,2,0,B|296:304,1,70
336,304,89679,1,0
336,192,90079,2,0,B|240:192,2,70
448,192,90879,2,0,B|448:112,2,70
336,304,91678,6,0,B|416:304,4,70
288,304,92678,1,0
240,304,92878,1,0
208,192,93277,2,0,B|208:112,2,70
272,160,93877,2,0,B|272:240,2,70
256,192,94377,12,4,97475
208,112,98075,2,0,B|304:112,2,70
208,160,98675,1,0
208,208,98874,1,0
208,256,99074,1,0
208,304,99274,1,0
320,304,99674,6,0,B|416:304,2,70
320,192,100474,2,0,B|320:112,1,70
272,144,100873,5,2
224,144,101073,1,2
176,144,101273,1,2
96,144,101573,1,2
96,224,101873,1,2
96,224,102073,1,2
208,272,102872,5,4
304,272,103172,1,4
400,272,103472,1,4
400,144,103872,1,4
336,144,104072,1,4
192,160,104471,6,0,B|192:16,2,140
192,272,105671,1,4
304,272,106071,2,0,B|464:272,1,140
464,160,106870,1,4
464,160,107070,1,4
464,160,107270,1,4
352,160,107670,5,0
352,48,108069,1,2
352,160,108469,1,0
352,48,108869,1,2
256,104,109269,1,0
352,160,109669,1,2
352,48,110068,1,2
352,48,110268,1,2
352,48,110468,1,2
240,48,110868,6,4,B|192:48|128:144,1,140
240,128,111668,2,4,B|288:128|352:224,1,140
216,200,112467,2,4,B|168:200|104:296,1,140
232,280,113267,2,2,B|328:280,2,70
256,192,114066,12,0,114466
256,192,114866,12,0,115266
256,192,115665,12,0,116065
256,96,116465,1,0
256,96,116665,1,0
256,96,116865,1,0
384,48,130258,6,0,B|384:192,1,140
384,240,130857,1,0
272,240,131257,2,0,B|192:240,1,70
144,240,131657,1,0
96,240,131857,1,0
80,192,132057,1,0
80,144,132257,1,0
96,96,132456,1,0
136,64,132656,1,0
192,64,132856,6,0,B|272:64,1,70
320,64,133256,1,0
368,80,133456,1,0
416,80,133656,1,0
464,96,133856,1,0
480,144,134056,1,0
480,192,134256,1,0
464,240,134455,6,0,B|464:320,1,70
416,304,134855,1,0
368,288,135055,1,0
336,248,135255,1,0
288,232,135455,1,0
256,192,135855,12,0,136654
128,224,137054,1,0
128,176,137254,1,0
240,144,137654,2,0,B|320:144,1,70
368,144,138054,1,0
416,144,138254,1,0
432,192,138454,1,0
432,240,138654,1,0
416,288,138853,1,0
376,320,139053,1,0
320,320,139253,6,0,B|240:320,1,70
192,320,139653,1,0
144,304,139853,1,0
96,304,140053,1,0
48,288,140253,1,0
32,240,140453,1,0
32,192,140653,1,0
48,144,140852,6,0,B|48:64,1,70
96,80,141252,1,0
144,96,141452,1,0
176,136,141652,1,0
224,152,141852,1,0
256,192,142251,12,0,143051
384,224,143451,1,0
384,176,143651,1,0
304,128,144050,2,0,B|224:128,1,70
176,128,144450,1,0
128,144,144650,1,0
80,144,144850,1,0
80,192,145050,1,0
64,240,145250,1,0
64,288,145450,1,0
112,304,145649,6,0,B|192:304,1,70
240,304,146049,1,0
288,272,146249,1,0
336,304,146449,1,0
384,272,146649,1,0
440,288,146849,1,0
440,232,147049,1,0
472,184,147249,6,0,B|472:104,1,70
256,192,147848,12,0,149447
128,224,149847,1,0
128,176,150047,1,0
216,104,150446,2,0,B|296:104,1,70
344,104,150846,1,0
392,120,151046,1,0
440,120,151246,1,0
440,168,151446,1,0
456,216,151646,1,0
456,264,151846,1,0
408,280,152045,6,0,B|328:280,1,70
280,280,152445,1,4
232,248,152645,1,4
184,280,152845,1,4
136,248,153045,1,4
80,264,153245,1,4
80,208,153445,1,4
48,160,153645,6,0,B|48:80,1,70
256,192,154245,12,0,155844
224,128,156244,5,2
240,176,156444,2,2,B|320:256|368:96|240:0|128:80|96:192|192:272|251:285|256:272,1,420
336,288,158043,1,2
448,288,158443,1,2
448,176,158842,2,6,B|448:48|304:16|304:192,1,280
352,32,160442,6,0,B|272:160,1,140
384,112,161241,2,2,B|224:80,1,140
208,176,162041,2,0,B|352:112,1,140
288,192,162840,1,2
288,192,163040,1,2
288,192,163240,1,2
288,192,163640,5,4
176,192,164040,1,2
64,192,164439,1,4
176,192,164839,1,2
288,192,165239,1,4
176,192,165639,1,2
176,80,166039,1,4
176,80,166238,1,4
176,80,166438,1,4
288,80,166838,6,4,B|368:80|304:208,3,140
240,144,168437,6,4,B|160:144|224:272,2,140
240,144,169437,1,4
240,144,169637,1,4
352,144,170036,5,2
240,144,170436,1,2
296,56,170836,1,2
352,144,171236,1,2
296,224,171636,1,2
352,144,172035,1,2
352,32,172435,1,2
352,32,172635,1,2
352,32,172835,1,6
352,80,173035,6,0,B|352:160,3,70
340,199,173834,2,0,B|292:199,1,35
304,200,174034,1,0
256,192,174234,1,0
208,192,174434,1,0
96,192,174834,2,0,B|96:272,2,70
176,256,175633,2,0,C|176:336,2,70
96,192,176433,6,2,B|176:192,2,70
96,144,177033,1,2
96,120,177133,2,2,B|144:120,1,35
176,120,177433,1,2
224,120,177632,2,2,B|368:120,1,140
364,120,178232,1,2
368,168,178432,2,2,B|368:264,1,70
360,288,178832,2,2,B|280:288,1,70
256,192,179631,12,4,182230
192,80,182430,2,0,B|192:128,2,35
256,80,182830,1,0
320,80,183030,1,0
256,80,183229,1,0
256,144,183429,1,0
208,192,183629,1,0
160,144,183829,1,0
208,80,184029,2,0,B|112:80|128:176,1,140
144,208,184629,1,0
176,240,184829,1,0
288,240,185228,2,0,B|368:240,2,70
256,192,185828,12,4,187427
80,96,187627,5,4
192,96,187927,5,4
304,96,188227,5,4
304,240,188627,5,4
224,240,188826,5,4
