osu file format v5

[General]
AudioFilename: Daler_Menhdi-01-Tunak_Tunak_Tun.mp3
AudioLeadIn: 0
PreviewTime: -1
Countdown: 1
SampleSet: Normal
StackLeniency: 0.7
Mode: 0
LetterboxInBreaks: 1
EditorBookmarks: 1204,29297,45497,75697,88397,116897,130158,160497,172897,189297

[Metadata]
Title:Tunak Tunak Tun
Artist:Daler Mehndi
Creator:Pokebis
Version:Easy
Source:
Tags:

[Difficulty]
HPDrainRate:4
CircleSize:3
OverallDifficulty:4
SliderMultiplier:1.4
SliderTickRate:4

[Events]
//Background and Video events
1,2350,"Tunak Tunak Tun.AVI"
//Break Periods
2,117097,128997
//Storyboard Layer 0 (Background)
//Storyboard Layer 1 (Failing)
//Storyboard Layer 2 (Passing)
//Storyboard Layer 3 (Foreground)
//Storyboard Sound Samples
//Background Colour Transformations
3,100,163,162,255

[TimingPoints]
29312,399.786780383795,4,1,0,100

[HitObjects]
96,80,29312,1,0
288,80,30111,1,0
480,80,30911,1,0
480,272,31710,2,0,L|400:272,2,70
480,176,32510,5,0
280,176,33309,1,0
80,176,34109,1,0
80,64,34909,2,0,L|168:64,2,70
64,192,35708,6,2,B|504:192,1,420
488,288,37307,1,2
296,296,38107,2,0,L|208:296,2,70
424,288,38906,6,2,B|-16:288,1,420
32,192,40506,1,2
232,192,41305,2,2,L|328:192,2,70
456,184,42105,6,2,B|16:184,1,420
48,40,43704,1,2
320,40,44503,2,2,C|424:40,2,70
392,240,45503,6,0,B|302:367|232:208,1,210
352,176,46502,2,0,B|288:160|312:24|175:249|96:196|128:96,1,280
216,64,47702,1,0
352,56,48101,1,0
352,56,48301,1,0
352,136,48501,2,0,B|456:192|272:336|208:200,1,280
152,88,49701,6,0,B|287:212|512:88,1,350
496,176,50900,2,0,B|496:352,1,140
424,312,51500,1,0
288,288,51899,6,0,B|415:198|256:128,1,210
176,248,52899,2,0,B|-6:228|224:32,1,280
328,32,54098,1,0
440,120,54498,1,0
440,120,54698,1,0
384,160,54898,2,0,B|328:264|184:80|320:16,1,280
168,32,56097,6,0,B|44:167|168:392,1,350
224,360,57297,2,0,B|400:360,1,140
368,288,57896,1,0
392,184,58296,6,0,B|519:94|360:24,1,210
232,48,59296,2,0,B|50:68|272:256,1,280
384,264,60495,1,0
240,264,60895,1,0
240,264,61095,1,0
168,264,61294,2,0,B|64:268|-32:184|144:88,1,280
264,96,62494,6,0,B|392:208|200:152|280:264|456:256,1,280
472,344,63693,2,0,B|296:344,1,140
264,344,64293,1,0
288,288,64693,6,0,B|415:198|256:128,1,210
408,112,65692,2,0,B|590:132|360:320,1,280
256,320,66891,1,0
112,320,67291,1,0
112,320,67491,1,0
40,320,67691,2,0,B|-64:264|120:120|184:256,1,280
200,104,68890,6,0,C|296:104,5,70
200,104,70090,2,0,B|200:280,1,140
128,240,70689,1,0
176,160,71089,5,0
288,160,71489,1,0
256,192,71689,12,0,75287
72,80,75687,5,0
352,72,76486,1,0
360,352,77286,1,0
256,128,78085,2,0,C|256:208,2,70
384,320,78885,6,2,B|384:24,1,280
104,72,80484,1,2
104,184,81284,2,2,C|16:184,2,70
240,160,82083,6,2,C|408:160,1,140
376,224,82883,2,2,B|216:224,1,140
240,296,83683,2,2,B|384:296,1,140
464,296,84482,2,2,C|464:224,2,70
320,296,85282,6,2,C|320:128,1,140
256,160,86081,2,2,B|256:320,1,140
184,296,86881,2,2,B|184:152,1,140
184,72,87680,2,2,C|256:72,2,70
208,144,88480,6,0,B|208:240,5,70
208,280,89679,1,0
344,280,90079,2,0,B|440:280,2,70
344,136,90879,2,0,B|344:56,2,70
352,272,91678,6,0,B|272:272,5,70
208,272,92878,1,0
208,128,93277,2,0,B|208:48,2,70
312,128,94077,2,0,B|312:48,2,70
256,192,94877,12,4,97675
208,112,98075,2,0,B|304:112,6,70
104,112,99674,6,0,B|104:208,2,70
272,168,100474,2,0,B|272:88,1,70
272,24,100873,6,2,L|208:24|176:64|168:144|192:232|288:240|344:240,1,420
112,264,102872,6,4,L|240:264,2,105
112,120,103872,2,4,L|112:24,1,70
232,120,104471,5,4
80,120,105271,1,4
80,304,106071,1,4
360,312,106870,2,0,L|448:312,2,70
352,160,107670,5,4
72,160,108469,1,4
72,328,109269,1,4
352,336,110068,2,4,L|432:336,2,70
352,192,110868,6,4,L|192:192,1,140
216,128,111668,2,4,L|360:128,1,140
352,192,112467,2,4,L|184:192,1,140
72,192,113267,2,0,L|72:96,2,70
256,192,114066,12,4,116065
256,80,116465,2,4,L|168:80,2,70
376,80,130258,6,0,B|378:200|376:320,1,210
240,288,131257,2,0,B|160:288,7,70
176,216,132856,6,0,B|256:216,7,70
248,144,134455,6,0,L|160:144,5,70
40,120,135855,6,0,B|144:48|340:83|344:176,1,350
336,232,137054,2,0,B|248:232,1,70
264,88,137654,2,0,B|344:88,7,70
336,160,139253,6,0,B|256:160,7,70
304,216,140852,6,0,B|304:296,1,70
232,280,141252,2,0,C|232:200,3,70
96,232,142251,6,0,B|120:144|280:136,1,210
264,208,143051,6,0,B|440:208,1,140
408,136,143651,1,0
304,128,144050,2,0,B|224:128,7,70
232,200,145649,6,0,B|312:200,7,70
368,200,147249,6,0,B|368:120,1,70
224,136,147848,6,0,C|144:136,4,70
424,256,149447,6,0,B|352:296|232:256|200:216,1,210
160,112,150447,6,0,B|240:112,7,70
232,184,152046,6,0,B|152:184,7,70
88,184,153645,6,0,B|88:104,1,70
192,104,154245,6,0,B|272:104,4,70
192,192,155444,1,0
256,192,156444,12,6,159642
112,80,160442,1,0
392,80,161241,1,0
392,328,162041,1,0
80,336,162840,2,0,B|80:240,2,70
216,336,163640,5,4
496,336,164439,1,4
488,56,165239,1,2
344,48,166039,2,0,C|248:48,2,70
304,96,166838,6,4,B|384:96|320:224,5,140
192,192,169237,2,4,C|192:96,2,70
320,144,170036,5,2
40,136,170836,1,2
320,136,171636,1,2
312,304,172435,2,0,C|408:304,2,70
312,232,173035,6,0,B|392:232,5,70
448,232,174234,2,0,C|448:160,1,70
448,24,174834,2,0,B|368:24,2,70
384,152,175633,2,0,B|464:152,2,70
96,192,176433,6,2,B|176:192,6,70
176,72,178032,2,0,C|248:72,1,70
312,80,178432,2,2,B|312:232,2,140
256,192,179631,12,4,182230
192,80,182430,2,0,B|192:152,6,70
264,72,183829,1,0
336,72,184029,2,0,C|336:216,1,140
336,280,184629,2,0,C|240:280,1,70
128,280,185228,2,0,B|128:200,2,70
256,192,185828,12,4,187627
184,88,187927,2,4,C|304:88,1,105
280,264,188627,6,4,C|200:264,1,70
