osu file format v5

[General]
AudioFilename: truenote3.mp3
AudioLeadIn: 0
PreviewTime: -1
Countdown: 1
SampleSet: Normal
StackLeniency: 0.7
Mode: 0
LetterboxInBreaks: 1
EditorDistanceSpacing: 0.800000011920929

[Metadata]
Title:True-Note
Artist:Daler Mehndi
Creator:climbb65588
Version:Easy
Source:
Tags:

[Difficulty]
HPDrainRate:4
CircleSize:4
OverallDifficulty:4
SliderMultiplier:1.4
SliderTickRate:1

[Events]
//Background and Video events
1,0,"-TRUE NOTE-3.flv"
0,0,"truenote.PNG"
//Break Periods
2,35074,35541
//Storyboard Layer 0 (Background)
//Storyboard Layer 1 (Failing)
//Storyboard Layer 2 (Passing)
//Storyboard Layer 3 (Foreground)
//Storyboard Sound Samples
//Background Colour Transformations
3,100,163,162,255

[TimingPoints]
0,373.250388802488,4,1,0,100,1,0
6867,373.250388802488,4,1,0,100,1,0
42699,373.250388802488,4,2,0,100,1,0
48668,373.250388802488,4,1,0,100,1,0
65837,186.625194401244,4,1,0,100,1,0
74235,746.500777604977,4,1,0,100,1,0

[Colours]
Combo1 : 255,70,70
Combo2 : 251,60,4
Combo3 : 2,128,43
Combo4 : 64,0,0

[HitObjects]
64,64,6867,1,2
256,64,7613,1,2
256,192,8360,2,0,B|96:192,1,140
64,192,9106,1,2
128,288,9853,2,2,B|416:288,1,280
480,288,10972,1,0
480,160,11532,5,0
352,160,12092,2,2,B|192:160,2,140
352,256,13212,1,0
256,288,13958,2,2,B|224:320|96:288,2,140
160,192,15078,5,0
288,192,15825,1,0
384,192,16571,2,0,B|384:288|352:320|288:352|224:320,2,280
384,96,18437,2,2,B|384:32|288:32,1,70
256,32,18997,5,2
192,128,19557,1,0
192,224,20304,1,2
288,224,20677,2,2,B|384:224,2,70
320,320,21423,5,0
448,320,21797,2,0,B|448:160,3,140
384,96,23290,1,2
288,96,23663,1,2
192,96,24036,2,2,B|128:128|128:224|224:320,1,210
320,256,24969,5,0
416,192,25529,1,0
352,128,25902,2,2,B|320:96|288:96|224:96|224:160,3,140
160,224,27395,5,0
234,224,27769,1,0
372,224,28515,1,0
448,224,28888,2,2,B|448:384,2,140
448,128,30008,1,4
288,96,30755,6,2,B|192:64|128:96|96:160|128:256,1,280
160,320,31874,1,0
224,256,32248,1,0
288,256,32621,1,4
352,256,32994,2,2,B|352:160,2,70
256,192,33741,12,4,34860
128,96,36727,6,0,B|288:96,1,140
256,192,37473,2,2,B|96:192,1,140
192,320,38220,1,4
288,320,38966,5,2
352,320,39339,1,2
416,320,39713,2,0,B|416:224,1,140
416,128,40459,1,2
416,128,40832,1,2
320,64,41206,6,0,B|32:64,1,280
64,160,42325,1,4
192,160,42699,6,2,B|192:320,2,140
192,160,43818,2,0,B|384:160,2,140
192,64,44938,1,4
288,64,45311,1,4
384,64,45685,6,0,B|384:352,1,280
288,320,46804,1,2
192,320,47551,1,2
128,320,47924,1,2
64,320,48297,1,2
64,192,48668,6,2,B|256:192,1,140
205,111,49414,1,0
320,192,50161,1,0
448,192,50907,2,2,B|448:352,2,140
384,96,52400,5,0
256,96,53147,1,0
128,96,53893,2,2,B|128:288,1,140
192,320,54640,6,0,B|352:320,3,140
352,224,56133,2,0,B|192:224,3,140,0|0|2|2
160,128,57626,5,2
224,96,57999,1,2
288,96,58372,1,0
352,128,58745,2,0,B|352:320,2,140
448,128,59865,1,4
448,224,60238,1,4
448,352,60612,6,2,B|128:352,2,280
384,256,62851,1,4
384,256,63224,1,4
256,192,63598,12,4,65744
64,64,66303,5,0
448,64,67516,1,0
448,320,68729,1,0
96,320,69942,1,0
256,192,71062,12,0,72182
256,192,72555,12,4,74235
