osu file format v5

[General]
AudioFilename: 01.Brave your truth.mp3
AudioLeadIn: 1996
PreviewTime: -1
Countdown: 0
SampleSet: Normal
StackLeniency: 0.7
Mode: 0
LetterboxInBreaks: 1
EditorBookmarks: 20631,98965

[Metadata]
Title:Brave Your Truth
Artist:Daisy x Daisy
Creator:kioukiou
Version:Normal
Source:
Tags:

[Difficulty]
HPDrainRate:6
CircleSize:4
OverallDifficulty:5
SliderMultiplier:1.4
SliderTickRate:0.5

[Events]
//Background and Video events
0,0,"04.jpg"
//Break Periods
2,88956,97765
//Storyboard Layer 0 (Background)
//Storyboard Layer 1 (Failing)
//Storyboard Layer 2 (Passing)
//Storyboard Layer 3 (Foreground)
//Storyboard Sound Samples
//Background Colour Transformations
3,100,128,128,128

[TimingPoints]
215,416.666666666667,4,1,0,100,1

[HitObjects]
424,72,20631,1,0
296,72,21048,1,0
360,176,21465,2,2,B|288:232|216:160,1,140
160,72,22298,1,0
32,72,22715,1,0
96,184,23131,2,2,B|168:240|248:168,1,140
288,184,23756,5,0
288,184,23965,2,0,B|288:288,2,70
352,184,24590,2,0,B|352:80,1,70
176,48,25423,2,0,B|104:112|184:176,2,140,0|0|8
176,48,26465,1,8
424,48,27298,5,0
424,176,27715,1,0
424,304,28131,2,2,B|360:352|272:296,1,140
296,184,28965,1,0
168,184,29381,1,0
40,184,29798,2,2,B|8:104|56:32,1,140
168,56,30631,5,0
168,56,30840,2,0,B|264:56,2,70
168,120,31465,2,0,B|168:280,2,140
296,120,32715,1,0
296,248,33131,1,0
360,248,33340,1,8
424,248,33548,1,8
424,120,33965,5,0
328,40,34381,1,0
224,120,34798,2,2,L|184:64|120:128,1,140
128,240,35631,1,0
224,320,36048,1,0
320,240,36465,2,2,L|368:296|408:240,1,140
320,152,37298,5,0
256,152,37506,1,0
192,152,37715,2,0,B|144:184|208:224,2,70,0|8|8
256,328,38756,1,0
384,328,39173,1,0
320,328,39381,2,0,B|320:256,2,70,0|8|8
168,128,40631,5,0
168,128,41048,1,0
168,128,41464,2,2,B|232:216|296:104,1,140
408,128,42298,1,0
408,128,42714,1,0
408,128,43131,2,2,B|344:208|280:120,1,140
296,72,43756,5,0
232,72,43964,1,0
168,72,44173,1,0
104,72,44381,2,0,B|56:112|120:144,3,70
96,192,45214,2,0,B|240:192,1,140
360,192,46048,1,0
360,320,46464,1,0
296,320,46673,1,8
232,320,46881,1,8
104,320,47298,5,4
104,192,47714,1,0
232,192,48131,1,0
232,64,48548,1,0
360,64,48964,2,0,B|424:104|352:160,2,105
360,64,49798,1,0
232,64,50214,5,0
104,64,50631,2,0,B|48:128|104:200,2,140
200,144,51881,1,0
200,272,52298,1,0
328,272,52714,1,0
328,144,53131,1,0
456,144,53548,6,0,B|456:56,2,70,0|0|4
328,144,54381,2,0,B|264:216|336:272,2,140
200,160,55631,2,0,B|264:88|184:24,2,140
72,160,56881,5,0
72,224,57089,1,0
72,288,57298,1,0
256,296,57923,1,0
256,296,58131,2,0,B|176:240|272:160,1,140
256,192,58964,12,4,60631
120,296,61048,5,0
224,224,61464,1,0
312,136,61881,1,0
184,136,62298,2,2,B|112:72|48:152,2,140
176,264,63548,1,0
176,264,63756,1,0
176,264,63964,2,2,B|272:256|240:152,2,140
88,168,65214,6,0,B|16:104|112:40,2,140
216,168,66464,1,0
312,80,66881,1,0
400,168,67298,1,0
312,256,67714,1,0
312,256,67923,1,0
312,256,68131,2,0,B|256:328|168:248,1,140
64,264,68964,6,2,B|0:192|96:120,2,140
192,264,70214,1,8
192,264,70423,1,8
192,264,70631,2,2,B|264:192|176:128,2,140
64,264,71881,1,0
256,192,72298,12,0,74589
384,80,75006,5,0
256,80,75423,1,0
256,80,75631,2,2,B|184:152|272:216,2,140
352,160,76881,1,8
352,224,77089,1,8
352,288,77298,2,2,B|208:288,2,140
448,128,78756,5,0
448,128,78965,2,0,B|336:128,2,105
416,184,79798,2,0,B|280:184,2,105
384,240,80631,2,0,B|256:240,2,105
352,296,81465,2,0,B|200:296,1,140
136,192,82298,6,2,B|72:128|144:72,2,140
264,192,83548,1,8
264,192,83756,1,8
264,192,83965,2,2,B|336:128|240:56,2,140
184,288,85215,1,0
256,192,85631,12,4,88756
384,80,98965,5,0
256,80,99381,1,0
320,192,99798,2,2,B|248:256|176:176,1,140
128,304,100631,1,0
256,304,101048,1,0
192,192,101465,2,2,B|256:136|328:200,1,140
440,192,102298,5,0
440,64,102715,2,0,B|440:136,2,70,0|8|8
248,56,103756,1,0
120,56,104173,1,0
184,56,104381,2,0,B|184:152,2,70,0|8|8
184,304,105631,6,0,B|120:240|208:168,1,140
304,240,106465,2,2,B|240:168|328:112,1,140
440,104,107298,2,0,B|504:168|432:232,1,140
328,168,108131,2,2,B|392:232|312:304,1,140
200,296,108965,5,0
152,248,109173,1,0
104,208,109381,1,0
64,152,109590,2,0,B|64:208|0:184,2,70
128,152,110215,2,0,B|288:152,1,140
392,160,111048,1,0
392,32,111465,1,0
392,96,111673,1,8
328,96,111881,1,8
200,96,112298,6,0,B|120:136|168:240,2,140,4|0|0
328,96,113548,1,0
328,224,113965,2,0,B|400:256|352:320,2,105
328,224,114798,1,0
200,224,115215,5,0
200,224,115423,1,0
200,224,115631,2,0,B|120:168|224:96,3,140
328,104,117298,1,0
328,232,117715,1,0
456,232,118131,1,0
328,232,118548,6,0,B|264:312|192:208,1,140,0|4
208,104,119381,2,0,B|272:32|336:120,1,140
440,168,120215,1,0
440,168,120423,1,0
440,168,120631,2,0,B|320:168,2,105
440,168,121465,1,0
352,80,121881,5,0
352,80,122298,1,0
160,80,122923,1,0
160,80,123131,2,0,B|88:152|184:224,1,140
256,192,123965,12,0,125631
368,96,126048,5,0
280,184,126465,1,0
192,272,126881,1,0
96,192,127298,2,2,B|32:128|96:56,2,140
280,192,128756,1,0
280,192,128965,2,2,B|352:256|256:336,2,140
88,192,130423,5,0
88,192,130631,2,0,B|40:128|104:48,1,140
216,64,131465,1,0
216,192,131881,1,0
216,320,132298,2,0,B|288:360|360:312,3,140
352,192,133965,6,2,B|424:128|344:64,2,140
224,192,135215,1,8
224,192,135423,1,8
224,192,135631,2,2,B|64:192,2,140
224,64,136881,1,0
256,192,137298,12,0,139590
432,112,140006,5,8
432,112,140215,1,8
432,112,140423,1,8
432,112,140631,2,2,B|368:184|296:96,2,140
432,240,141881,1,8
432,240,142090,1,8
432,240,142298,2,2,B|368:184|288:248,2,140
256,320,143756,5,0
256,320,143965,2,0,B|128:320,2,105
224,264,144798,2,0,B|96:264,2,105
192,208,145631,2,0,B|72:208,2,105
160,152,146465,2,0,B|0:152,1,140
112,64,147298,6,2,B|184:8|256:80,2,140
184,160,148548,1,8
184,160,148756,1,8
184,160,148965,2,2,B|248:232|328:144,2,140
184,288,150215,1,0
256,192,150631,12,4,153756
