osu file format v9

[General]
AudioFilename: kuroshitsuji 01. You will rule the world.mp3
AudioLeadIn: 0
PreviewTime: -1
Countdown: 3
SampleSet: Normal
StackLeniency: 0.7
Mode: 0
LetterboxInBreaks: 1

[Editor]
DistanceSpacing: 0.8
BeatDivisor: 2
GridSize: 8

[Metadata]
Title:You will rule the world
Artist:Daisuke Ono
Creator:Shinkukun
Version:Sebastian [Hard]
Source:Kuroshitsuji
Tags:Kuroshitsuji daisuke ono sebastian you will rule the world

[Difficulty]
HPDrainRate:6
CircleSize:6
OverallDifficulty:6
ApproachRate:6
SliderMultiplier:1.4
SliderTickRate:1

[Events]
//Background and Video events
0,0,"485453.jpg"
//Break Periods
2,146775,152352
2,235947,248352
//Storyboard Layer 0 (Background)
//Storyboard Layer 1 (Fail)
//Storyboard Layer 2 (Pass)
//Storyboard Layer 3 (Foreground)
//Storyboard Sound Samples
//Background Colour Transformations
3,100,163,162,255

[TimingPoints]
1127.0514463319,413.793103448276,4,1,0,100,1,0
172699,-100,4,1,0,100,0,1
222920,-100,4,1,0,100,0,0
261990,-100,4,1,0,100,0,1

[Colours]
Combo1 : 128,128,128
Combo2 : 192,192,192
Combo3 : 84,71,78
Combo4 : 255,255,255

[HitObjects]
256,192,5471,12,0,7747
328,192,11058,5,0
384,192,11264,2,0,B|384:96,2,70
344,232,11885,5,0
296,232,12092,2,0,B|136:232,1,140
72,328,12920,1,0
72,280,13127,2,0,B|200:280,4,70
72,232,14161,1,0
120,232,14368,5,0
168,232,14574,2,0,B|168:136,2,70
216,232,15195,5,0
216,280,15402,2,0,B|56:280,1,140
208,80,16230,1,0
256,80,16437,2,0,B|384:80,4,70
128,216,17678,1,0
320,192,18506,6,0,B|448:192,4,70
232,112,19747,5,0
232,152,19954,1,0
232,192,20161,1,0
272,192,20368,1,0
312,192,20575,1,0
360,192,20782,5,0
400,152,21609,5,0
400,112,21816,2,0,B|176:112,1,210
144,120,22644,1,0
144,160,22851,5,0
144,200,23058,1,0
144,240,23264,1,0
192,240,23471,2,0,B|352:240,1,140
336,288,24092,1,0
296,288,24299,2,0,B|220:288,3,70
192,288,25127,1,0
152,288,25333,5,0
176,336,25540,6,0,B|48:336,2,70
216,336,26161,1,0
264,336,26368,2,0,B|456:336,1,140
400,288,26989,1,0
400,248,27196,1,0
368,216,27402,1,0
336,184,27609,1,0
304,160,27816,1,0
328,120,28023,6,0,B|48:120|48:120,1,280
48,168,29058,1,0
96,168,29264,1,0
144,168,29471,1,0
184,208,29678,1,0
152,256,29885,1,0
184,248,30092,6,0,B|280:248,3,70
296,248,30920,1,0
328,232,31127,1,0
352,200,31333,1,0
360,160,31540,1,0
352,128,31747,2,0,B|264:128,1,70
256,128,32161,2,0,B|256:256,1,70
256,240,32575,2,0,B|184:240,1,70
184,200,32989,6,0,B|184:128,1,70
184,88,33402,2,0,B|96:88,2,70
232,88,34023,6,0,B|312:88,2,70
232,128,34644,5,0
232,168,34851,1,0
272,168,35058,1,0
272,208,35264,5,0
272,256,35471,1,0
312,256,35678,2,0,B|472:256,1,140
448,304,36299,2,0,B|352:304,1,70
336,304,36713,2,0,B|240:304,1,70
224,280,37127,2,0,B|224:184,1,70
224,168,37540,2,0,B|128:168,1,70
152,120,37954,6,0,B|280:120,1,70
280,120,38368,2,0,B|280:216,3,70
256,192,39816,12,0,40851
336,192,41058,5,0
384,192,41264,2,0,B|384:96,2,70
344,232,41885,5,0
304,232,42092,2,0,B|144:232,1,140
128,280,42713,1,0
168,280,42920,1,0
208,280,43127,2,0,B|336:280,4,70
312,232,44161,5,0
352,232,44367,2,0,B|352:136,2,70
336,280,44988,5,0
288,280,45195,6,0,B|128:280,1,140
152,240,45816,1,0
200,240,46023,1,0
248,240,46230,2,0,B|376:240,4,70
136,160,47264,1,0
176,160,47471,1,0
216,160,47678,1,0
256,160,47885,5,0
288,160,48092,1,0
320,160,48299,1,0
360,160,48506,1,0
400,160,48713,1,0
400,184,48920,2,0,B|216:336,1,210
192,328,49747,5,0
192,288,49954,1,0
232,288,50161,1,0
272,288,50368,1,0
312,288,50575,5,0
352,288,50782,1,0
392,288,50989,1,0
424,288,51196,6,0,B|344:168|160:128|160:176,1,280
128,144,52230,2,0,B|128:352,1,210
256,192,53264,12,0,54092
192,144,54506,6,0,B|488:144,1,280
472,192,55540,1,0
472,240,55747,1,0
472,288,55954,1,0
424,288,56161,5,0
376,288,56368,1,0
376,240,56575,1,0
328,240,56782,2,0,B|168:240,1,140
144,240,57402,1,0
144,192,57609,2,0,B|144:64,4,70
272,48,58851,2,0,B|432:48,1,140
352,160,59678,1,0
384,160,59885,5,0
384,192,60092,1,0
384,224,60299,1,0
384,264,60506,1,0
384,304,60713,6,0,B|200:304,1,140
88,304,61540,2,0,B|88:144,1,140
144,160,62161,1,0
200,160,62368,2,0,B|320:160,2,70
200,208,62989,1,0
208,256,63196,2,0,B|360:256,2,140
256,192,64437,12,0,65471
232,128,66506,5,0
184,128,66713,1,0
176,80,66920,6,0,B|304:80,2,70
288,96,67747,6,0,B|384:96,1,70
416,128,68368,2,0,B|416:288,2,140
352,256,69609,2,0,B|192:256,1,140
256,192,70437,12,0,71678
192,256,72092,6,0,B|288:256,4,70
256,224,73127,1,0
288,192,73333,2,0,B|384:192,2,70
256,160,73954,2,0,B|96:64,1,140
96,96,74575,2,0,B|96:320,1,210
128,320,75402,2,0,B|320:320,1,140
256,192,76230,12,0,77264
96,192,77885,5,0
320,24,78299,1,0
320,192,78713,1,0
248,304,79954,2,0,B|152:304,2,70
256,192,80471,12,0,81402
160,192,81816,6,0,B|256:192,3,70
232,240,82644,2,0,B|392:240,1,140
416,216,83264,1,0
416,176,83471,5,0
368,176,83678,1,0
320,176,83885,1,0
216,176,84299,1,0
336,336,84713,1,0
88,352,85127,1,0
96,192,85540,6,0,B|384:192,1,280
488,192,86782,1,0
376,80,87196,1,0
296,192,87609,1,0
256,192,88023,12,0,88644
96,160,89058,6,0,B|160:160|192:160,5,70
96,288,90506,2,0,B|320:288,1,210
352,288,91333,1,0
352,184,91747,2,0,B|352:88,1,70
248,56,92368,2,0,B|88:56,1,140
96,192,93402,2,0,B|256:192,1,140
256,192,94230,1,0
288,192,94437,1,0
256,256,95058,5,0
288,256,95265,1,0
192,176,96092,1,0
240,176,96299,1,0
192,224,96506,1,0
240,224,96713,1,0
192,272,96920,1,0
240,272,97127,1,0
384,288,97540,6,0,B|384:192,1,70
424,104,98161,2,0,B|264:104,1,140
168,160,98989,1,0
256,160,99402,1,0
344,160,99816,2,0,B|344:384,1,210
272,320,100851,1,0
232,320,101058,1,0
288,160,101678,1,0
248,160,101885,1,0
216,104,102713,2,0,B|288:104,4,70
224,128,103747,5,0
224,160,104161,2,0,B|320:160,1,70
320,160,104575,5,0
352,160,104782,2,0,B|352:320,1,140
384,320,105402,1,0
336,304,105609,6,0,B|240:304,2,70
344,344,106230,1,0
448,344,106644,1,0
256,192,107058,12,0,107885
448,280,108092,5,0
448,224,108299,1,0
496,168,108506,1,0
448,160,108920,2,0,B|96:160,1,350
256,192,110264,12,0,111196
320,152,111402,5,0
320,192,111609,1,0
320,224,111816,1,0
320,272,112230,2,0,B|232:272,2,70
256,192,112851,12,0,116161
384,232,116989,5,0
384,192,117195,2,0,B|384:96,2,70
336,232,117816,5,0
288,232,118023,2,0,B|128:232,1,140
136,136,118851,1,0
176,136,119058,2,0,B|304:136,4,70
176,96,120092,1,0
336,192,120299,5,0
384,192,120505,2,0,B|384:96,2,70
384,232,121126,5,0
384,272,121333,2,0,B|224:272,1,140
248,224,122161,1,0
248,176,122368,2,0,B|376:176,4,70
384,288,123609,6,0,B|384:128,1,140
384,104,124437,1,0
240,104,124851,1,0
240,240,125264,1,0
80,104,125678,6,0,B|80:264,2,140
256,104,126920,2,0,B|416:104,2,140
376,216,128161,2,0,B|216:216,1,140
96,168,128989,2,0,B|256:168,1,140
96,56,129816,1,0
224,56,130230,1,0
352,56,130644,5,0
352,184,131058,1,0
256,184,131471,1,0
96,184,131885,1,0
96,320,132299,1,0
256,320,132713,1,0
448,320,133127,2,0,B|448:160,3,140
256,192,134782,12,0,135196
352,232,136023,5,0
352,192,136229,2,0,B|352:96,2,70
352,272,136851,2,0,B|192:272,1,140
176,272,137471,1,0
160,128,138092,2,0,B|256:128,1,70
432,288,139127,2,0,B|336:288,1,70
320,288,139540,2,0,B|224:288,1,70
200,288,139954,2,0,B|200:192,3,70
248,216,140782,6,0,B|472:216,1,210
456,176,141609,1,0
384,128,142644,6,0,B|256:128,2,70
384,304,143471,1,0
128,304,144092,1,0
192,160,145747,1,0
344,160,145954,1,0
264,160,146161,1,0
264,120,146264,1,0
264,224,146575,1,0
256,192,153402,12,0,154851
256,288,155264,6,0,B|256:64,2,210
440,288,156920,2,0,B|440:128,2,140
384,288,158161,1,0
320,176,158575,1,0
248,56,158989,1,0
104,48,159609,5,0
248,168,160023,2,0,B|24:168,1,210
40,208,160851,5,0
56,64,161471,1,0
192,64,161885,1,0
328,64,162299,1,0
328,184,162713,1,0
192,192,163127,1,0
192,304,163540,2,0,B|416:304,2,210
352,240,165196,5,0
496,160,165609,1,0
448,160,165816,2,0,B|160:160,1,280
24,352,167471,2,0,B|312:352,1,280
56,160,169127,1,0
112,160,169437,1,0
256,192,169747,12,0,171402
160,128,172851,6,0,B|320:128,1,140
304,280,173678,2,0,B|208:280,1,70
160,128,174299,1,0
128,128,174506,1,0
96,128,174713,1,0
416,336,175540,2,0,B|512:336,4,70
288,296,176575,2,0,B|416:200|416:200|352:136|320:136,1,210
288,128,177609,5,0
256,128,177816,1,0
224,128,178023,1,0
256,192,178230,12,0,179058
160,192,179471,6,0,B|320:192,1,140
480,320,180299,2,0,B|352:320,1,70
472,112,181127,2,0,B|376:112,1,70
280,256,182161,1,0
320,256,182368,1,0
288,224,182575,1,0
248,224,182782,1,0
216,192,182989,2,0,B|472:192,1,210
424,144,183816,6,0,B|136:144,1,280
120,184,185058,1,0
304,184,185471,1,0
272,368,186506,2,0,B|96:368,3,140
128,320,187954,2,0,B|256:320,1,70
200,272,188368,2,0,B|104:272,1,70
136,224,188782,2,0,B|248:224,1,70
136,176,189196,5,0
136,128,189402,1,0
288,32,189816,1,0
336,32,190023,1,0
312,64,190230,5,0
312,104,190437,1,0
312,152,190644,1,0
360,152,190851,1,0
408,152,191058,1,0
408,200,191264,1,0
200,208,191678,1,0
64,320,192506,6,0,B|288:320,1,210
272,272,193333,2,0,B|176:272,2,70
408,120,194161,2,0,B|408:192,2,70
304,72,194989,2,0,B|304:232,1,140
160,96,196437,2,0,B|256:96,1,70
272,96,196851,2,0,B|272:168,1,70
232,168,197264,6,0,B|136:168,1,70
112,168,197678,2,0,B|112:256,1,70
16,88,198299,2,0,B|240:88,1,210
112,160,199333,1,0
288,160,199747,1,0
320,224,200161,1,0
288,224,200368,1,0
312,280,200782,2,0,B|392:280,4,70
336,176,202023,6,0,B|240:176,5,70
192,320,203471,2,0,B|96:320,1,70
256,320,204092,2,0,B|256:160,1,140
224,128,204920,2,0,B|320:128,6,70
192,128,206368,1,0
304,240,206782,1,0
272,240,206989,1,0
88,192,207609,1,0
128,192,207816,1,0
256,192,208644,12,0,209678
232,192,210092,5,0
280,192,210299,1,0
144,192,210713,1,0
384,200,211127,1,0
256,312,211540,1,0
256,88,211954,1,0
256,192,212368,1,0
256,192,212885,12,0,213816
192,160,214023,5,0
224,160,214230,1,0
256,160,214437,1,0
296,160,214644,2,0,B|368:160,5,70
408,160,215885,1,0
256,192,216299,12,0,217127
224,128,217333,5,0
256,128,217540,1,0
296,128,217747,1,0
336,128,217954,2,0,B|336:200,1,70
336,232,218368,2,0,B|240:232,1,70
256,192,218678,12,0,222092
192,160,222299,5,0
192,192,222506,1,0
192,224,222713,1,0
232,224,222920,2,0,B|360:224,3,105
416,224,224161,1,0
416,256,224471,2,0,B|352:256,6,35
416,288,225402,2,0,B|256:288,1,140
256,224,226023,6,0,B|352:224,5,70
424,96,227471,2,0,B|328:96,1,70
424,144,227885,2,0,B|360:144,6,35
424,192,228712,2,0,B|264:192,1,140
32,192,229540,2,0,B|160:192,3,105
256,192,230781,1,0
256,328,231091,2,0,B|192:328,6,35
392,192,232022,2,0,B|232:192,1,140
112,160,232851,5,0
256,160,233161,1,0
368,256,233471,1,0
224,256,233782,1,0
256,192,234299,12,0,235747
64,64,249402,6,0,B|160:96,1,70
128,128,249816,6,0,B|64:160,1,70
64,200,250230,2,0,B|127:265|128:264,1,70
160,248,250644,2,0,B|288:248,2,70
112,248,251264,2,0,B|112:328,1,70
160,320,251678,2,0,B|240:320,1,70
232,272,252092,5,0
232,224,252299,2,0,B|296:224,4,35
72,64,253127,1,0
112,64,253333,1,0
192,288,253954,2,0,B|416:288,2,210
64,96,256023,2,0,B|224:96,1,140
248,96,256644,6,0,B|408:96|408:96,1,140
72,304,257471,2,0,B|232:304,1,140
416,192,258299,2,0,B|192:192,1,210
64,96,259333,2,0,B|160:96,1,70
176,96,259747,2,0,B|336:96,1,140
232,208,260575,2,0,B|296:208,8,35
368,128,261816,1,0
160,128,262230,6,0,B|320:128,1,140
352,192,263057,2,0,B|256:192,1,70
256,192,263678,1,0
224,192,263885,1,0
192,192,264092,1,0
184,256,264919,2,0,B|88:256,4,70
224,256,265954,2,0,B|352:160|352:160|288:96|256:96,1,210
288,128,266988,5,0
256,128,267195,1,0
224,128,267402,1,0
256,192,267609,12,0,268437
160,192,268850,6,8,B|320:192,1,140
504,192,269678,2,0,B|376:192,1,70
256,200,270506,2,0,B|160:200,1,70
272,256,271540,1,8
320,256,271747,1,0
288,224,271954,1,8
240,224,272161,1,0
256,184,272368,2,0,B|48:184,1,210
48,136,273195,6,8,B|376:136,1,280
96,192,275885,2,0,B|256:192,3,140
320,256,277333,2,8,B|448:256,1,70
392,216,277747,2,8,B|296:216,1,70
320,168,278161,2,8,B|448:168,1,70
392,120,278575,5,0
392,80,278781,1,0
352,80,278989,5,0
304,80,279195,1,8
264,80,279402,1,8
264,120,279609,5,0
224,120,279816,1,8
216,160,280023,1,8
224,200,280230,1,8
224,240,280437,1,0
224,280,280643,1,0
72,160,281057,1,0
64,280,281471,1,0
64,328,281678,6,0,B|416:328,1,350
416,288,283127,2,0,B|320:288,2,70
416,240,283747,2,0,B|320:240,2,70
416,192,284368,2,0,B|416:40,1,140
256,192,285299,12,0,289127
