osu file format v9

[General]
AudioFilename: kuroshitsuji 01. You will rule the world.mp3
AudioLeadIn: 0
PreviewTime: -1
Countdown: 1
SampleSet: Normal
StackLeniency: 0.7
Mode: 0
LetterboxInBreaks: 1

[Editor]
DistanceSpacing: 0.8
BeatDivisor: 2
GridSize: 32

[Metadata]
Title:You will rule the world
Artist:Daisuke Ono
Creator:Shinkukun
Version:Grell [Normal]
Source:Kuroshitsuji
Tags:Kuroshitsuji daisuke ono sebastian you will rule the world

[Difficulty]
HPDrainRate:5
CircleSize:5
OverallDifficulty:5
ApproachRate:5
SliderMultiplier:1.4
SliderTickRate:2

[Events]
//Background and Video events
0,0,"485453.jpg"
//Break Periods
2,40844,46271
2,235120,248202
//Storyboard Layer 0 (Background)
//Storyboard Layer 1 (Fail)
//Storyboard Layer 2 (Pass)
//Storyboard Layer 3 (Foreground)
//Storyboard Sound Samples
//Background Colour Transformations
3,100,163,162,255

[TimingPoints]
1127.0514463319,413.793103448276,4,1,0,100,1,0
172699,-66.6666666666667,4,1,0,100,0,1
222920,-100,4,1,0,100,0,0
261990,-66.6666666666667,4,2,0,100,0,1

[Colours]
Combo1 : 79,0,16
Combo2 : 241,14,19
Combo3 : 215,40,84
Combo4 : 157,28,37

[HitObjects]
192,160,11058,1,0
288,192,11471,1,0
320,224,11885,2,0,B|96:224,1,210
160,160,12713,1,0
320,96,13127,2,0,B|288:256,1,140
192,256,13954,1,0
384,256,14368,1,0
224,288,15196,2,0,B|256:224,4,70
160,224,16644,2,0,B|224:224|288:256,5,70
288,192,17885,5,0
192,224,18506,1,0
288,256,19333,1,0
320,32,20161,1,0
160,192,20989,1,0
384,160,21816,1,0
320,352,22644,2,0,B|96:96,1,280
352,96,24299,1,0
128,160,25127,1,0
352,160,25954,1,0
128,160,26782,5,0
352,128,27609,1,0
384,352,28437,2,0,B|96:192,1,280
352,128,30092,1,0
128,96,30920,1,0
256,192,31747,12,0,32575
128,96,33402,5,0
352,128,34230,2,0,B|64:128,1,280
192,192,35471,1,0
224,192,35678,1,0
32,224,36713,1,0
160,192,37127,1,0
256,160,37540,1,0
128,320,38161,1,0
256,352,39816,2,0,B|256:224,1,70
256,282,40230,2,0,B|256:192,1,70
256,192,40644,1,0
96,160,47471,6,0,B|480:160,1,350
446,160,48920,2,0,B|448:288,3,70
288,160,49954,5,0
512,96,50782,1,0
320,192,51609,1,0
224,256,52023,2,0,B|128:256,4,70
288,192,53264,2,0,B|160:192,2,70
192,192,54092,2,0,B|448:192,1,210
384,256,54920,2,0,B|142:256,2,210
416,192,56575,1,0
352,192,56989,1,0
352,224,57402,2,0,B|128:224,1,210
110,192,58230,2,0,B|352:192,1,210
320,192,59058,2,0,B|416:224,4,70
256,192,59885,12,0,60713
192,192,61540,6,0,B|288:192,4,70
224,224,62782,1,0
256,224,63196,1,0
160,160,63402,6,0,B|288:160,7,70
256,160,65058,2,0,B|352:160,2,70
256,192,66920,12,0,67954
192,160,68368,6,0,B|192:352,1,140
128,224,69609,2,0,B|384:224,1,210
384,192,70644,1,0
352,192,70851,1,0
320,192,71058,1,0
288,192,71264,1,0
256,192,71471,2,0,B|96:192,1,140
116,192,72092,1,0
96,128,73540,1,0
160,128,73954,1,0
288,128,74368,2,0,B|288:320,1,140
128,288,74989,1,0
96,288,75196,1,0
64,288,75402,1,0
128,224,76230,5,0
160,224,76437,2,0,B|352:224,3,140
416,256,78092,2,0,B|224:256,1,140
256,160,78920,2,0,B|256:320,1,140
128,224,80575,2,0,B|224:224,7,70
256,224,82437,1,0
352,288,82851,5,0
352,256,83058,2,0,B|352:160,3,70
256,192,83885,12,0,85333
224,192,85747,6,0,B|320:192,3,70
128,32,86782,1,0
96,32,86989,6,0,B|96:288,1,210
192,288,88023,2,0,B|192:64,1,210
320,32,89058,2,0,B|320:256,1,210
384,256,90506,6,0,B|384:160,4,70
384,186,91747,2,0,B|288:64,1,140
256,96,92575,2,0,B|256:288,1,140
256,192,93402,12,0,94230
192,192,94644,6,0,B|320:192,4,70
288,192,96092,1,0
384,192,96299,1,0
384,256,96506,1,0
288,256,96713,1,0
192,256,97127,1,0
320,256,97747,5,0
192,256,97954,2,0,B|192:32,3,210
128,224,100023,2,0,B|320:224,3,140
320,224,101678,1,0
352,224,102092,5,0
320,224,102506,2,0,B|224:224,4,70
256,192,103747,12,0,105815
96,192,107058,6,0,B|448:192,2,350
128,192,109540,1,0
96,160,110368,2,0,B|384:160,1,280
384,224,111402,1,0
320,224,111609,1,0
256,224,111816,1,0
256,192,112851,12,0,115333
256,224,116161,5,0
256,192,116989,5,0
352,192,117816,1,0
128,192,118644,1,0
224,256,119471,1,0
224,160,119885,1,0
288,224,120299,1,0
288,128,121127,5,0
384,224,121954,1,0
224,224,122782,1,0
96,224,123196,1,0
256,192,123609,12,0,125264
192,128,125678,6,0,B|448:128,1,210
416,256,126713,1,0
288,192,127127,1,0
224,256,127333,2,0,B|128:192,8,70
352,64,129816,1,0
320,160,130230,1,0
256,64,132092,6,0,B|256:320,2,210
256,160,133747,1,0
96,224,135816,2,0,B|416:224,1,280
448,256,136851,1,0
288,352,137471,1,0
192,256,137885,1,0
320,192,138299,2,0,B|320:288,6,70
320,320,139954,5,0
160,256,140575,1,0
160,64,141196,2,0,B|416:160,1,210
288,352,142644,5,0
256,256,143058,1,0
160,192,143471,1,0
256,192,143885,2,0,B|448:192,1,140
396,192,144713,2,0,B|384:96,9,70
416,256,146989,1,0
288,192,147609,1,0
192,128,148023,1,0
288,160,148437,1,0
384,192,148851,1,0
288,256,149264,5,0
192,224,149678,1,0
224,128,150092,1,0
256,224,150506,1,0
160,288,150920,1,0
96,224,151333,1,0
160,160,151747,1,0
256,160,152161,1,0
160,128,152575,2,0,B|384:352,2,280
96,256,154851,2,0,B|384:256,1,280
352,288,155885,1,0
288,288,156092,6,0,B|192:288,3,70
416,320,157540,1,0
288,288,158161,1,0
224,256,158368,1,0
288,256,158575,1,0
384,192,158989,1,0
256,256,159609,5,0
256,160,160023,2,0,B|256:32,5,70
224,192,161471,1,0
320,128,161885,1,0
288,224,162299,1,0
192,224,162713,1,0
256,192,163127,12,0,164782
192,128,165609,6,0,B|320:128,4,70
192,128,166644,1,0
352,128,167264,2,0,B|224:128,3,70
256,128,168092,1,0
256,192,168920,12,0,170989
224,160,171196,6,0,B|320:160,6,70
192,96,172851,1,0
256,96,173264,1,0
320,96,173678,1,0
320,160,174092,1,0
256,160,174506,1,0
192,160,174920,1,0
192,160,175333,6,0,B|352:160,2,104.999996870756
320,96,176161,2,0,B|192:96,3,104.999996870756
320,96,177196,2,0,B|320:256,3,104.999996870756
320,192,178230,1,0
256,192,178644,1,0
192,192,179058,1,0
192,192,179471,6,0,B|384:192,2,104.999996870756
32,32,180299,2,0,B|352:32,1,314.999990612269
347,32,181127,2,0,B|352:320,3,209.999993741512
256,192,182782,12,0,184023
254,200,184230,6,0,B|363:200,5,104.999996870756
201,217,185678,1,0
160,96,186506,5,0
224,96,186713,1,0
288,96,186920,1,0
352,96,187127,1,0
384,128,187333,1,0
384,192,187540,1,0
320,224,187747,1,0
192,224,187954,1,0
352,288,188368,1,0
160,192,189816,6,0,B|320:192,6,104.999996870756
160,192,191264,1,0
352,224,191678,1,0
32,64,192506,6,0,B|416:64,1,314.999990612269
448,192,193540,2,0,B|32:192,3,314.999990612269
64,192,195816,2,0,B|448:192,1,314.999990612269
256,192,196851,12,0,198092
224,192,199333,6,0,B|352:192,5,104.999996870756
171,192,200782,1,0
320,192,201196,1,0
256,128,202023,2,0,B|288:320|224:288,10,104.999996870756
288,288,204506,1,0
256,128,204920,1,0
192,160,205333,1,0
128,192,205747,1,0
128,160,206368,6,0,B|416:160,1,209.999993741512
320,160,207196,2,0,B|320:288,3,104.999996870756
256,192,208230,12,0,210506
255,200,210920,5,0
416,195,211333,1,0
255,200,211747,1,0
98,170,212161,1,0
36,65,212989,6,0,B|386:72,1,314.999990612269
320,256,214023,2,0,B|96:128,3,209.999993741512
352,256,215885,1,0
192,224,216299,1,0
256,192,216920,12,0,217333
256,192,217747,5,0
256,192,218575,12,0,222092
224,192,222920,6,0,B|352:192|320:192,4,104.999996870756
320,192,224575,6,0,B|96:192,1,210
160,192,225402,1,0
288,192,225816,1,0
256,96,226230,2,0,B|256:352,1,210
256,320,227058,2,0,B|416:320,1,140
384,320,227678,2,0,B|384:128,1,140
384,160,228299,2,0,B|192:160,4,140
352,160,230575,2,0,B|224:160|256:160,4,70
352,160,231816,6,0,B|32:160,1,280
256,192,232851,12,0,234920
96,96,249402,6,0,B|192:96,1,70
166,96,249816,2,0,B|256:96,1,70
236,96,250230,2,0,B|320:96,1,70
352,96,250644,2,0,B|352:224,1,70
352,192,251264,2,0,B|256:192|192:192|160:192|134:160|128:96,1,280
160,96,252506,2,0,B|384:96,1,210
370,96,253540,6,0,B|448:96,3,70
448,96,254575,1,0
448,192,255609,2,0,B|64:192,1,350
128,192,256851,2,0,B|224:192,3,70
198,192,257885,1,0
256,192,258299,1,0
256,192,259333,12,0,260989
64,32,262230,6,0,B|512:32,1,419.999987483025
480,96,263264,2,0,B|64:96,2,314.999990612269
160,160,264971,2,0,B|224:160,10,52.4999984353781
160,160,266368,1,0
192,160,266575,2,0,B|416:160,1,209.999993741512
256,192,267402,12,0,268437
192,192,268851,5,0
160,160,269058,5,0
160,160,269264,2,0,B|448:160,1,209.999993741512
370,160,269885,2,0,B|384:288,4,104.999996870756
384,352,271127,1,0
288,192,271540,1,0
160,224,271954,1,0
256,128,272368,1,0
128,128,272782,5,0
256,224,273196,1,0
128,96,273609,1,0
0,64,274023,2,0,B|416:64,1,314.999990612269
256,192,275678,12,0,277333
192,192,277747,6,0,B|320:192,4,104.999996870756
256,192,279196,12,0,280644
256,192,281678,12,0,286023
192,320,289651,5,0
