osu file format v5

[General]
AudioFilename: I wanna be the Guy -raw-.mp3
AudioLeadIn: 0
PreviewTime: -1
Countdown: 1
SampleSet: Normal
StackLeniency: 0.7
Mode: 0
LetterboxInBreaks: 1

[Metadata]
Title:Home Sweet Grave
Artist:Daisuke Ishiwatari
Creator:Sushi971
Version:Insane
Source:Guilty Gear Isuka
Tags:Guilty gear Isuka, I wanna be the guy

[Difficulty]
HPDrainRate:6
CircleSize:5
OverallDifficulty:6
SliderMultiplier:2
SliderTickRate:2

[Events]
//Background and Video events
0,0,"GGisuka.jpg"
//Break Periods
2,35043,40977
2,88422,93944
2,106423,107185
2,114492,120277
//Storyboard Layer 0 (Background)
//Storyboard Layer 1 (Failing)
//Storyboard Layer 2 (Passing)
//Storyboard Layer 3 (Foreground)
//Storyboard Sound Samples
//Background Colour Transformations
3,100,224,224,224

[TimingPoints]
516,413.799999999998,4,2,0,100,1
14154,-100,4,1,0,100,0
67948,-200,4,2,0,100,0
80362,-100,4,1,0,100,0

[Colours]
Combo1 : 0,255,0
Combo2 : 255,255,0
Combo3 : 45,88,228
Combo4 : 200,38,38

[HitObjects]
32,192,7136,1,0
128,192,7343,2,0,L|208:192,1,50,0|2
280,192,7654,2,0,L|344:192,2,50
280,192,7964,1,0
280,288,8171,2,0,L|352:288,1,50,0|2
432,288,8481,2,0,L|432:232,2,50
432,240,8791,5,0
432,136,8998,1,2
328,136,9205,1,0
328,232,9412,1,2
224,232,9619,5,0
120,232,9826,1,0
224,232,10033,1,0
120,232,10240,1,4
176,144,10447,5,0
176,40,10654,2,0,L|256:40,1,50,0|2
328,40,10964,2,0,L|392:40,2,50,0|0|0
328,40,11274,1,0
328,136,11481,2,0,L|328:216,1,50,0|2
424,184,11792,2,0,L|424:128,2,50
424,232,12102,5,0
424,328,12309,1,2
320,328,12516,1,0
320,224,12723,1,2
216,224,12929,5,0
152,296,13136,1,0
88,224,13343,1,0
24,296,13550,1,4
256,192,13757,12,4,14998
376,192,15412,5,0
328,192,15516,1,0
280,192,15619,1,0
232,192,15723,1,0
184,192,15826,2,0,L|56:192,1,100,2|0
80,144,16136,1,0
80,96,16240,1,0
80,48,16343,1,0
128,48,16447,2,2,L|240:48,2,100,2|0|2
184,128,17067,5,0
184,128,17171,1,0
184,128,17274,1,0
184,128,17378,1,0
216,168,17481,2,0,L|296:248,1,100,2|0
320,280,17792,1,0
320,280,17895,1,0
320,280,17999,1,0
368,280,18102,2,2,L|368:184|472:184,1,200,2|2
480,80,18723,5,0
440,112,18826,1,0
400,80,18930,1,0
360,112,19033,1,0
320,80,19136,2,0,L|192:80,1,100,2|0
216,128,19447,1,0
216,176,19550,1,0
168,176,19654,1,0
120,176,19757,2,2,B|48:176|48:256,2,100,2|0|2
184,128,20378,5,0
184,128,20481,1,0
184,128,20585,1,0
184,128,20688,1,0
232,128,20792,2,0,L|232:240,1,100,2|0
280,232,21102,1,0
280,232,21205,1,0
280,232,21309,1,0
328,232,21412,2,2,L|368:200|328:168|368:144|328:104,1,200,2|2
232,112,22033,5,0
184,112,22137,1,0
184,160,22240,1,0
184,208,22343,1,0
184,256,22447,2,0,B|128:256|96:200,1,100,2|0
48,208,22757,1,0
48,160,22861,1,0
48,112,22964,1,0
48,64,23068,2,2,B|48:8|128:32|128:32|200:8|200:72,1,200
296,72,23688,6,0,B|360:72,1,50
392,72,23895,2,0,B|456:72,1,50
488,72,24102,2,0,B|488:152|416:152,1,100,2|0
392,152,24412,1,0
344,160,24516,1,0
304,184,24619,1,0
280,224,24723,2,2,B|248:304|344:360|392:256,1,200
448,184,25343,5,0
432,136,25447,1,0
480,136,25550,1,0
496,184,25654,1,0
448,184,25757,2,0,B|360:224|336:152,1,100,2|0
354,183,26068,1,0
354,183,26171,1,0
354,183,26275,1,0
354,183,26378,2,2,B|344:112|248:104,2,100,2|0|2
256,192,26999,6,0,B|168:192|176:192,1,50
208,240,27206,2,0,B|208:184,1,50
206,192,27412,2,0,B|112:120,1,100,2|0
88,96,27723,1,0
40,80,27826,1,0
40,128,27930,1,0
40,176,28033,2,2,B|40:296|176:352,1,200
240,344,28654,5,0
240,296,28757,1,0
240,248,28861,1,0
240,200,28964,1,0
240,152,29068,2,0,B|240:32,1,100,2|0
288,56,29378,1,0
336,56,29481,1,0
384,56,29585,1,0
432,56,29688,2,2,B|496:56|496:152,2,100,2|0|2
432,152,30309,5,0
432,200,30413,1,0
480,200,30516,1,0
480,152,30619,1,0
432,152,30723,2,0,B|384:104|312:184,1,100,2|0
288,152,31033,1,0
240,152,31137,1,0
200,176,31240,1,0
160,208,31344,2,2,B|80:272|80:272|0:208,1,200
64,128,31964,5,0
64,128,32068,1,0
64,128,32171,1,0
64,128,32275,1,0
64,128,32378,2,0,B|176:128,1,100,2|0
216,128,32688,1,0
216,128,32792,1,0
216,128,32895,1,0
216,128,32999,2,2,B|464:128,1,200
256,192,33619,12,4,34861
256,192,41895,6,0,B|368:192,1,100
408,192,42206,1,0
456,192,42309,2,0,B|480:112|432:64,1,100
408,64,42620,1,0
360,48,42723,2,2,B|240:32|168:112|136:120,1,200,2|0
171,100,43344,2,2,B|96:160|208:232|120:312,1,200,2|0
240,312,43964,1,0
336,136,44378,1,0
136,128,44792,1,2
208,192,44999,1,0
288,256,45206,6,4,B|224:408|160:240,2,200
320,160,46240,1,0
360,72,46447,1,0
456,72,46654,2,0,B|504:72|512:152|432:168,1,100
416,224,47068,1,0
352,304,47275,1,0
416,224,47482,1,0
320,192,47689,5,4
320,192,47792,1,4
320,192,47896,1,4
320,192,47999,1,4
320,192,48102,1,4
344,40,48516,6,0,C|328:136|176:24|144:152,1,400,0|0
336,192,49758,1,0
296,222,49861,1,0
256,248,49965,1,2
96,360,50378,1,0
138,332,50482,1,0
176,304,50585,1,2
376,304,50999,1,0
376,104,51413,1,0
272,104,51620,1,0
168,104,51827,6,0,C|272:208,1,100,2|0
312,240,52240,2,0,C|224:160,1,100,2|0
168,248,52654,2,0,C|248:160,1,100,2|0
168,248,53068,1,0
104,328,53275,2,0,B|0:320|0:152,1,200
0,179,53896,1,0
0,179,54103,2,0,B|0:72|144:16|160:88,1,200
192,136,54723,1,4
240,136,54827,1,4
288,136,54930,1,4
248,224,55137,6,0,B|136:224,1,100,0|0
104,200,55447,1,0
56,192,55551,2,0,B|32:272|80:320,1,100
104,320,55861,1,0
152,336,55965,2,2,B|272:352|344:272|376:264,1,200,2|0
341,284,56585,2,2,B|416:224|304:152|392:72,1,200,2|0
272,72,57206,1,0
176,248,57620,1,0
376,256,58034,1,2
304,192,58241,1,0
224,128,58447,6,4,B|288:-24|352:144,2,200
192,224,59482,1,0
152,312,59689,1,0
56,312,59896,2,0,B|8:312|0:232|80:216,1,100
96,160,60310,1,0
160,80,60516,1,0
96,160,60723,1,0
192,192,60930,5,4
192,192,61034,1,4
192,192,61137,1,4
192,192,61241,1,4
192,192,61344,1,4
168,344,61758,6,0,C|184:248|336:360|368:232,1,400,0|0
176,192,62999,1,0
216,162,63103,1,0
256,136,63206,1,2
416,24,63620,1,0
374,52,63723,1,0
336,80,63827,1,2
136,80,64241,1,0
136,280,64654,1,0
240,280,64861,1,0
344,280,65068,6,0,C|240:176,1,100,2|0
200,144,65482,2,0,C|288:224,1,100,2|0
344,136,65896,2,0,C|264:224,1,100,2|0
344,136,66310,1,0
408,56,66517,2,0,B|512:64|512:232,1,200
512,205,67137,1,0
512,205,67344,2,0,B|512:312|368:368|352:296,1,200
320,248,67965,1,4
272,248,68068,1,4
224,248,68172,1,4
144,192,68379,6,0,B|240:104|328:264|448:160,1,300
352,104,69827,1,0
256,64,70034,2,0,B|72:56|24:224,1,300
24,264,71379,1,0
24,312,71482,1,0
72,312,71586,1,0
120,312,71689,6,0,B|240:312|272:192|128:192|184:312|328:312,1,300
416,312,73137,1,0
416,208,73344,2,0,B|448:112|376:96|344:216|280:192|312:80|240:64|200:128,1,300
184,160,74689,1,0
160,200,74793,1,0
136,240,74896,1,0
112,280,74999,5,4
416,24,75827,5,4
16,40,76655,5,4
256,360,77482,5,4
488,32,78310,5,4
488,232,78724,1,4
288,232,79137,5,4
288,32,79551,1,4
256,192,79965,12,4,81206
224,192,81620,6,0,B|312:192,3,50
274,192,82034,2,0,B|360:192|360:272,1,100
354,237,82344,2,0,B|384:296,3,50
272,288,82862,1,0
184,240,83069,1,0
184,136,83275,6,0,B|184:72,3,50
184,86,83689,2,0,B|184:24|280:24,1,100
250,25,84000,2,0,B|328:24,3,50
376,88,84517,1,0
456,32,84724,1,0
456,128,84931,5,0
456,128,85034,1,0
456,128,85138,1,0
456,128,85241,1,0
456,128,85344,2,0,B|456:248,1,100
456,228,85655,1,0
456,228,85758,1,0
456,228,85862,1,0
456,228,85965,2,0,B|392:320|248:328,1,200
192,320,86586,5,0
192,320,86689,1,0
192,320,86793,1,0
192,320,86896,1,0
192,320,87000,2,0,B|256:288|192:240,1,100
200,192,87310,1,0
200,144,87413,1,0
200,96,87517,1,0
200,48,87620,2,4,B|304:48|304:48|384:248,1,300,0|4
256,192,94862,5,0
256,192,94965,1,0
304,192,95069,1,0
304,192,95172,1,0
280,240,95276,2,0,B|280:120,1,100,2|0
328,144,95586,1,0
376,144,95689,1,0
376,96,95793,1,0
424,96,95896,2,0,B|424:208|392:192,2,100,2|0|2
376,8,96517,5,0
336,40,96621,1,0
296,72,96724,1,0
256,104,96827,1,0
216,136,96931,2,0,B|120:152|112:72,1,100,2|0
96,72,97241,1,0
136,40,97345,1,0
176,64,97448,1,0
208,104,97552,2,0,B|248:184|112:280,1,200,2|2
120,368,98172,5,0
120,368,98276,1,0
120,368,98379,1,0
120,368,98483,1,0
120,368,98586,2,0,B|120:256,1,100,2|0
120,268,98896,2,0,B|208:272,2,50
69,267,99207,1,2
72,168,99414,1,0
69,267,99621,1,2
168,268,99827,6,0,B|246:268,3,50
218,268,100241,2,0,B|296:272|296:192,1,100,2|0
294,167,100552,1,0
256,136,100655,1,0
296,104,100759,1,0
256,72,100862,2,0,B|208:32|144:88,2,100,2|0|2
352,72,101483,5,0
400,72,101586,1,0
400,120,101690,1,0
448,120,101793,1,0
448,168,101896,2,0,B|448:304,1,100,2|0
400,272,102207,1,0
352,272,102310,1,0
304,272,102414,1,0
256,272,102517,2,2,B|256:208|184:200|176:240|224:248|288:216|296:128,1,200
392,160,103138,5,0
344,160,103241,1,0
344,208,103345,1,0
392,208,103448,1,0
392,160,103552,2,0,B|392:104|424:40,1,100,2|0
360,56,103862,1,0
312,56,103965,1,0
264,56,104069,1,0
264,104,104172,2,2,B|224:184|72:48,1,200
88,168,104793,5,0
88,168,104897,1,0
88,168,105000,1,0
88,168,105103,1,0
88,168,105207,2,0,B|48:232|136:232|136:192,1,100,2|0
160,168,105517,1,0
160,168,105621,1,0
160,168,105724,1,0
160,168,105828,2,0,B|288:168,2,100,2|0|2
56,192,108103,5,0
256,192,108310,1,0
456,192,108517,1,4
256,80,108724,5,0
256,128,108828,1,0
256,176,108931,1,0
256,224,109035,1,0
256,272,109138,2,0,B|256:376,2,100,2|0|2
72,344,109759,5,0
256,328,109966,1,0
440,344,110172,1,4
256,272,110379,5,0
256,224,110483,1,0
256,176,110586,1,0
256,128,110690,1,0
256,80,110793,2,0,B|256:-32,2,100,2|0|2
424,192,111414,5,4
256,80,111621,1,4
256,280,111828,1,4
88,192,112035,5,0
136,192,112138,1,0
184,192,112241,1,0
232,192,112345,1,0
280,192,112448,2,0,B|392:192,2,100,2|0|2
256,192,113069,12,4,114310
256,168,121345,5,0
304,168,121449,1,0
352,168,121552,1,0
400,168,121655,1,0
448,168,121759,2,2,B|504:160|488:104|416:96,1,100,0|0
400,88,122069,1,0
352,80,122173,6,2,B|200:40|112:96,1,200
154,75,122793,2,0,B|32:120|64:272,1,200
58,231,123414,1,2
120,312,123621,1,0
184,232,123828,1,2
248,312,124035,1,0
312,232,124242,2,2,B|432:232|456:104,1,200,2|0
352,112,124862,5,0
304,112,124966,1,0
256,112,125069,1,2
152,112,125276,1,0
104,112,125380,1,0
56,112,125483,1,2
104,200,125690,1,0
200,200,125897,1,0
296,200,126104,2,0,B|304:264|224:288,1,100
144,280,126518,2,0,B|24:280,2,100,2|0|2
240,280,127138,5,4
240,280,127242,1,4
240,280,127345,1,4
240,280,127449,1,4
240,280,127552,1,4
440,288,127966,6,2,B|488:200|413:42|192:40,1,400
80,192,129207,1,0
128,192,129311,1,0
176,192,129414,1,2
376,192,129828,1,0
328,192,129931,1,0
280,192,130035,1,2
232,32,130449,2,0,B|312:72|240:120|176:144|280:216,1,200,0|2
56,192,131276,5,0
256,192,131690,1,0
456,192,132104,2,2,B|456:352|296:312,1,200,2|0
341,319,132725,2,0,B|176:312|200:176,1,200,2|0
197,213,133345,1,0
197,213,133552,2,2,B|192:48|320:168,1,200,2|0
400,192,134173,5,4
371,151,134276,1,4
344,192,134380,1,4
256,216,134587,5,0
208,216,134690,1,0
160,216,134794,1,0
112,216,134897,1,0
64,216,135000,2,2,B|8:224|24:280|96:288,1,100,0|0
112,296,135311,1,0
160,304,135414,6,2,B|312:344|400:288,1,200
358,309,136035,2,0,B|480:264|448:112,1,200
454,153,136656,1,2
392,72,136863,1,0
328,152,137069,1,2
264,72,137276,1,0
200,152,137483,2,2,B|80:152|56:280,1,200,2|0
160,272,138104,5,0
208,272,138207,1,0
256,272,138311,1,2
360,272,138518,1,0
408,272,138621,1,0
456,272,138725,1,2
408,184,138932,1,0
312,184,139138,1,0
216,184,139345,2,0,B|208:120|288:96,1,100
368,104,139759,2,0,B|488:104,2,100,2|0|2
272,104,140380,5,4
272,104,140483,1,4
272,104,140587,1,4
272,104,140690,1,4
272,104,140794,1,4
72,96,141207,6,2,B|24:184|98:341|320:344,1,400
432,192,142449,1,0
384,192,142552,1,0
336,192,142656,1,2
136,192,143070,1,0
184,192,143173,1,0
232,192,143276,1,2
280,352,143690,2,0,B|200:312|272:264|336:240|232:168,1,200,0|2
456,192,144518,5,0
256,192,144932,1,0
56,192,145345,2,2,B|56:32|216:72,1,200,2|0
171,65,145966,2,0,B|336:72|312:208,1,200,2|0
315,171,146587,1,0
315,171,146794,2,2,B|320:336|192:216,1,200,2|0
112,192,147414,5,4
140,232,147518,1,4
168,192,147621,1,4
112,104,147828,6,2,B|176:8|208:8|256:120,3,200
288,192,149277,1,0
312,232,149380,1,0
336,272,149483,1,2
416,208,149690,1,0
384,168,149794,1,0
352,128,149897,2,2,B|304:40|264:168|176:40,2,200
256,192,151139,12,4,154035
384,192,154449,6,2,B|296:144|296:144|160:200,2,200
184,192,155691,1,0
232,192,155794,1,0
280,192,155897,1,2
480,192,156311,1,0
432,192,156415,1,0
384,192,156518,1,0
184,192,156932,2,2,B|408:192,1,200
384,288,157553,1,0
384,192,157760,5,0
184,192,158173,1,0
272,16,158587,1,2
272,104,158794,1,2
272,200,159001,1,2
272,304,159208,2,2,B|272:96,1,200,2|0
256,192,159829,12,4,161070
