osu file format v5

[General]
AudioFilename: I wanna be the Guy -raw-.mp3
AudioLeadIn: 0
PreviewTime: -1
Countdown: 1
SampleSet: Normal
StackLeniency: 0.7
Mode: 0
LetterboxInBreaks: 1

[Metadata]
Title:Home Sweet Grave
Artist:Daisuke Ishiwatari
Creator:Sushi971
Version:Hard
Source:Guilty Gear Isuka
Tags:Guilty gear Isuka, I wanna be the guy

[Difficulty]
HPDrainRate:5
CircleSize:4
OverallDifficulty:5
SliderMultiplier:2
SliderTickRate:2

[Events]
//Background and Video events
0,0,"GGisuka.jpg"
//Break Periods
2,35043,40977
2,88422,93944
2,106423,107185
2,114492,120277
//Storyboard Layer 0 (Background)
//Storyboard Layer 1 (Failing)
//Storyboard Layer 2 (Passing)
//Storyboard Layer 3 (Foreground)
//Storyboard Sound Samples
//Background Colour Transformations
3,100,224,224,224

[TimingPoints]
516,413.799999999998,4,2,0,100,1
14154,-100,4,1,0,100,0
67948,-200,4,2,0,100,0
80362,-100,4,1,0,100,0

[Colours]
Combo1 : 0,255,0
Combo2 : 255,255,0
Combo3 : 45,88,228
Combo4 : 200,38,38

[HitObjects]
32,192,7136,1,0
136,192,7447,1,2
208,192,7654,2,0,L|272:192,3,50
256,88,8274,1,2
328,88,8481,2,0,L|408:88,3,50
448,88,8998,6,2,B|448:208,1,100
392,136,9412,2,0,B|392:264,1,100
336,184,9826,2,2,B|336:304,1,100
280,232,10240,1,0
208,232,10447,5,0
104,232,10757,1,2
104,160,10964,2,0,L|104:88,3,50
208,112,11585,1,2
280,112,11792,2,0,L|280:56,3,50
352,64,12309,6,2,B|464:64,1,100
488,120,12723,2,0,B|360:120,1,100
352,176,13136,2,0,B|488:176,1,100
488,232,13550,1,0
256,192,13757,12,4,14998
376,192,15412,5,0
304,192,15619,1,0
232,192,15826,2,0,L|104:192,1,100,2|0
80,232,16240,1,0
128,280,16447,2,2,L|240:280,2,100,2|0|2
80,232,17067,5,0
80,160,17274,1,0
80,232,17481,2,0,L|160:152,1,100,2|0
224,160,17895,1,0
152,160,18102,2,2,L|152:64|256:64,1,200,2|2
256,136,18723,5,0
304,184,18930,1,0
352,136,19136,2,0,L|480:136,1,100,2|0
456,208,19550,1,0
456,280,19757,2,2,B|384:280|376:208,2,100,2|0|2
456,352,20378,5,0
456,352,20585,1,0
384,352,20792,2,0,L|264:352,1,100,2|0
216,352,21205,1,0
216,352,21412,2,2,L|176:320|216:288|176:264|216:224,1,200,2|2
280,224,22033,5,0
280,152,22240,1,0
288,80,22447,2,0,B|280:32|184:80,1,100,2|0
144,112,22861,1,0
80,144,23068,2,2,B|72:248|72:248|176:176,1,200,2|2
208,160,23688,5,0
280,120,23895,1,0
360,88,24102,2,0,B|344:168|280:192,1,100,2|0
264,224,24516,1,0
264,296,24723,2,2,B|352:200|296:456|392:312,1,200,2|2
416,256,25343,5,0
440,192,25550,1,0
464,128,25757,2,0,B|480:56|368:48,1,100,2|0
344,80,26171,1,0
344,80,26378,2,2,B|280:88|248:136,2,100,2|0|2
344,152,26999,6,0,B|328:232,2,50
272,152,27412,2,0,B|232:280,1,100,2|0
176,232,27826,1,0
104,232,28033,2,2,B|104:352|264:344,1,200,2|2
312,344,28654,5,0
360,296,28861,1,0
312,248,29068,2,0,B|240:248|240:176,1,100,2|0
240,120,29481,1,0
240,192,29688,2,2,B|232:272|136:240,2,100,2|0|2
240,120,30309,5,0
168,120,30516,1,0
96,120,30723,2,0,B|24:160|96:184,1,100,2|0
168,184,31137,1,0
240,192,31344,2,2,B|320:256|320:256|232:328,1,200
176,320,31964,5,0
176,320,32068,1,0
176,320,32171,1,0
104,320,32378,2,0,B|104:200,2,100,2|0|0
176,312,32999,2,2,B|168:192|344:184,1,200
256,192,33619,12,4,34861
256,192,41895,6,0,B|221:295|288:288,1,100
320,320,42309,2,0,B|408:360|416:280,1,100
408,240,42723,2,2,B|360:72|248:96,1,200,2|0
216,96,43344,2,2,B|96:104|72:168|120:248,1,200,2|0
104,216,43964,1,0
240,216,44378,1,0
376,216,44792,1,2
376,144,44999,1,0
376,72,45206,6,4,B|288:16|288:136|176:40,2,200
336,128,46240,1,0
376,72,46447,1,0
448,72,46654,2,0,B|496:72|528:184|416:216,1,200
384,280,47275,1,0
336,224,47482,1,0
200,192,47896,5,4
200,192,48102,1,4
336,160,48516,6,0,C|224:224|312:120|176:208,1,400,0|0
264,312,49758,1,0
264,312,49965,1,2
120,312,50378,1,0
120,312,50585,1,2
120,168,50999,1,0
256,168,51413,1,0
256,96,51620,1,0
184,104,51827,6,0,C|80:200,1,100,2|0
40,176,52240,2,0,C|136:264,1,100,2|0
128,312,52654,2,0,C|216:232,1,100,2|0
256,200,53068,1,0
304,152,53275,2,0,B|408:48|512:64|504:248,1,300,0|0
504,280,54103,2,0,B|488:384|416:168|376:360,1,200,0|0
312,328,54723,1,4
256,192,55137,6,0,B|290:88|224:96,1,100
192,64,55551,2,0,B|104:24|96:104,1,100
104,144,55965,2,2,B|160:280|256:288,1,200,2|0
304,288,56585,2,2,B|424:280|448:216|400:136,1,200,2|0
416,168,57206,1,0
280,168,57620,1,0
144,168,58034,1,2
144,240,58241,1,0
144,312,58447,6,4,B|232:368|232:248|344:344,2,200
184,256,59482,1,0
144,312,59689,1,0
72,312,59896,2,0,B|24:312|-8:200|104:168,1,200
128,104,60516,1,0
176,160,60723,1,0
312,192,61137,5,4
312,192,61344,1,4
176,224,61758,6,0,C|288:160|200:264|336:176,1,400,0|0
248,72,62999,1,0
248,72,63206,1,2
392,72,63620,1,0
392,72,63827,1,2
392,216,64241,1,0
256,216,64654,1,0
256,288,64861,1,0
328,280,65068,6,0,C|432:184,1,100,2|0
472,208,65482,2,0,C|376:120,1,100,2|0
384,72,65896,2,0,C|288:160,1,100,2|0
256,184,66310,1,0
208,232,66517,2,0,B|104:336|0:320|0:136,1,300,0|0
0,104,67344,2,0,B|-8:-16|136:-16|176:48,1,200,0|0
184,64,67965,1,4
136,200,68379,6,0,B|232:112|320:272|440:168,1,300
424,40,70034,2,0,B|272:112|344:272|208:280,1,300
176,264,71482,1,0
200,328,71689,6,0,B|80:328|48:208|144:184|240:184|24:376|104:136,1,300,0|0
232,168,73344,2,0,B|200:72|336:184|304:176|368:152|336:184|400:40|416:248,1,300,0|0
344,240,74793,1,0
272,240,74999,5,4
64,56,75827,5,4
344,64,76655,5,4
96,192,77482,5,4
376,192,78310,5,4
232,192,78724,1,4
232,328,79137,5,4
376,328,79551,1,4
256,192,79965,12,4,81206
224,192,81620,6,0,B|312:192,2,50
224,120,82034,2,0,B|310:120|336:192,1,100,0|0
314,154,82344,2,0,B|368:200,1,50
408,232,82655,1,0
408,304,82862,1,0
336,304,83069,1,0
264,304,83275,6,0,B|176:304,2,50
264,232,83689,2,0,B|192:232|168:160,1,100
180,187,84000,2,0,B|136:128,1,50,0|0
144,72,84310,1,0
216,72,84517,1,0
288,72,84724,1,0
360,72,84931,5,0
360,72,85034,1,0
360,72,85138,1,0
360,72,85344,2,0,B|360:192,1,100
360,172,85655,1,0
360,172,85758,1,0
360,172,85965,2,0,B|296:264|152:272,1,200
192,320,86586,5,0
192,320,86689,1,0
192,320,86793,1,0
192,320,87000,2,0,B|256:320|336:304,1,100
291,311,87310,1,0
291,311,87413,1,0
291,311,87620,2,4,B|392:296|392:296|464:96,1,300,0|4
240,192,94862,5,0
312,192,95069,1,0
276,252,95276,2,0,B|276:132,1,100,2|0
344,152,95689,1,0
416,152,95896,2,2,B|416:264,2,100
416,80,96517,6,0,B|480:80,2,50
344,88,96931,2,0,B|288:88|248:144,1,100,2|0
208,184,97345,1,0
168,240,97552,2,2,B|72:344|272:344,1,200,2|2
320,336,98172,5,0
320,336,98379,1,0
320,336,98586,2,0,B|320:224,1,100,2|0
320,200,98896,2,0,B|320:112,1,50
376,112,99207,1,2
424,160,99414,1,2
472,112,99621,1,2
448,48,99827,6,0,B|526:48,4,50
376,48,100448,1,0
376,48,100552,1,0
376,48,100655,1,0
376,120,100862,2,2,B|328:160|264:104,2,100,2|0|2
376,192,101483,5,0
336,248,101690,1,0
296,192,101896,2,0,B|168:192,1,100,2|0
128,192,102310,1,0
128,120,102517,2,0,B|264:128|232:64|168:40|144:80|104:48,1,200,2|2
56,64,103138,5,0
56,64,103241,1,0
56,64,103345,1,0
56,136,103552,2,0,B|8:184|88:256,1,100,2|0
96,280,103965,1,0
136,336,104172,2,2,B|176:416|328:280,1,200,2|2
256,192,104793,12,4,106034
136,176,108103,5,0
64,176,108310,1,0
96,240,108517,1,4
96,312,108724,5,0
96,312,108828,1,0
96,312,108931,1,0
96,312,109035,1,0
96,312,109138,2,0,B|216:312,2,100,2|2|2
96,240,109759,5,0
168,240,109966,1,0
240,240,110172,1,4
312,240,110379,5,0
312,240,110483,1,0
312,240,110586,1,0
312,240,110690,1,0
312,240,110793,2,0,B|312:384,2,100,2|2|2
312,168,111414,5,4
384,168,111621,1,4
384,240,111828,1,4
456,240,112035,5,0
456,240,112138,1,0
456,240,112241,1,0
456,240,112345,1,0
456,240,112448,2,0,B|456:120,2,100,2|2|2
256,192,113069,12,4,114310
256,192,121345,5,0
328,192,121552,1,0
400,192,121759,2,2,B|456:184|440:128|368:120,1,100,2|0
336,104,122173,6,2,B|232:56|168:184,1,200,2|0
136,232,122793,2,0,B|104:328|168:360|296:312,1,200,2|0
320,320,123414,2,2,B|456:312,2,100,2|0|2
320,176,124242,2,2,B|440:176|464:48,1,200,2|0
320,56,125069,5,2
176,56,125483,1,2
176,128,125690,1,0
176,200,125897,1,0
248,200,126104,2,0,B|256:264|176:288,1,100,2|0
128,280,126518,1,2
128,280,126724,1,2
128,280,126931,1,2
264,280,127345,5,4
264,280,127552,1,4
400,280,127966,6,2,B|448:192|373:34|152:32,1,400
104,152,129207,2,2,B|208:208,1,100
312,272,129828,2,0,B|216:216,1,100,0|0
288,96,130449,2,0,B|144:288,1,200,2|2
240,256,131069,1,0
168,256,131276,5,0
304,256,131690,1,0
184,184,132104,2,2,B|304:184|376:96,1,200,2|0
360,112,132725,2,0,B|195:105|219:-31,1,200,2|0
216,8,133345,1,0
216,8,133552,2,2,B|216:240,1,200,2|0
216,280,134173,5,4
304,168,134587,5,0
232,168,134794,1,0
160,168,135001,2,2,B|104:176|120:232|192:240,1,100,2|0
224,256,135415,6,2,B|328:304|392:176,1,200
424,128,136035,2,0,B|456:32|392:0|264:48,1,200,0|0
240,40,136656,2,2,B|104:48,2,100,2|0|2
240,184,137484,2,2,B|120:184|96:312,1,200,2|0
240,304,138311,5,2
384,304,138725,1,2
384,232,138932,1,0
384,160,139139,1,0
312,160,139346,2,0,B|304:96|384:72,1,100,2|0
432,80,139760,1,2
432,80,139966,1,2
432,80,140173,1,2
296,80,140587,5,4
296,80,140794,1,4
160,80,141208,6,2,B|112:168|187:326|408:328,1,400
456,208,142449,2,2,B|352:152,1,100
248,88,143070,2,0,B|344:144,1,100,0|0
272,264,143691,2,0,B|416:72,1,200,2|2
320,104,144311,1,0
392,104,144518,5,0
256,104,144932,1,0
376,176,145346,2,2,B|256:176|184:264,1,200,2|0
200,248,145967,2,0,B|365:255|341:391,1,200,2|0
344,352,146587,1,0
344,352,146794,2,2,B|344:120,1,200,2|0
344,80,147415,5,4
200,80,147828,6,2,B|136:-16|104:-16|56:96,3,200,2|2|2|2
64,144,149277,1,0
64,216,149483,1,2
64,288,149690,1,0
136,288,149897,2,2,B|184:200|224:328|312:200,2,200,2|2|2
256,192,151139,12,4,154035
344,120,154449,6,2,B|256:72|256:72|120:128,2,200
464,192,155691,1,0
392,192,155897,1,2
248,192,156311,1,0
320,192,156518,1,0
352,328,156932,2,2,B|136:328,1,200,2|2
152,328,157553,1,0
152,256,157760,5,0
152,112,158173,1,0
264,192,158587,1,2
336,192,158794,1,2
408,192,159001,1,2
480,192,159208,2,2,B|456:64|288:104,1,200,2|0
256,192,159829,12,4,161070
