osu file format v9

[General]
AudioFilename: 08 - Flask Boy.mp3
AudioLeadIn: 1996
PreviewTime: 28867
Countdown: 0
SampleSet: Soft
StackLeniency: 0.7
Mode: 0
LetterboxInBreaks: 1

[Editor]
Bookmarks: 8095,41591,80388
DistanceSpacing: 1
BeatDivisor: 4
GridSize: 4

[Metadata]
Title:Flask Boy
Artist:Daisuke Achiwa
Creator:Shulin
Version:Normal
Source:Atelier Iris: Eternal Mana
Tags:ken nakagawa akira tsuchiya workshop theme gust dusty

[Difficulty]
HPDrainRate:4
CircleSize:4
OverallDifficulty:4
ApproachRate:5
SliderMultiplier:1.7
SliderTickRate:2

[Events]
//Background and Video events
0,0,"Atelier Iris.jpg"
//Break Periods
//Storyboard Layer 0 (Background)
//Storyboard Layer 1 (Fail)
//Storyboard Layer 2 (Pass)
//Storyboard Layer 3 (Foreground)
//Storyboard Sound Samples
//Background Colour Transformations
3,100,0,0,0

[TimingPoints]
108,451.127819548872,4,2,1,70,1,0
220,-100,4,2,0,70,0,0
671,-100,4,2,1,70,0,0
897,-100,4,2,0,70,0,0
1799,-100,4,2,1,70,0,0
2025,-100,4,2,0,70,0,0
2476,-100,4,2,1,70,0,0
2701,-100,4,2,0,70,0,0
3604,-100,4,2,1,70,0,0
3829,-100,4,2,0,70,0,0
5408,-100,4,2,1,70,0,0
6311,-100,4,2,0,70,0,0
7213,-100,4,2,1,70,0,0
7438,-100,4,2,0,70,0,0
7889,-100,4,2,1,70,0,0
8566,-100,4,2,0,70,0,0
9074,-100,4,2,1,70,0,0
9468,-100,4,2,0,70,0,0
9694,-100,4,2,1,70,0,0
10371,-100,4,2,0,70,0,0
10878,-100,4,2,1,70,0,0
10991,-100,4,2,0,70,0,0
11498,-100,4,2,1,70,0,0
12175,-100,4,2,0,70,0,0
12683,-100,4,2,1,70,0,0
13077,-100,4,2,0,70,0,0
13303,-100,4,2,1,70,0,0
13698,-100,4,2,0,70,0,0
13811,-100,4,2,1,70,0,0
13923,-100,4,2,0,70,0,0
14431,-100,4,2,1,50,0,0
14656,-100,4,2,0,50,0,0
15107,-100,4,2,1,50,0,0
16010,-100,4,2,0,50,0,0
16461,-100,4,2,1,50,0,0
16686,-100,4,2,0,50,0,0
16912,-100,4,2,1,50,0,0
17138,-100,4,2,0,50,0,0
17363,-100,4,2,1,50,0,0
17589,-100,4,2,0,50,0,0
17814,-100,4,2,0,35,0,0
18040,-100,4,2,1,50,0,0
18265,-100,4,2,0,50,0,0
18717,-100,4,2,1,50,0,0
19619,-100,4,2,0,50,0,0
20070,-100,4,2,1,50,0,0
20295,-100,4,2,0,50,0,0
20521,-100,4,2,1,50,0,0
20916,-100,4,2,0,50,0,0
21029,-100,4,2,1,50,0,0
21198,-100,4,2,0,50,0,0
21423,-100,4,2,0,35,0,0
21649,-100,4,2,1,50,0,0
21874,-100,4,2,0,50,0,0
22326,-100,4,2,1,50,0,0
23002,-100,4,2,0,50,0,0
24130,-100,4,2,1,50,0,0
24807,-100,4,2,0,50,0,0
25032,-100,4,2,0,35,0,0
25258,-100,4,2,1,50,0,0
25483,-100,4,2,0,50,0,0
26386,-100,4,2,1,50,0,0
26837,-100,4,2,0,50,0,0
27288,-100,4,2,1,50,0,0
27514,-100,4,2,0,50,0,0
27739,-100,4,2,1,50,0,0
28472,-100,4,2,0,35,0,0
28698,-100,4,2,1,35,0,0
28867,-100,4,2,1,50,0,0
29092,-100,4,2,0,50,0,0
29544,-100,4,2,1,50,0,0
30446,-100,4,2,0,50,0,0
30897,-100,4,2,1,50,0,0
31123,-100,4,2,0,50,0,0
31348,-100,4,2,1,50,0,0
32025,-100,4,2,0,50,0,0
32250,-100,4,2,0,35,0,0
32476,-100,4,2,1,50,0,0
32701,-100,4,2,0,50,0,0
33153,-100,4,2,1,50,0,0
34055,-100,4,2,0,50,0,0
34280,-100,4,2,0,35,0,0
34506,-100,4,2,1,50,0,0
34732,-100,4,2,0,50,0,0
34957,-100,4,2,1,50,0,0
35352,-100,4,2,0,50,0,0
35465,-100,4,2,1,50,0,0
35634,-100,4,2,0,50,0,0
35859,-100,4,2,0,35,0,0
36085,-100,4,2,1,50,0,0
36311,-100,4,2,0,50,0,0
36762,-100,4,2,1,50,0,0
37664,-100,4,2,0,50,0,0
38566,-100,4,2,1,50,0,0
39243,-100,4,2,0,50,0,0
39468,-100,4,2,0,35,0,0
39694,-100,4,2,0,50,0,0
39807,-100,4,2,1,50,0,0
39920,-100,4,2,0,50,0,0
40822,-100,4,2,1,50,0,0
41273,-100,4,2,0,50,0,0
41498,-100,4,2,0,35,0,0
42175,-100,4,2,1,35,0,0
42852,-125,4,2,1,35,0,0
43754,-125,4,2,0,35,0,0
43980,-125,4,2,1,35,0,0
44431,-125,4,2,0,35,0,0
44882,-125,4,2,1,35,0,0
45333,-125,4,2,0,35,0,0
45784,-125,4,2,1,35,0,0
46010,-125,4,2,0,35,0,0
46686,-125,4,2,1,35,0,0
47363,-125,4,2,0,35,0,0
47589,-125,4,2,1,35,0,0
48040,-125,4,2,0,35,0,0
48491,-125,4,2,1,35,0,0
48942,-125,4,2,0,35,0,0
49393,-125,4,2,1,35,0,0
49844,-125,4,2,0,35,0,0
50295,-125,4,2,1,35,0,0
50859,-125,4,2,0,35,0,0
51198,-125,4,2,1,35,0,0
51649,-125,4,2,0,35,0,0
52100,-125,4,2,1,35,0,0
52551,-125,4,2,0,35,0,0
53002,-125,4,2,1,35,0,0
53228,-125,4,2,0,35,0,0
53904,-125,4,2,1,35,0,0
54356,-125,4,2,0,35,0,0
55709,-125,4,2,1,35,0,0
56160,-125,4,2,0,35,0,0
57514,-125,4,2,1,35,0,0
57739,-100,4,2,0,35,0,0
61461,-100,4,2,0,60,0,1
62025,-100,4,2,1,60,0,1
62927,-100,4,2,0,60,0,1
63378,-100,4,2,1,60,0,1
63604,-100,4,2,0,60,0,1
63829,-100,4,2,1,60,0,1
64732,-100,4,2,0,45,0,1
64957,-100,4,2,1,60,0,1
65183,-100,4,2,0,60,0,1
66085,-100,4,2,1,60,0,1
66536,-100,4,2,0,60,0,1
66987,-100,4,2,1,60,0,1
67213,-100,4,2,0,60,0,1
67438,-100,4,2,1,60,0,1
67833,-100,4,2,0,60,0,1
67946,-100,4,2,1,60,0,1
68115,-100,4,2,0,60,0,1
68341,-100,4,2,0,45,0,1
68566,-100,4,2,1,45,0,1
68792,-100,4,2,0,60,0,1
69243,-100,4,2,1,60,0,1
70145,-100,4,2,0,45,0,1
70371,-100,4,2,0,60,0,1
71047,-100,4,2,1,60,0,1
71724,-100,4,2,0,60,0,1
71950,-100,4,2,0,45,0,1
72175,-100,4,2,0,60,0,1
73303,-100,4,2,1,60,0,1
73529,-100,4,2,0,60,0,1
73980,-100,4,2,0,45,0,1
74205,-100,4,2,1,60,0,1
74431,-100,4,2,0,60,0,1
74656,-100,4,2,1,60,0,1
75333,-100,4,2,0,60,0,1
75559,-100,4,2,1,60,0,1
75841,-100,4,2,0,45,0,1
75953,-100,4,2,0,60,0,1
76461,-100,4,2,1,60,0,1
77250,-100,4,2,0,45,0,1
77701,-100,4,2,0,60,0,1
78265,-100,4,2,1,60,0,1
78829,-100,4,2,0,60,0,1
79168,-100,4,2,0,45,0,1
79393,-100,4,2,0,60,0,1
80521,-100,4,2,1,60,0,1
80972,-100,4,2,0,60,0,1
81423,-100,4,2,1,60,0,1
81649,-100,4,2,0,60,0,1
81874,-100,4,2,1,60,0,1
82551,-100,4,2,0,60,0,1
83002,-100,4,2,0,45,0,1
83679,-100,4,2,1,60,0,1
84356,-100,4,2,0,45,0,1
84920,-100,4,2,0,60,0,1
85483,-100,4,2,1,60,0,1
86160,-100,4,2,0,60,0,1
86386,-100,4,2,0,45,0,1
86724,-100,4,2,0,60,0,1
87739,-100,4,2,1,60,0,1
87965,-100,4,2,0,60,0,1
88416,-100,4,2,0,45,0,1
88641,-100,4,2,1,60,0,1
88867,-100,4,2,0,60,0,1
89092,-100,4,2,1,60,0,1
89769,-100,4,2,0,60,0,1
89995,-100,4,2,1,60,0,1
90333,-100,4,2,1,60,0,0
90671,-100,4,2,0,60,0,0
90897,-100,4,2,1,60,0,0
91574,-100,4,2,0,60,0,0
92025,-100,4,2,0,45,0,0
92250,-100,4,2,1,60,0,0
92476,-100,4,2,0,60,0,0
93717,-100,4,2,1,60,0,0
94168,-100,4,2,0,60,0,0
94506,-100,4,2,1,60,0,0
95183,-100,4,2,0,60,0,0
95634,-100,4,2,0,45,0,0
95859,-100,4,2,1,60,0,0
96085,-100,4,2,0,60,0,0
96423,-100,4,2,1,60,0,0
96874,-100,4,2,0,60,0,0
97326,-100,4,2,1,60,0,0
98453,-100,4,2,0,60,0,0
99468,-100,4,2,1,60,0,0
99694,-100,4,2,0,60,0,0
99920,-100,4,2,1,60,0,0
100596,-100,4,2,0,60,0,0
101047,-100,4,2,1,60,0,0
101273,-100,4,2,0,60,0,0
101724,-100,4,2,1,60,0,0
102401,-100,4,2,0,60,0,0
103077,-100,4,2,1,60,0,0
103303,-100,4,2,0,60,0,0
103529,-100,4,2,1,60,0,0
103754,-100,4,2,1,35,0,0
104769,-100,4,2,0,35,0,1
104826,-100,4,2,0,35,0,0

[Colours]
Combo1 : 255,74,255
Combo2 : 149,43,255
Combo3 : 55,255,55
Combo4 : 255,74,74

[HitObjects]
316,128,108,2,0,B|372:71|457:94|480:178|423:235,2,255,0|0|8
196,256,1912,2,0,B|139:312|54:289|31:205|88:148,2,255,0|0|2
316,128,3717,5,0
316,128,4168,2,0,B|404:128|472:196,2,170,0|0|8
332,280,5521,2,0,B|332:360|256:404|180:360|180:280,2,255,0|0|2
180,192,7326,6,0,B|223:124|183:46|96:42|52:109,2,255,0|0|8
332,192,9130,2,0,B|288:124|328:46|415:42|459:109,2,255,0|0|8
341,364,10935,6,0,B|157:364,1,170,0|8
128,284,11611,2,0,B|404:284,1,255,0|8
341,96,12739,6,0,B|157:96,1,170,0|8
128,16,13416,2,0,B|404:16,1,255,0|8
480,160,14544,6,0,B|456:204|456:260,2,85,0|0|8
404,124,15220,2,0,B|368:192|368:296,2,170
428,40,16348,2,0,B|252:40,1,170,0|8
172,40,17025,1,0
136,292,17701,5,8
136,292,17927,1,4
136,292,18153,2,0,B|112:336|112:392,2,85,0|0|8
212,244,18829,2,0,B|136:176|60:244,2,170
300,280,19957,2,0,B|376:348|452:280,2,170,0|8|0
256,108,21311,5,8
256,108,21536,1,4
256,108,21762,2,0,B|256:8,2,85,0|0|8
256,192,22438,2,0,B|256:368,1,170
392,256,23341,2,0,B|320:136|192:136|120:256,2,340,0|0|4
396,88,25596,5,0
340,24,25822,1,8
172,24,26273,1,0
116,88,26498,1,0
128,256,26950,2,0,B|128:112|256:76|384:112|384:256,1,425
216,284,28529,5,8
216,284,28754,1,4
216,284,28980,2,0,B|256:300|304:284,2,85,0|0|8
172,200,29656,2,0,B|256:172|340:200,2,170
88,196,30784,2,0,B|20:120|88:44,1,170,0|8
172,48,31461,2,0,B|256:76|340:48,1,170
424,48,32138,2,0,B|492:124|424:200,1,170,8|0
396,272,32814,6,0,B|376:320|406:377,1,85,0|8
308,352,33265,2,0,B|308:296|256:280|204:296|204:352,1,170
115,354,33942,2,0,B|132:320|116:272,1,85,8|0
104,192,34393,5,4
180,60,34844,1,8
332,60,35295,1,0
408,192,35747,1,8
256,272,36198,6,0,B|256:360,2,85,0|0|8
180,220,36874,2,0,B|256:152|332:220,1,170
420,56,37777,2,0,B|256:136|92:56,2,340,0|0|4
416,224,40032,5,0
416,224,40258,2,0,B|492:228|492:324|416:328,1,170,8|0
332,327,40935,2,0,B|256:259|180:327,1,170
94,327,41611,6,0,B|20:324|20:228|96:224,1,170,4|8
181,223,42288,2,0,B|257:155|333:223,1,170,4|0
320,20,43416,6,0,B|320:84|256:108|192:84|192:20,2,204,0|0|2
424,126,45220,1,0
424,126,45446,2,0,B|424:206|476:258,1,136
352,340,46348,2,0,B|256:280|160:340,1,204
44,252,47476,6,0,B|44:212|20:176,1,68
92,52,48153,2,0,B|92:92|116:128,1,68,0|2
200,236,48829,2,0,B|237:249|263:284,1,68,0|0
380,360,49506,2,0,B|459:397|513:281|434:243,1,204,0|2
352,120,50634,6,0,B|256:60|160:120,2,204,0|0|2
352,268,52438,2,0,B|256:328|160:268,2,204,0|0|2
464,192,54243,6,0,B|424:128|464:64,1,136,0|0
324,64,55145,1,0
324,64,55371,2,0,B|168:64,1,136
47,63,56273,5,0
47,63,56498,2,0,B|88:128|48:192,1,136,0|0
36,264,57175,2,0,B|180:264,1,136
256,192,57852,12,0,60559
180,240,61461,6,0,B|255:307|331:240,1,170,4|8
331,156,62138,2,0,B|255:87|178:155,1,170
108,296,63040,2,0,B|256:448|404:296,2,340,4|0|4
172,136,65295,5,0
172,136,65521,1,8
340,136,65972,1,0
340,136,66198,1,0
448,268,66649,6,0,B|372:344|256:256|256:256|140:344|64:268,1,425,0|0
172,136,68228,1,8
172,136,68679,6,0,B|376:136,1,170,4|8
342,50,69356,2,0,B|172:50,1,170
92,200,70258,2,0,B|256:280|420:200,2,340,4|0|4
256,108,72514,5,0
256,108,72739,1,8
256,276,73190,1,0
256,276,73416,1,0
256,276,73641,2,0,B|256:372,2,85,8|0|2
108,192,74544,5,8
256,108,74995,1,0
404,192,75446,1,8
256,276,75897,6,0,B|256:376,2,85,4|0|8
256,192,76574,2,0,B|256:16,1,170
392,128,77476,2,0,B|320:248|192:248|120:128,2,340,4|0|4
416,296,79732,6,0,B|364:308|322:349,1,85,0|8
171,333,80408,2,0,B|144:312|96:296,1,85
68,128,81085,6,0,B|172:176|172:-4|348:-4|348:176|452:128,1,425,0|0
336,276,82664,1,8
336,276,83115,6,0,B|256:224|176:276,1,170,4|8
172,360,83792,2,0,B|352:360,1,170
376,192,84694,2,0,B|376:128|308:128|256:84|256:84|204:128|136:128|136:192,2,340,4|0|4
256,312,86950,5,0
256,312,87175,1,8
256,124,87626,1,0
256,124,87852,1,0
256,124,88077,2,0,B|256:28,2,85,8|0|2
396,220,88980,5,8
256,312,89431,1,0
116,220,89882,1,8
116,220,90333,6,0,B|198:302|93:406|11:324,2,255,0|0|8
116,49,92138,1,2
256,148,92589,1,8
396,49,93040,1,2
396,220,93491,1,8
396,220,93942,6,0,B|313:302|418:406|500:324,2,255,0|0|8
396,49,95747,1,2
256,148,96198,1,8
116,49,96649,1,2
256,148,97100,1,8
352,288,97551,6,0,B|324:364|256:376|188:364|160:288,2,255,0|0|8
352,96,99356,2,0,B|324:20|256:8|188:20|160:96,2,255,0|0|8
368,264,101160,6,0,B|324:344|324:344|256:272|188:344|188:344|144:264,2,340,0|0|2
420,104,103416,1,8
256,56,103867,1,0
92,104,104318,1,8
256,152,104769,1,4
