osu file format v8

[General]
AudioFilename: BASARA.mp3
AudioLeadIn: 1511
PreviewTime: 150774
Countdown: 0
SampleSet: Soft
StackLeniency: 0.3
Mode: 0
LetterboxInBreaks: 1

[Editor]
DistanceSpacing: 0.899999976158142
BeatDivisor: 4
GridSize: 8

[Metadata]
Title:BASARA
Artist:Daisuke Achiwa
Creator:100pa-
Version:Luca
Source:Ar tonelico II
Tags:Ar Tonelico II 2

[Difficulty]
HPDrainRate:8
CircleSize:4
OverallDifficulty:7
ApproachRate:8
SliderMultiplier:1.8
SliderTickRate:0.5

[Events]
//Background and Video events
0,0,"luca.jpg"
//Break Periods
2,77146,78273
//Storyboard Layer 0 (Background)
//Storyboard Layer 1 (Fail)
//Storyboard Layer 2 (Pass)
//Storyboard Layer 3 (Foreground)
//Storyboard Sound Samples
//Background Colour Transformations
3,100,163,162,255

[TimingPoints]
3100,461.538461538462,4,2,1,40,1,0
10369,-100,4,2,1,60,0,0
17869,-100,4,2,1,100,0,1
30907,-100,4,2,1,80,0,1
31138,-100,4,2,1,70,0,1
31369,-100,4,2,1,60,0,1
31600,-100,4,2,1,50,0,1
31830,-100,4,2,1,40,0,0
32061,-100,4,2,1,30,0,0
32292,-100,4,2,1,20,0,0
32523,-100,4,2,1,100,0,0
32638,-100,4,2,1,100,0,1
47292,-100,4,2,1,100,0,0
47407,-100,4,2,1,100,0,1
47638,-100,4,2,1,100,0,0
47984,-100,4,2,1,49,0,0
49600,-100,4,2,1,100,0,0
102676,-200,4,2,1,100,0,0
106484,-100,4,2,1,100,0,1
108446,-100,4,2,1,100,0,1
135907,-100,4,2,1,100,0,0
136023,-100,4,2,1,100,0,1
136138,-100,4,2,1,100,0,0
165561,-100,4,2,1,100,0,1
196946,6000,4,2,1,100,1,1
197061,-100,4,2,1,100,0,0
200984,461.538461538462,4,2,1,100,1,0

[Colours]
Combo1 : 95,68,202
Combo2 : 231,18,18
Combo3 : 95,68,202

[HitObjects]
256,344,3100,1,10
208,280,3330,5,2
160,216,3561,1,2
120,144,3792,1,2
80,72,4023,1,2
120,144,4253,5,2
160,216,4484,1,2
208,280,4715,1,2
256,344,4946,5,10
304,280,5176,5,2
352,216,5407,1,2
392,144,5638,1,2
432,72,5869,5,2
392,144,6099,1,2
352,216,6330,1,2
304,280,6561,1,2
256,344,6792,5,10
256,256,7023,5,2
256,256,7138,1,2
256,256,7253,1,2
256,344,7484,1,2
256,256,7715,5,2
256,344,7946,1,2
256,256,8176,1,2
256,216,8292,1,2
256,176,8407,1,2
256,88,8638,6,0,B|256:-16,1,90,10|2
256,0,9100,5,2
256,0,9330,1,2
256,0,9792,5,2
256,88,10023,1,2
256,176,10253,1,2
256,264,10484,6,2,B|256:144,1,90,6|2
256,176,10946,5,2
256,176,11176,5,2
256,264,11407,6,2,B|256:144,1,90,6|2
256,176,11869,5,2
256,176,12100,5,2
256,264,12330,5,6
256,176,12561,5,2
256,176,12676,1,2
256,176,12792,2,0,B|256:72,1,90,10|2
312,16,13253,6,0,B|357:16,2,45,2|2|2
200,16,13715,2,0,B|155:16,2,45,2|2|2
166,88,14176,6,2,B|256:88,1,90,6|2
207,163,14638,2,2,B|256:88,1,90,6|2
304,163,15100,2,2,B|256:87,1,90,6|2
346,88,15561,2,2,B|256:88,1,90,6|2
346,88,16023,1,14
304,168,16253,1,14
208,168,16484,1,14
166,88,16715,1,14
168,88,16946,5,6
176,128,17061,1,6
200,160,17176,1,6
240,176,17292,1,6
272,176,17407,5,6
312,160,17523,1,6
336,128,17638,1,6
344,88,17753,1,10
344,40,17869,6,2,B|224:40,1,90,14|2
254,40,18330,5,2
254,40,18561,1,2
256,40,19023,5,2
256,128,19253,1,2
256,216,19484,1,2
256,304,19715,6,2,B|256:208,1,90,14|2
256,128,20176,5,2
256,128,20407,1,2
256,216,20638,2,0,B|256:120,1,90,2|2
256,40,21100,5,2
256,40,21215,1,2
256,40,21330,1,2
256,128,21561,5,14
256,40,21792,5,2
256,40,21907,1,2
256,40,22023,1,2
256,128,22253,1,2
256,304,22715,1,2
256,216,22946,5,2
256,216,23176,1,2
256,304,23407,5,6
256,128,23869,5,2
256,216,24100,1,2
256,48,24561,5,2
256,128,24792,1,2
256,128,25023,1,2
256,216,25253,5,6
160,207,25484,5,2
192,168,25600,1,2
225,128,25715,1,2
256,216,25946,1,2
352,207,26176,1,2
321,168,26292,1,2
288,128,26407,1,2
256,216,26638,1,2
303,296,26869,1,2
256,296,26984,1,2
208,296,27100,1,2
256,216,27330,1,2
256,128,27561,1,2
256,216,27792,1,2
256,128,28023,5,2
256,80,28138,1,2
256,32,28253,1,2
256,128,28484,1,2
256,80,28600,1,2
256,32,28715,1,2
256,216,28946,5,6
256,216,29407,5,2
256,120,29638,1,2
256,312,30100,5,2
256,216,30330,1,2
256,120,30561,1,2
144,32,30792,5,6
360,80,31023,1,6
168,128,31253,1,6
328,176,31484,1,6
192,216,31715,1,6
288,264,31946,1,14
224,296,32176,1,14
256,368,32407,1,14
256,368,32638,1,14
256,192,33100,5,2
256,96,33330,1,2
256,368,33792,5,2
256,280,34023,1,2
256,192,34253,1,2
256,96,34484,5,6
216,16,34715,5,2
256,0,34830,1,2
296,16,34946,1,2
256,96,35176,1,2
328,152,35407,5,2
299,178,35523,1,2
256,192,35638,1,2
213,178,35753,1,2
184,152,35869,1,2
256,96,36100,1,2
256,184,36330,5,6
256,184,36792,5,2
256,88,37023,1,2
256,280,37484,1,2
256,184,37715,1,2
256,88,37946,1,2
256,376,38407,5,2
256,280,38638,1,2
256,184,38869,1,2
256,56,39100,1,2
256,88,39215,1,2
256,120,39330,1,2
256,216,39561,2,0,B|256:264,3,45
256,296,40023,5,6
216,360,40253,5,2
256,376,40369,1,2
296,360,40484,1,2
256,296,40715,1,2
216,360,41176,1,2
256,376,41292,1,2
296,360,41407,1,2
256,296,41638,1,2
216,360,42099,1,2
256,376,42215,1,2
296,360,42330,1,2
256,296,42561,1,2
256,224,42792,5,2
256,192,42907,1,2
256,152,43023,1,2
256,48,43253,1,2
256,80,43369,1,2
256,112,43484,1,2
256,152,43599,1,2
256,184,43715,6,2,B|256:328,1,135,6|2
231,345,44176,2,2,B|156:347|108:277,1,135,6|2
97,255,44638,2,2,B|61:195|101:122,1,135,6|2
121,97,45099,2,2,B|161:44|245:36,1,135,6|2
274,36,45561,2,0,B|351:44|376:96,1,90,6|6
413,126,46023,2,0,B|451:195|400:240,1,90,6|6
396,286,46484,2,0,B|356:347|288:336,1,90,6|6
256,320,46946,5,2
256,288,47061,1,2
256,256,47176,5,2
256,216,47292,1,2
256,184,47407,5,6
256,48,48099,1,6
256,128,49715,5,2
256,40,49946,1,2
256,40,50407,5,2
256,40,50638,1,2
256,40,50869,1,2
256,176,51099,5,6
256,72,51446,5,2
256,40,51561,5,2
256,176,51792,5,6
64,48,53176,5,2
64,48,53638,1,2
64,48,54099,5,2
152,80,54330,1,2
224,136,54561,1,2
224,224,54792,5,6
224,136,55023,5,2
248,104,55138,1,2
288,80,55253,5,2
288,168,55484,5,6
288,168,55715,1,6
288,80,55946,5,2
440,32,56869,5,2
440,32,57330,1,2
440,32,57792,1,2
440,32,58253,1,2
440,120,58484,5,6
440,80,59176,5,2
72,120,60099,5,2
72,120,60330,5,6
72,80,61023,5,2
72,224,61484,1,2
72,256,61599,1,2
72,288,61715,5,2
72,288,61946,1,2
440,296,62176,5,6
440,224,62407,5,2
440,192,62523,1,2
440,160,62638,1,2
440,160,62869,1,2
216,160,64253,1,2
216,128,64369,1,2
216,96,64484,1,2
216,96,64715,1,2
88,96,65176,5,2
88,16,65407,1,2
88,16,65638,1,2
256,344,65869,5,6
256,192,66330,5,2
256,192,66561,1,2
256,32,67946,1,2
256,32,68407,1,2
256,32,68869,5,2
256,96,69099,1,2
256,160,69330,1,2
256,352,69561,5,6
256,256,69792,5,2
256,256,69907,1,2
256,256,70023,1,2
256,160,70253,5,2
56,168,70946,1,2
96,104,71176,1,2
256,192,71638,1,2
256,192,71869,1,2
256,120,72099,1,2
456,168,72561,1,2
424,104,72792,1,2
456,168,73023,1,2
472,352,73253,5,6
472,304,73946,5,2
472,304,74869,5,2
40,352,75099,5,6
40,304,75792,5,2
40,304,76253,1,2
256,160,76484,5,2
256,208,76600,1,2
256,256,76715,1,2
256,304,76830,1,2
256,352,76946,5,6
256,192,79023,5,2
256,192,79484,1,2
256,192,79946,5,2
256,168,80061,1,2
256,144,80176,1,2
256,144,80407,1,2
256,352,80638,5,6
96,256,80869,5,2
96,256,81099,5,2
256,352,81330,5,6
192,128,81561,5,2
192,128,81792,5,2
256,352,82023,5,6
336,168,82253,5,2
336,168,82369,1,2
336,168,82484,5,2
256,352,82715,5,6
464,104,82946,5,2
464,104,83176,5,2
256,352,83407,5,6
256,312,83523,1,6
256,272,83638,5,2
256,232,83753,5,2
256,192,83869,5,6
256,152,83984,1,6
256,112,84100,5,2
256,32,84330,5,2
256,32,84792,1,2
256,120,85023,5,6
256,32,85484,5,2
256,32,85946,1,2
256,32,86407,5,2
176,72,86638,5,6
256,32,86869,5,2
256,32,87330,5,2
336,72,87561,5,6
256,32,87792,5,2
256,80,87907,5,2
256,128,88023,5,6
256,344,88253,1,6
256,304,88369,1,6
256,264,88484,5,2
256,224,88600,5,2
256,184,88715,5,6
256,344,89176,1,6
256,184,89407,5,2
256,184,89523,5,2
256,184,89638,5,6
256,32,89869,5,2
256,120,90100,5,2
256,120,90215,1,2
256,120,90330,5,6
256,32,90561,5,2
256,128,91023,5,2
256,176,91138,1,2
256,224,91253,5,6
256,224,91484,1,6
256,352,91715,1,6
256,32,92407,5,2
256,32,92869,1,2
256,32,93330,5,2
256,192,93561,5,6
256,32,93792,5,2
256,32,94023,5,2
256,192,94253,5,6
256,32,94484,5,2
256,32,94715,1,2
256,160,94946,5,2
256,208,95061,1,2
256,256,95176,1,2
256,304,95292,1,2
256,352,95407,5,6
128,304,95638,5,2
128,304,95753,1,2
128,304,95869,5,2
256,352,96100,5,6
360,208,96330,5,2
360,208,96446,1,2
360,208,96561,5,2
256,352,96792,5,6
344,288,97023,5,2
344,288,97138,1,2
344,288,97253,5,2
256,352,97484,5,6
232,192,97715,5,2
232,192,97830,1,2
232,192,97946,5,2
256,352,98176,5,6
136,288,98407,5,2
136,288,98523,1,2
136,288,98638,1,2
136,288,98869,5,2
256,352,99100,5,6
256,32,99561,5,2
256,32,99792,1,2
40,32,100253,5,2
144,112,100484,1,2
216,224,100715,1,2
256,352,100946,5,6
256,192,101292,5,2
256,32,101638,1,2
472,32,102100,5,2
368,112,102330,1,2
296,224,102561,1,2
256,352,102792,6,0,B|256:32,1,315,6|0
440,32,104638,5,2
464,200,104869,1,2
368,320,105100,1,2
208,312,105330,1,2
136,192,105561,5,2
216,88,105792,1,10
336,120,106023,1,10
320,216,106253,1,10
256,192,106484,5,14
216,112,106715,5,2
304,112,106946,5,2
256,192,107176,5,6
208,264,107407,5,2
304,264,107638,5,2
256,344,107869,5,6
256,256,108100,5,2
256,256,108330,5,2
256,168,108561,5,6
256,128,108676,1,6
256,88,108792,6,2,B|256:24,2,45
256,168,109253,5,2
256,168,109369,1,2
256,168,109600,1,2
256,128,109715,6,0,B|256:24|256:16,2,90,6|2|14
256,40,110638,5,2
256,40,110869,1,2
256,40,111330,5,2
256,120,111561,6,0,B|256:224,1,90,6|2
256,208,112023,1,6
256,40,112715,5,2
256,40,113176,1,2
256,40,113407,1,2
256,40,113638,5,2
256,120,113869,5,6
176,105,114100,5,2
202,74,114215,1,2
227,42,114330,5,2
256,120,114561,5,6
256,48,115023,5,2
256,48,115253,5,2
256,120,115484,5,6
256,120,115715,1,6
336,105,115946,5,2
310,74,116061,1,2
285,42,116176,5,2
256,120,116407,5,6
256,48,116869,5,2
256,48,117100,5,2
256,120,117330,5,6
256,120,117561,1,6
256,88,118253,5,2
256,88,119176,5,2
256,160,119407,5,6
256,88,119638,5,2
256,88,119869,1,2
256,88,120100,1,2
256,88,120561,5,2
256,128,120676,1,2
256,168,120792,1,2
256,256,121023,1,2
256,352,121253,5,6
256,288,121484,5,2
256,248,121600,1,2
256,208,121715,1,2
256,128,121946,1,2
256,112,122407,1,2
256,96,122869,1,2
256,80,123330,1,2
256,64,123792,1,2
256,48,124253,5,2
256,48,124484,1,2
256,128,124715,1,2
256,168,124830,1,2
256,208,124946,5,6
256,128,125176,5,2
256,48,125407,1,2
256,48,125638,1,2
168,160,126330,1,2
208,88,126561,1,2
344,160,127023,1,2
304,88,127253,1,2
256,24,127484,1,2
256,24,127946,1,2
256,192,128176,5,2
256,232,128292,1,2
256,272,128407,1,2
256,312,128523,1,2
256,352,128638,5,6
256,312,128753,5,2
256,272,128869,1,2
256,232,128984,1,2
256,192,129100,1,2
256,88,129330,1,2
112,120,129792,1,2
128,160,129907,1,2
144,200,130023,1,2
112,120,130253,1,2
400,120,130715,1,2
384,160,130830,1,2
368,200,130946,1,2
400,120,131176,1,2
256,32,131407,5,2
256,112,131638,1,2
256,152,131753,1,2
256,192,131869,2,2,B|256:320,1,90
256,282,132330,5,6
226,58,132561,5,2
193,89,132676,5,2
158,120,132792,5,6
180,210,133023,5,2
169,166,133138,5,2
160,120,133253,5,6
73,91,133484,5,2
116,105,133600,5,2
160,120,133715,5,6
208,112,133830,5,2
256,104,133946,1,2
304,112,134061,5,2
352,120,134176,5,6
439,91,134407,5,2
396,105,134523,5,2
352,120,134638,5,6
332,210,134869,5,2
343,166,134984,5,2
352,120,135100,5,6
256,24,135330,1,6
256,136,135561,1,6
256,248,135792,1,6
256,360,136023,1,6
168,296,136253,5,2
168,296,136369,1,2
168,296,136484,5,2
256,360,136715,5,6
344,296,136946,5,2
344,296,137061,1,2
344,296,137176,5,2
256,360,137407,5,6
256,256,137638,6,0,B|256:160,1,90,2|6
256,56,138100,5,2
256,56,138215,1,2
256,56,138330,1,2
256,160,138561,5,6
256,56,138792,5,2
256,56,139023,1,2
256,56,139253,5,2
256,96,139369,1,2
256,128,139484,1,2
256,168,139600,1,2
256,200,139715,5,6
176,144,139946,5,2
176,144,140176,5,2
256,200,140407,5,6
296,176,140523,1,6
336,144,140638,5,2
336,144,140869,1,2
336,144,141100,1,2
336,144,141330,5,2
296,176,141446,1,2
256,200,141561,5,6
256,200,141792,1,6
256,104,142023,5,2
256,104,142253,5,2
256,200,142484,5,6
256,200,142600,1,6
256,168,142715,5,2
256,168,142830,5,2
256,200,142946,5,6
256,200,143061,1,6
256,168,143176,5,2
256,168,143292,5,2
256,200,143407,5,6
256,312,143638,1,6
256,96,144100,5,2
256,96,144561,1,2
256,96,145023,1,2
256,96,145484,5,2
256,216,145715,5,6
256,96,145946,5,2
256,96,146407,5,2
256,216,146638,5,6
256,96,146869,5,2
256,128,146984,5,2
256,168,147100,5,6
256,168,147330,1,6
256,128,147446,5,2
256,96,147561,1,2
256,96,147792,1,2
256,80,148253,1,2
256,64,148715,1,2
256,48,149176,1,2
256,32,149638,1,2
256,32,149869,5,2
256,120,150100,1,2
256,208,150330,1,2
256,248,150446,1,2
256,288,150561,1,2
256,328,150676,1,2
256,368,150792,5,6
168,296,151023,5,2
168,296,151138,1,2
168,296,151253,5,2
256,360,151484,5,6
344,296,151715,5,2
344,296,151830,1,2
344,296,151946,5,2
256,360,152176,5,6
256,256,152407,6,0,B|256:160,1,90,2|6
256,56,152869,5,2
256,56,152984,1,2
256,56,153100,1,2
256,192,153330,5,6
256,48,153561,5,2
256,192,153792,1,2
256,48,154023,5,2
256,88,154138,1,2
256,120,154253,1,2
256,160,154369,1,2
256,192,154484,5,6
192,152,154715,5,2
160,128,154830,1,2
128,104,154946,5,2
256,200,155176,5,6
384,104,155638,5,2
352,128,155753,1,2
320,152,155869,5,2
256,200,156100,5,6
256,360,156561,5,2
256,320,156676,1,2
256,280,156792,5,2
256,200,157023,5,6
64,224,157253,5,2
64,176,157369,1,2
64,128,157484,1,2
448,224,157715,5,2
448,176,157830,1,2
448,128,157946,1,2
448,80,158061,1,2
448,40,158176,5,6
64,40,159100,5,2
424,80,160023,5,2
88,80,160946,1,2
400,120,161869,5,6
112,120,162330,5,2
376,160,162792,5,2
136,160,163253,1,2
352,200,163715,5,6
160,200,163946,5,2
328,240,164176,5,6
184,240,164407,1,2
304,280,164638,5,6
208,280,164869,1,6
280,320,165100,1,6
232,320,165215,1,6
256,344,165330,1,6
256,344,165446,1,6
256,344,165561,1,14
200,272,165792,5,2
152,200,166023,5,2
104,128,166253,5,6
64,48,166484,5,2
104,128,166715,5,2
152,200,166946,5,6
200,272,167176,1,6
256,344,167407,1,14
312,272,167638,5,2
360,200,167869,5,2
408,128,168100,5,6
448,48,168330,5,2
408,128,168561,5,2
360,200,168792,5,6
312,272,169023,1,6
256,344,169253,1,14
256,256,169484,5,2
256,256,169600,1,2
256,256,169715,5,2
256,344,169946,5,6
256,344,170407,5,2
256,256,170638,5,2
256,216,170753,1,2
256,176,170869,1,2
256,88,171100,6,0,B|256:-16,1,90,14|2
256,0,171446,5,2
256,0,171561,1,2
256,0,171792,1,2
256,2,172138,5,2
256,40,172253,1,2
256,82,172369,1,2
256,128,172484,1,2
256,128,172715,1,2
256,264,172946,6,2,B|256:144,1,90,14|2
256,176,173292,5,2
256,176,173407,1,2
256,176,173638,1,2
256,264,174100,5,2
256,224,174215,1,2
256,176,174330,1,2
256,176,174561,1,2
256,264,174792,5,6
256,176,175023,5,2
256,176,175138,1,2
256,176,175253,2,2,B|256:72,1,90,10|2
312,16,175715,6,2,B|357:16,2,45,2|2|2
200,16,176176,2,2,B|155:16,2,45,2|2|2
192,64,176523,1,2
192,112,176638,6,2,B|255:175,1,90,6|2
216,176,176984,1,2
192,239,177100,2,2,B|256:176,1,90,6|2
256,216,177446,1,2
319,239,177561,2,2,B|256:176,1,90,6|2
296,176,177907,1,2
320,112,178023,2,2,B|256:175,1,90,6|2
224,208,178369,1,2
192,240,178484,1,14
192,112,178715,1,14
320,112,178946,1,14
320,240,179176,1,14
216,216,179407,5,6
184,176,179523,1,6
216,136,179638,1,6
256,104,179753,1,6
296,136,179869,5,6
328,176,179984,1,6
296,216,180100,1,6
256,248,180215,1,10
256,192,180330,6,0,B|254:102,1,90,14|2
256,64,180676,5,2
256,24,180792,1,2
256,24,181023,1,2
256,24,181484,5,2
256,112,181715,1,2
256,216,181946,1,2
256,304,182176,6,2,B|256:208,1,90,14|2
256,128,182638,5,2
256,128,182869,1,2
256,216,183100,2,2,B|256:120,1,90,2|2
256,40,183561,5,2
256,40,183676,1,2
256,40,183792,1,2
256,128,184023,5,14
256,40,184253,5,2
256,40,184369,1,2
256,40,184484,1,2
256,40,184715,1,2
256,304,185176,1,2
256,216,185407,5,2
256,216,185523,1,2
256,216,185638,1,2
256,304,185869,5,6
256,128,186330,5,2
256,216,186561,1,2
256,8,187023,5,2
256,72,187253,1,2
256,112,187369,1,2
256,144,187484,1,2
256,184,187600,1,2
256,216,187715,5,6
160,207,187946,5,2
192,168,188061,1,2
225,128,188176,1,2
256,216,188407,1,2
352,207,188638,1,2
321,168,188753,1,2
288,128,188869,1,2
256,216,189100,1,2
303,296,189330,1,2
256,296,189446,1,2
208,296,189561,1,2
256,216,189792,1,2
256,296,190023,1,2
256,216,190253,1,2
256,128,190484,5,2
256,80,190600,1,2
256,32,190715,1,2
256,32,190946,1,2
256,32,191061,1,2
256,32,191176,1,2
256,80,191292,1,2
256,128,191407,5,6
369,78,191638,5,2
335,112,191753,5,2
301,146,191869,5,6
415,191,192100,5,2
368,191,192215,5,2
320,192,192330,5,6
369,305,192561,5,2
335,271,192676,5,2
301,237,192792,5,6
256,351,193023,5,2
256,304,193138,5,2
256,256,193253,5,6
142,305,193484,5,2
176,271,193600,5,2
210,237,193715,5,6
96,192,193946,5,2
144,192,194061,5,2
191,192,194176,5,6
142,78,194407,5,2
176,112,194523,5,2
210,146,194638,5,6
176,112,194753,5,2
142,78,194869,1,2
112,48,194984,5,2
256,192,195330,12,0,196484
256,192,196946,6,0,B|256:320,1,121.25,0|14
256,312,201041,1,14
256,312,201099,1,10
