osu file format v13

[General]
AudioFilename: Skylove hurricane2.mp3
AudioLeadIn: 0
PreviewTime: 39282
Countdown: 0
SampleSet: Normal
StackLeniency: 0.7
Mode: 0
LetterboxInBreaks: 1
WidescreenStoryboard: 1

[Editor]
DistanceSpacing: 1.2
BeatDivisor: 4
GridSize: 4
TimelineZoom: 1

[Metadata]
Title:skylove hurricane
TitleUnicode:skylove hurricane
Artist:Daiichi Uchuu Sokudo
ArtistUnicode:Daiichi Uchuu Sokudo
Creator:sodarose
Version:Hard
Source:
Tags:SUPERORBITAL
BeatmapID:439885
BeatmapSetID:171447

[Difficulty]
HPDrainRate:5
CircleSize:4
OverallDifficulty:6
ApproachRate:7
SliderMultiplier:1.4
SliderTickRate:2

[Events]
//Background and Video events
0,0,"suonizi.jpg",0,0
Video,0,"suoniziMV1.flv"
//Break Periods
//Storyboard Layer 0 (Background)
//Storyboard Layer 1 (Fail)
//Storyboard Layer 2 (Pass)
//Storyboard Layer 3 (Foreground)
//Storyboard Sound Samples
//Background Colour Transformations
3,100,163,162,255

[TimingPoints]
5792,348.837209302326,4,2,0,55,1,0
26462,-100,4,3,0,55,0,0
27072,-100,4,2,0,55,0,0
30908,-66.6666666666667,4,2,0,55,0,0
31956,-100,4,2,0,55,0,0
39280,-100,4,2,0,55,0,1
49047,-100,4,2,0,55,0,0
50444,-100,4,2,0,55,0,1
61605,-100,4,1,0,50,0,0
78177,-100,4,1,0,55,0,0

[HitObjects]
140,148,6140,6,0,P|244:68|352:160,1,280,8|8,0:0|0:0,0:0:0:0:
336,264,7187,2,0,P|264:308|204:312,2,140,0|8|0,0:0|0:0|0:0,0:0:0:0:
172,104,8233,2,0,L|340:104,1,140,8|0,0:0|0:0,0:0:0:0:
184,264,8931,5,8,0:0:0:0:
268,264,9105,1,0,0:0:0:0:
348,264,9280,2,0,L|348:124,1,140,0|8,0:0|0:0,0:0:0:0:
220,64,9978,2,0,L|68:64,2,140,0|8|0,0:0|0:0|0:0,0:0:0:0:
148,160,11024,2,0,L|148:252,1,70,8|0,0:0|0:0,0:0:0:0:
160,324,11373,6,0,P|228:288|348:328,2,210,0|0|8,0:0|0:0|0:0,0:0:0:0:
344,48,12768,2,0,P|253:92|165:40,2,210,0|0|8,0:0|0:0|0:0,0:0:0:0:
360,288,14165,6,0,L|360:196,1,70
280,132,14512,2,0,L|280:220,1,70,8|0,0:0|0:0,0:0:0:0:
192,288,14861,2,0,L|192:212,2,70,0|0|8,0:0|0:0|0:0,0:0:0:0:
88,120,15559,2,0,P|152:88|216:124,1,140,0|8,0:0|0:0,0:0:0:0:
256,192,16082,1,0,0:0:0:0:
302,115,16258,2,0,P|364:88|424:120,1,140,0|8,0:0|0:0,0:0:0:0:
392,268,16954,6,0,P|336:300|232:300,1,140,0|8,0:0|0:0,0:0:0:0:
152,264,17479,2,0,P|88:192|108:136,1,140
160,104,18001,1,8,0:0:0:0:
240,104,18175,1,0,0:0:0:0:
320,104,18351,2,0,L|320:256,1,140,0|8,0:0|0:0,0:0:0:0:
248,228,18873,2,0,L|156:228,2,70
252,126,19396,1,0,0:0:0:0:
252,56,19572,2,0,L|252:148,1,70,0|4,0:0|0:0,0:0:0:0:
360,288,20094,5,8,0:0:0:0:
292,224,20268,1,0,0:0:0:0:
220,288,20444,2,0,P|152:236|160:176,1,140,0|8,0:0|0:0,0:0:0:0:
236,108,20966,2,0,L|336:108,2,70
140,108,21489,1,8,0:0:0:0:
140,108,21665,2,0,L|140:264,1,140
232,240,22187,1,8,0:0:0:0:
328,176,22361,5,0,0:0:0:0:
312,80,22537,2,0,L|232:128,2,70,0|0|8,0:0|0:0|0:0,0:0:0:0:
424,92,23059,2,0,L|424:240,1,140
352,312,23582,1,8,0:0:0:0:
168,320,23931,2,0,L|240:268,2,70,0|0|8,0:0|0:0|0:0,0:0:0:0:
64,300,24454,2,0,L|64:156,1,140
64,64,24979,1,8,0:0:0:0:
216,68,25326,6,0,L|312:68,1,70
284,184,25675,2,0,L|204:184,1,70,8|0,0:0|0:0,0:0:0:0:
212,296,26024,2,0,L|296:296,2,70,0|0|8,0:0|0:0|0:0,0:0:0:0:
104,296,26547,1,0,0:0:0:0:
104,296,26636,1,0,0:0:0:0:
104,296,26723,2,0,L|104:156,1,140,0|8,0:0|0:0,0:0:0:0:
256,80,27245,1,0,0:0:0:0:
256,80,27419,2,0,L|256:220,1,140,0|8,0:0|0:0,0:0:0:0:
308,328,28117,6,0,B|332:280|384:260|388:196,1,140,0|8,0:0|0:0,0:0:0:0:
308,52,28815,2,0,B|332:100|384:120|388:184,1,140,0|8,0:0|0:0,0:0:0:0:
220,180,29512,2,0,L|360:180,1,140,0|8,0:0|0:0,0:0:0:0:
220,180,30210,2,0,L|76:180,1,140,0|8,0:0|0:0,0:0:0:0:
268,108,30908,6,0,B|304:8|304:8|348:132,3,210.000008010865,0|8|0|8,0:0|0:0|0:0|0:0,0:0:0:0:
440,192,32303,1,0,0:0:0:0:
256,348,32652,1,8,0:0:0:0:
72,192,33001,1,0,0:0:0:0:
256,44,33350,1,8,0:0:0:0:
344,244,33698,5,0,0:0:0:0:
292,180,33873,1,0,0:0:0:0:
248,116,34047,1,8,0:0:0:0:
176,80,34223,2,0,P|120:144|196:256,1,210,0|8,0:0|0:0,0:0:0:0:
285,306,35094,6,0,L|328:239,2,70,0|0|8,0:0|0:0|0:0,0:0:0:0:
252,184,35617,2,0,L|182:142,2,70,0|0|0,0:0|0:0|0:0,0:0:0:0:
99,273,36141,6,0,P|157:313|230:284,1,140,8|0,0:0|0:0,0:0:0:0:
224,210,36664,1,0,0:0:0:0:
212,117,36838,2,0,P|287:65|356:71,1,140,8|0,0:0|0:0,0:0:0:0:
398,158,37360,1,0,0:0:0:0:
400,259,37536,2,0,P|297:306|266:299,1,140,8|0,0:0|0:0,0:0:0:0:
224,210,38058,1,0,0:0:0:0:
224,128,38233,2,0,L|222:39,2,70,8|0|0,0:0|0:0|0:0,0:0:0:0:
408,56,39280,6,0,L|408:204,1,140,0|8,0:0|0:0,0:0:0:0:
264,268,39978,2,0,P|204:276|176:252,1,70
132,188,40327,2,0,P|120:136|152:104,1,70,8|0,0:0|0:0,0:0:0:0:
264,100,40675,1,0,0:0:0:0:
360,160,40851,2,0,L|304:212,1,70,0|8,0:0|0:0,0:0:0:0:
236,304,41198,2,0,P|280:312|308:268,2,70,0|0|0,0:0|0:0|0:0,0:0:0:0:
132,316,41722,1,8,0:0:0:0:
96,148,42072,6,0,P|120:104|208:80,1,140,0|8,0:0|0:0,0:0:0:0:
320,144,42768,2,0,P|380:104|384:40,2,140,0|8|0,0:0|0:0|0:0,0:0:0:0:
220,256,43815,1,8,0:0:0:0:
320,296,43989,1,0,0:0:0:0:
320,296,44077,1,0,0:0:0:0:
320,296,44164,2,0,L|320:152,1,140,0|8,0:0|0:0,0:0:0:0:
104,124,44861,6,0,P|168:112|164:28,2,140,0|8|0,0:0|0:0|0:0,0:0:0:0:
256,192,45908,1,8,0:0:0:0:
408,260,46258,2,0,P|343:272|333:337,2,140,0|8|0,0:0|0:0|0:0,0:0:0:0:
256,192,47303,1,8,0:0:0:0:
168,100,47652,6,0,L|324:100,1,140,0|8,0:0|0:0,0:0:0:0:
308,276,48351,2,0,L|144:276,1,140,0|8,0:0|0:0,0:0:0:0:
144,160,49047,6,0,L|224:136,1,70,4|0,0:0|0:0,0:0:0:0:
172,188,49396,2,0,L|252:164,1,70,4|0,0:0|0:0,0:0:0:0:
208,216,49745,2,0,L|288:192,1,70,4|0,0:0|0:0,0:0:0:0:
244,248,50094,2,0,L|324:224,1,70,4|0,0:0|0:0,0:0:0:0:
316,312,50444,6,0,P|376:264|380:184,1,140,0|8,0:0|0:0,0:0:0:0:
324,120,51140,1,0,0:0:0:0:
324,120,51315,1,0,0:0:0:0:
324,120,51489,1,8,0:0:0:0:
232,268,51838,2,0,L|164:224,1,70,0|0,0:0|0:0,0:0:0:0:
144,148,52187,2,0,L|212:112,1,70,8|0,0:0|0:0,0:0:0:0:
284,144,52537,2,0,L|284:216,2,70,0|0|8,0:0|0:0|0:0,0:0:0:0:
388,312,53233,5,0,0:0:0:0:
388,72,53582,1,8,0:0:0:0:
216,100,53931,2,0,L|144:136,1,70
208,168,54280,2,0,L|280:168,1,70,8|0,0:0|0:0,0:0:0:0:
344,172,54630,1,0,0:0:0:0:
256,328,54979,1,8,0:0:0:0:
96,176,55326,2,0,P|160:104|208:88,1,140,0|8,0:0|0:0,0:0:0:0:
372,224,56024,6,0,L|392:304,2,70,0|0|8,0:0|0:0|0:0,0:0:0:0:
312,116,56723,2,0,P|252:72|180:96,1,140,0|8,0:0|0:0,0:0:0:0:
48,128,57419,2,0,L|112:160,1,70
164,176,57768,2,0,L|116:240,1,70,8|0,0:0|0:0,0:0:0:0:
180,256,58117,2,0,L|260:256,1,70,0|0,0:0|0:0,0:0:0:0:
316,256,58466,1,8,0:0:0:0:
404,204,58815,2,0,L|300:88,1,140,0|8,0:0|0:0,0:0:0:0:
108,172,59512,2,0,L|212:288,1,140,0|8,0:0|0:0,0:0:0:0:
332,224,60210,6,0,L|332:148,1,70,4|0,0:0|0:0,0:0:0:0:
296,196,60559,2,0,L|296:120,1,70,4|0,0:0|0:0,0:0:0:0:
260,168,60908,2,0,L|260:92,1,70,4|0,0:0|0:0,0:0:0:0:
224,140,61258,2,0,L|224:68,1,70,4|0,0:0|0:0,0:0:0:0:
156,112,61605,6,0,P|128:164|176:240,1,140
256,288,62130,1,0,0:0:0:0:
351,232,62303,2,0,P|384:173|356:112,1,140
256,64,62826,1,0,0:0:0:0:
256,128,63001,2,0,L|256:200,3,70,0|0|0|0,0:0|0:0|0:0|0:0,0:0:0:0:
376,264,63873,5,0,0:0:0:0:
300,288,64047,1,0,0:0:0:0:
224,280,64223,1,0,0:0:0:0:
132,248,64396,2,0,L|204:200,1,70
308,156,64745,2,0,L|224:144,1,70
176,64,65094,2,0,L|116:112,2,70,0|0|0,0:0|0:0|0:0,0:0:0:0:
392,288,65793,5,0,0:0:0:0:
396,212,65966,1,0,0:0:0:0:
396,136,66140,2,0,L|396:60,2,70,0|0|0,0:0|0:0|0:0,0:0:0:0:
144,224,66838,5,0,0:0:0:0:
208,280,67012,1,0,0:0:0:0:
104,148,67187,6,0,L|180:120,1,70
264,136,67537,2,0,L|320:88,1,70
416,168,67886,2,0,L|336:200,1,70
360,304,68233,2,0,L|272:264,1,70
200,288,68582,5,0,0:0:0:0:
252,208,68758,1,0,0:0:0:0:
160,164,68931,1,0,0:0:0:0:
112,252,69105,1,0,0:0:0:0:
252,208,69280,2,0,L|252:64,1,140
328,304,69979,6,0,L|424:304,1,70
312,216,70326,1,0,0:0:0:0:
228,212,70502,1,0,0:0:0:0:
148,212,70675,1,0,0:0:0:0:
196,124,70851,1,0,0:0:0:0:
280,124,71024,1,0,0:0:0:0:
280,124,71198,2,0,L|332:60,1,70
340,204,71547,2,0,L|416:184,1,70
316,288,71896,2,0,L|244:256,2,70,0|0|0,0:0|0:0|0:0,0:0:0:0:
208,320,72420,1,0,0:0:0:0:
128,200,72768,6,0,P|132:128|60:72,1,140
260,60,73466,2,0,P|320:96|300:180,1,140
260,296,74165,1,0,0:0:0:0:
352,292,74338,2,0,L|424:292,2,70,0|0|0,0:0|0:0|0:0,0:0:0:0:
184,136,75210,5,0,0:0:0:0:
184,64,75386,1,0,0:0:0:0:
184,136,75559,2,0,P|196:184|236:208,1,70
296,156,75908,2,0,L|368:144,1,70
408,228,76258,2,0,P|376:292|296:304,1,140
136,288,76954,2,0,L|108:220,1,70
88,156,77303,2,0,L|168:132,2,70,0|0|0,0:0|0:0|0:0,0:0:0:0:
324,120,78001,5,0,0:0:0:0:
248,96,78175,1,0,0:0:0:0:
404,168,78350,6,0,P|376:196|336:196,1,70,0|0,0:0|0:0,0:0:0:0:
316,296,78699,2,0,P|296:260|248:236,1,70
168,272,79047,2,0,P|180:232|220:208,1,70
96,216,79396,2,0,P|108:184|152:148,1,70
200,76,79745,1,0,0:0:0:0:
292,76,79919,1,0,0:0:0:0:
392,76,80094,2,0,L|392:176,1,70
392,244,80444,1,0,0:0:0:0:
212,304,81141,6,0,P|168:280|148:192,1,140
132,120,81665,2,0,L|44:148,2,70,0|0|0,0:0|0:0|0:0,0:0:0:0:
360,76,82361,1,0,0:0:0:0:
404,136,82537,1,0,0:0:0:0:
384,208,82710,1,0,0:0:0:0:
180,336,83059,2,0,L|224:276,1,70
240,216,83408,2,0,L|208:148,1,70
192,92,83758,2,0,L|244:36,1,70
256,192,84106,12,8,86374,0:0:0:0:
376,288,86723,6,0,L|376:144,1,140,0|8,0:0|0:0,0:0:0:0:
288,136,87245,1,0,0:0:0:0:
204,136,87419,1,0,0:0:0:0:
116,140,87594,2,0,L|116:284,1,140
216,280,88117,1,0,0:0:0:0:
328,284,88293,2,0,L|404:284,3,70,0|8|0|0,0:0|0:0|0:0|0:0,0:0:0:0:
404,184,88989,2,0,L|404:88,1,70,0|8,0:0|0:0,0:0:0:0:
84,80,89512,6,0,L|168:80,1,70
244,80,89861,1,8,0:0:0:0:
340,80,90037,1,0,0:0:0:0:
336,192,90210,2,0,L|180:192,1,140,0|8,0:0|0:0,0:0:0:0:
108,192,90733,1,0,0:0:0:0:
148,296,90908,2,0,L|228:296,1,70
324,296,91258,1,8,0:0:0:0:
412,296,91431,2,0,L|412:216,1,70
416,132,91780,1,0,0:0:0:0:
416,132,91954,1,8,0:0:0:0:
120,312,92303,6,0,L|120:216,1,70
212,312,92652,1,8,0:0:0:0:
300,312,92826,1,0,0:0:0:0:
304,208,93001,1,0,0:0:0:0:
304,116,93175,1,0,0:0:0:0:
216,112,93351,2,0,L|120:112,1,70,8|0,0:0|0:0,0:0:0:0:
152,188,93698,1,0,0:0:0:0:
248,188,93873,2,0,L|348:188,1,70,0|8,0:0|0:0,0:0:0:0:
432,192,94223,1,0,0:0:0:0:
384,296,94396,2,0,L|328:296,5,35,0|0|0|8|0|0,0:0|0:0|0:0|0:0|0:0|0:0,0:0:0:0:
248,296,95094,1,0,0:0:0:0:
256,192,95181,12,4,96838,0:0:0:0:
