osu file format v13

[General]
AudioFilename: Skylove hurricane2.mp3
AudioLeadIn: 0
PreviewTime: 39282
Countdown: 0
SampleSet: Soft
StackLeniency: 0.7
Mode: 0
LetterboxInBreaks: 1
WidescreenStoryboard: 1

[Editor]
DistanceSpacing: 1.5
BeatDivisor: 2
GridSize: 4
TimelineZoom: 1

[Metadata]
Title:skylove hurricane
TitleUnicode:skylove hurricane
Artist:Daiichi Uchuu Sokudo
ArtistUnicode:Daiichi Uchuu Sokudo
Creator:sodarose
Version:Easy
Source:
Tags:SUPERORBITAL
BeatmapID:420713
BeatmapSetID:171447

[Difficulty]
HPDrainRate:2
CircleSize:2
OverallDifficulty:2
ApproachRate:3
SliderMultiplier:0.599999999999999
SliderTickRate:1

[Events]
//Background and Video events
0,0,"suonizi.jpg",0,0
Video,0,"suoniziMV1.flv"
//Break Periods
2,86573,88072
//Storyboard Layer 0 (Background)
//Storyboard Layer 1 (Fail)
//Storyboard Layer 2 (Pass)
//Storyboard Layer 3 (Foreground)
//Storyboard Sound Samples
//Background Colour Transformations
3,100,163,162,255

[TimingPoints]
5792,348.837209302326,4,2,0,70,1,0
39280,-100,4,2,0,70,0,1
39629,-100,4,2,0,70,0,1
49047,-100,4,2,0,70,0,0
50444,-100,4,2,0,70,0,1
61344,-100,4,1,0,70,0,0
78177,-100,4,2,0,70,0,0

[HitObjects]
172,120,6140,6,0,B|196:96|196:96|312:96|312:96|340:136,1,180,2|0,0:0|0:0,0:0:0:0:
336,212,7536,2,0,L|208:212,1,120,2|0,0:0|0:0,0:0:0:0:
216,120,8582,5,2,0:0:0:0:
124,120,8931,2,0,L|124:208,1,59.9999999999999,0|2,0:0|0:0,0:0:0:0:
180,252,9629,2,0,P|280:284|368:244,1,180,0|2,0:0|0:0,0:0:0:0:
308,84,11373,2,0,L|176:84,1,120,2|0,0:0|0:0,0:0:0:0:
184,264,12768,6,0,L|328:264,1,120,2|0,0:0|0:0,0:0:0:0:
148,176,14163,5,2,0:0:0:0:
220,232,14512,1,0,0:0:0:0:
308,244,14861,1,2,0:0:0:0:
396,236,15209,1,0,0:0:0:0:
432,152,15559,2,0,B|432:88|432:88|360:88,1,120,2|2,0:0|0:0,0:0:0:0:
108,96,17303,6,0,B|88:140|88:140|160:172|160:172|164:228,1,180,0|2,0:0|0:0,0:0:0:0:
252,228,18698,2,0,L|384:228,1,120,0|2,0:0|0:0,0:0:0:0:
472,76,20094,6,0,B|448:52|448:52|400:52,1,59.9999999999999,2|0,0:0|0:0,0:0:0:0:
348,104,20792,2,0,B|304:72|272:44|272:44|180:48,1,180,2|0,0:0|0:0,0:0:0:0:
152,224,22535,6,0,B|148:192|228:164|264:196,1,120,2|0,0:0|0:0,0:0:0:0:
424,136,23931,2,0,B|420:112|380:80|316:88,1,120,2|0,0:0|0:0,0:0:0:0:
184,200,25326,5,2,0:0:0:0:
256,256,25675,1,0,0:0:0:0:
344,244,26024,2,0,P|356:204|336:168,1,59.9999999999999,2|0,0:0|0:0,0:0:0:0:
340,100,26721,1,2,0:0:0:0:
264,48,27071,2,0,L|216:92,1,59.9999999999999,0|2,0:0|0:0,0:0:0:0:
200,268,28117,6,0,B|180:240|180:240|212:212|212:212|212:160,1,120,2|2,0:0|0:0,0:0:0:0:
200,80,29163,1,0,0:0:0:0:
292,80,29512,2,0,B|328:112|328:112|324:160|324:160|292:184,1,120,2|2,0:0|0:0,0:0:0:0:
308,264,30559,1,0,0:0:0:0:
392,228,30908,6,0,P|432:192|432:172,1,59.9999999999999,2|0,0:0|0:0,0:0:0:0:
376,116,31605,2,0,P|380:96|344:68,1,59.9999999999999,2|0,0:0|0:0,0:0:0:0:
280,120,32303,1,2,0:0:0:0:
216,184,32652,1,0,0:0:0:0:
292,228,33001,1,2,0:0:0:0:
220,284,33349,1,0,0:0:0:0:
144,236,33699,6,0,B|108:192|108:192|128:132,1,120,2|2,0:0|0:0,0:0:0:0:
216,124,34745,1,0,0:0:0:0:
296,80,35094,2,0,B|320:140|280:168|328:208,1,120,2|2,0:0|0:0,0:0:0:0:
248,252,36141,1,0,0:0:0:0:
336,244,36489,6,0,B|412:212|428:200|352:100,1,180,2|0,0:0|0:0,0:0:0:0:
272,116,37884,2,0,B|212:56|268:24|308:20,1,120,2|2,0:0|0:0,0:0:0:0:
368,192,39280,5,4,0:0:0:0:
260,336,39977,2,0,B|200:252|200:252|172:312|172:312|120:248|120:248,1,240,2|2,0:0|0:0,0:0:0:0:
100,184,41721,1,0,0:0:0:0:
180,144,42071,2,0,B|148:88|108:52|152:16|240:20|288:64,1,240,2|2,0:0|0:0,0:0:0:0:
300,144,43815,1,0,0:0:0:0:
372,88,44164,2,0,P|420:100|444:120,1,59.9999999999999,2|0,0:0|0:0,0:0:0:0:
452,192,44861,6,0,B|420:268|344:272|288:220,1,180,2|0,0:0|0:0,0:0:0:0:
216,216,46256,1,2,0:0:0:0:
216,308,46605,1,0,0:0:0:0:
136,268,46954,2,0,L|92:192,1,59.9999999999999,2|0,0:0|0:0,0:0:0:0:
144,132,47652,6,0,B|196:60|196:60|248:144,1,180,2|0,0:0|0:0,0:0:0:0:
284,220,49047,2,4,L|284:296,1,59.9999999999999,4|4,0:0|0:0,0:0:0:0:
192,276,49745,2,4,L|192:208,1,59.9999999999999
200,128,50442,5,4,0:0:0:0:
368,64,51140,2,0,B|416:100|360:156|448:224|448:224|388:280,1,240,2|2,0:0|0:0,0:0:0:0:
320,272,52884,1,0,0:0:0:0:
232,280,53233,2,0,B|184:308|184:308|144:276|144:276|132:228|132:228|164:188,1,180,2|0,0:0|0:0,0:0:0:0:
144,120,54628,1,2,0:0:0:0:
228,84,54977,1,0,0:0:0:0:
292,144,55326,2,0,B|340:168|356:136|356:136|360:136,1,59.9999999999999,2|0,0:0|0:0,0:0:0:0:
432,112,56024,6,0,B|468:160|468:160|448:196|368:248,1,180,2|0,0:0|0:0,0:0:0:0:
292,252,57419,1,2,0:0:0:0:
212,292,57768,1,0,0:0:0:0:
132,248,58117,2,0,P|112:212|84:232,1,59.9999999999999,2|0,0:0|0:0,0:0:0:0:
156,144,58815,6,0,P|112:92|200:76,1,180,2|0,0:0|0:0,0:0:0:0:
256,128,60210,1,2,0:0:0:0:
216,208,60559,1,0,0:0:0:0:
296,248,60908,1,2,0:0:0:0:
340,168,61256,1,0,0:0:0:0:
364,80,61605,6,0,P|328:84|316:56,1,59.9999999999999
228,68,62303,2,0,P|208:84|164:96,1,59.9999999999999
124,168,63001,2,0,B|132:228|188:220|232:308,1,180
316,276,64396,6,0,P|316:240|360:224,1,59.9999999999999
340,136,65094,2,0,P|312:136|276:104,1,59.9999999999999
200,92,65792,2,0,L|200:220,1,120
368,280,67187,6,0,P|408:264|408:240,1,59.9999999999999
396,164,67885,2,0,P|380:132|352:124,1,59.9999999999999
268,120,68582,2,0,P|240:140|236:176,1,59.9999999999999
232,252,69280,2,0,P|260:276|300:272,1,59.9999999999999
336,204,69978,6,0,P|296:184|300:152,1,59.9999999999999
204,176,70675,2,0,P|180:208|144:212,1,59.9999999999999
120,136,71373,1,0,0:0:0:0:
196,92,71721,1,0,0:0:0:0:
288,92,72070,1,0,0:0:0:0:
108,76,72768,6,0,B|164:104|132:148|216:60,1,120
220,164,73815,1,0,0:0:0:0:
180,244,74164,2,0,B|216:216|248:212|248:212|312:244,1,120
368,268,75210,1,0,0:0:0:0:
400,184,75559,6,0,P|344:152|272:168,1,120
200,132,76605,1,0,0:0:0:0:
116,168,76954,2,0,B|92:116|92:116|144:64|208:64,1,180
288,92,78350,6,0,P|316:104|320:140,1,59.9999999999999,2|0,0:0|0:0,0:0:0:0:
320,220,79047,2,0,P|296:248|252:248,1,59.9999999999999,2|0,0:0|0:0,0:0:0:0:
184,260,79745,2,0,P|152:240|160:204,1,59.9999999999999,2|0,0:0|0:0,0:0:0:0:
160,132,80443,2,0,P|196:96|224:96,1,59.9999999999999,2|0,0:0|0:0,0:0:0:0:
292,84,81140,6,0,B|336:128|336:128|336:192,1,120,2|2,0:0|0:0,0:0:0:0:
256,228,82187,2,0,B|216:204|216:204|216:164|216:164|260:148,1,120
292,76,83233,1,2,0:0:0:0:
256,192,83582,12,0,86373,0:0:0:0:
96,188,89512,6,4,P|252:300|416:176,1,419.999999999999,4|0,0:0|0:0,0:0:0:0:
414,181,92303,2,4,P|244:68|92:200,1,419.999999999999
256,192,95094,12,4,96838,0:0:0:0:
