osu file format v9

[General]
AudioFilename: SoniComi - Superorbital.mp3
AudioLeadIn: 0
PreviewTime: 50969
Countdown: 0
SampleSet: Normal
StackLeniency: 0.6
Mode: 0
LetterboxInBreaks: 0

[Editor]
Bookmarks: 4180,5543,10998,16452,21907,27361,32816,38270,43725,49180,51055,51907,57361,62134,62816,68270,73725,79180,84634,89577
DistanceSpacing: 1
BeatDivisor: 4
GridSize: 4

[Metadata]
Title:SUPERORBITAL
Artist:Daiichi Uchuu Sokudo
Creator:phonic
Version:Insane
Source:SoniComi
Tags:Cilvery Ryafuka spboxer3 sherrie__fay NSS Nitroplus Nitro Headphone Communication With Sonico

[Difficulty]
HPDrainRate:7
CircleSize:4
OverallDifficulty:7
ApproachRate:8
SliderMultiplier:1.8
SliderTickRate:1

[Events]
//Background and Video events
0,0,"BG.jpg"
//Break Periods
//Storyboard Layer 0 (Background)
//Storyboard Layer 1 (Fail)
//Storyboard Layer 2 (Pass)
//Storyboard Layer 3 (Foreground)
Sprite,Foreground,Centre,"SB\A1.png",320,240 L,0,1 M,0,16111,16282,80,40,90,50 V,0,16111,16282,0.1,1,1,1 M,0,16111,26680,90,50,90,70 F,0,25998,26680,1,0
Sprite,Foreground,Centre,"SB\A2.png",320,240 L,100,1 M,0,16111,16282,80,70,90,80 V,0,16111,16282,0.1,1,1,1 M,0,16111,26680,90,80,90,100 F,0,25998,26680,1,0
Sprite,Foreground,Centre,"SB\A3.png",320,240 L,200,1 M,0,16111,16282,80,100,90,110 V,0,16111,16282,0.1,1,1,1 M,0,16111,26680,90,110,90,130 F,0,25998,26680,1,0
Sprite,Foreground,Centre,"SB\A4.png",320,240 L,300,1 M,0,16111,16282,80,130,90,140 V,0,16111,16282,0.1,1,1,1 M,0,16111,26680,90,140,90,160 F,0,25998,26680,1,0
Sprite,Foreground,Centre,"SB\A5.png",320,240 L,400,1 M,0,16111,16282,80,160,90,170 V,0,16111,16282,0.1,1,1,1 M,0,16111,26680,90,170,90,190 F,0,25998,26680,1,0
Sprite,Foreground,Centre,"SB\A6.png",320,240 L,500,1 M,0,16111,16282,80,190,90,200 V,0,16111,16282,0.1,1,1,1 M,0,16111,26680,90,200,90,220 F,0,25998,26680,1,0
Sprite,Foreground,Centre,"SB\A7.png",320,240 L,600,1 M,0,16111,16282,80,220,90,230 V,0,16111,16282,0.1,1,1,1 M,0,16111,26680,90,230,90,250 F,0,25998,26680,1,0
Sprite,Foreground,Centre,"SB\A8.png",320,240 L,2350,1 M,0,16111,16282,120,120,130,130 V,0,16111,16282,0.1,1,1,1 M,0,16111,26680,130,130,130,150 F,0,25998,26680,1,0
Sprite,Foreground,Centre,"SB\A9.png",320,240 L,2450,1 M,0,16111,16282,120,150,130,160 V,0,16111,16282,0.1,1,1,1 M,0,16111,26680,130,160,130,180 F,0,25998,26680,1,0
Sprite,Foreground,Centre,"SB\A10.png",320,240 L,2550,1 M,0,16111,16282,120,180,130,190 V,0,16111,16282,0.1,1,1,1 M,0,16111,26680,130,190,130,210 F,0,25998,26680,1,0
Sprite,Foreground,Centre,"SB\A11.png",320,240 L,2650,1 M,0,16111,16282,120,210,130,220 V,0,16111,16282,0.1,1,1,1 M,0,16111,26680,130,220,130,240 F,0,25998,26680,1,0
Sprite,Foreground,Centre,"SB\A12.png",320,240 L,2750,1 M,0,16111,16282,120,240,130,250 V,0,16111,16282,0.1,1,1,1 M,0,16111,26680,130,250,130,270 F,0,25998,26680,1,0
Sprite,Foreground,Centre,"SB\A13.png",320,240 L,2850,1 M,0,16111,16282,120,270,130,280 V,0,16111,16282,0.1,1,1,1 M,0,16111,26680,130,280,130,300 F,0,25998,26680,1,0
Sprite,Foreground,Centre,"SB\B1.png",320,240 L,0,1 M,0,21225,21395,190,220,200,230 V,0,21225,21395,0.1,1,1,1 M,0,21225,26680,200,230,200,250 F,0,25998,26680,1,0
Sprite,Foreground,Centre,"SB\B2.png",320,240 L,100,1 M,0,21225,21395,190,250,200,260 V,0,21225,21395,0.1,1,1,1 M,0,21225,26680,200,260,200,280 F,0,25998,26680,1,0
Sprite,Foreground,Centre,"SB\B1.png",320,240 L,200,1 M,0,21225,21395,190,280,200,290 V,0,21225,21395,0.1,1,1,1 M,0,21225,26680,200,290,200,310 F,0,25998,26680,1,0
Sprite,Foreground,Centre,"SB\B2.png",320,240 L,300,1 M,0,21225,21395,190,310,200,320 V,0,21225,21395,0.1,1,1,1 M,0,21225,26680,200,320,200,340 F,0,25998,26680,1,0
Sprite,Foreground,Centre,"SB\B3.png",320,240 L,400,1 M,0,21225,21395,190,340,200,350 V,0,21225,21395,0.1,1,1,1 M,0,21225,26680,200,350,200,370 F,0,25998,26680,1,0
Sprite,Foreground,Centre,"SB\B4.png",320,240 L,500,1 M,0,21225,21395,190,370,200,380 V,0,21225,21395,0.1,1,1,1 M,0,21225,26680,200,380,200,400 F,0,25998,26680,1,0
Sprite,Foreground,Centre,"SB\C1.png",320,240 L,0,1 M,0,23782,23952,230,310,240,320 V,0,23782,23952,0.1,1,1,1 M,0,23782,26680,240,320,240,340 F,0,25998,26680,1,0
Sprite,Foreground,Centre,"SB\C2.png",320,240 L,100,1 M,0,23782,23952,230,340,240,350 V,0,23782,23952,0.1,1,1,1 M,0,23782,26680,240,350,240,370 F,0,25998,26680,1,0
Sprite,Foreground,Centre,"SB\C3.png",320,240 L,200,1 M,0,23782,23952,230,370,240,380 V,0,23782,23952,0.1,1,1,1 M,0,23782,26680,240,380,240,400 F,0,25998,26680,1,0
Sprite,Foreground,Centre,"SB\D1.png",320,240 L,27020,1 M,0,0,171,80,40,90,50 V,0,0,171,0.1,1,1,1 M,0,0,10569,90,50,90,70 F,0,38270,38952,1,0
Sprite,Foreground,Centre,"SB\D2.png",320,240 L,27120,1 M,0,0,171,80,70,90,80 V,0,0,171,0.1,1,1,1 M,0,0,10569,90,80,90,100 F,0,38270,38952,1,0
Sprite,Foreground,Centre,"SB\D3.png",320,240 L,27220,1 M,0,0,171,80,100,90,110 V,0,0,171,0.1,1,1,1 M,0,0,10569,90,110,90,130 F,0,38270,38952,1,0
Sprite,Foreground,Centre,"SB\D4.png",320,240 L,27320,1 M,0,0,171,80,130,90,140 V,0,0,171,0.1,1,1,1 M,0,0,10569,90,140,90,160 F,0,38270,38952,1,0
Sprite,Foreground,Centre,"SB\E1.png",320,240 L,0,1 M,0,29407,29577,120,120,130,130 V,0,29407,29577,0.1,1,1,1 M,0,29407,38952,130,130,130,150 F,0,38270,38952,1,0
Sprite,Foreground,Centre,"SB\E2.png",320,240 L,100,1 M,0,29407,29577,120,150,130,160 V,0,29407,29577,0.1,1,1,1 M,0,29407,38952,130,160,130,180 F,0,38270,38952,1,0
Sprite,Foreground,Centre,"SB\E3.png",320,240 L,200,1 M,0,29407,29577,120,180,130,190 V,0,29407,29577,0.1,1,1,1 M,0,29407,38952,130,190,130,210 F,0,38270,38952,1,0
Sprite,Foreground,Centre,"SB\E4.png",320,240 L,300,1 M,0,29407,29577,120,210,130,220 V,0,29407,29577,0.1,1,1,1 M,0,29407,38952,130,220,130,240 F,0,38270,38952,1,0
Sprite,Foreground,Centre,"SB\E5.png",320,240 L,400,1 M,0,29407,29577,120,240,130,250 V,0,29407,29577,0.1,1,1,1 M,0,29407,38952,130,250,130,270 F,0,38270,38952,1,0
Sprite,Foreground,Centre,"SB\E6.png",320,240 L,500,1 M,0,29407,29577,120,270,130,280 V,0,29407,29577,0.1,1,1,1 M,0,29407,38952,130,280,130,300 F,0,38270,38952,1,0
Sprite,Foreground,Centre,"SB\E7.png",320,240 L,600,1 M,0,29407,29577,120,300,130,310 V,0,29407,29577,0.1,1,1,1 M,0,29407,38952,130,310,130,330 F,0,38270,38952,1,0
Sprite,Foreground,Centre,"SB\E8.png",320,240 L,700,1 M,0,29407,29577,120,330,130,340 V,0,29407,29577,0.1,1,1,1 M,0,29407,38952,130,340,130,360 F,0,38270,38952,1,0
Sprite,Foreground,Centre,"SB\F1.png",320,240 L,0,1 M,0,32134,32305,190,220,200,230 V,0,32134,32305,0.1,1,1,1 M,0,32134,38952,200,230,200,250 F,0,38270,38952,1,0
Sprite,Foreground,Centre,"SB\F2.png",320,240 L,100,1 M,0,32134,32305,190,250,200,260 V,0,32134,32305,0.1,1,1,1 M,0,32134,38952,200,260,200,280 F,0,38270,38952,1,0
Sprite,Foreground,Centre,"SB\F3.png",320,240 L,200,1 M,0,32134,32305,190,280,200,290 V,0,32134,32305,0.1,1,1,1 M,0,32134,38952,200,290,200,310 F,0,38270,38952,1,0
Sprite,Foreground,Centre,"SB\F4.png",320,240 L,300,1 M,0,32134,32305,190,310,200,320 V,0,32134,32305,0.1,1,1,1 M,0,32134,38952,200,320,200,340 F,0,38270,38952,1,0
Sprite,Foreground,Centre,"SB\F5.png",320,240 L,400,1 M,0,32134,32305,190,340,200,350 V,0,32134,32305,0.1,1,1,1 M,0,32134,38952,200,350,200,370 F,0,38270,38952,1,0
Sprite,Foreground,Centre,"SB\G1.png",320,240 L,0,1 M,0,34691,34861,230,170,240,180 V,0,34691,34861,0.1,1,1,1 M,0,34691,38952,240,180,240,190 F,0,38270,38952,1,0
Sprite,Foreground,Centre,"SB\G2.png",320,240 L,100,1 M,0,34691,34861,230,200,240,210 V,0,34691,34861,0.1,1,1,1 M,0,34691,38952,240,210,240,220 F,0,38270,38952,1,0
Sprite,Foreground,Centre,"SB\G3.png",320,240 L,200,1 M,0,34691,34861,230,230,240,240 V,0,34691,34861,0.1,1,1,1 M,0,34691,38952,240,240,240,250 F,0,38270,38952,1,0
Sprite,Foreground,Centre,"SB\G4.png",320,240 L,300,1 M,0,34691,34861,230,260,240,270 V,0,34691,34861,0.1,1,1,1 M,0,34691,38952,240,270,240,280 F,0,38270,38952,1,0
Sprite,Foreground,Centre,"SB\G5.png",320,240 L,400,1 M,0,34691,34861,230,290,240,300 V,0,34691,34861,0.1,1,1,1 M,0,34691,38952,240,300,240,310 F,0,38270,38952,1,0
Sprite,Foreground,Centre,"SB\G6.png",320,240 L,500,1 M,0,34691,34861,230,320,240,330 V,0,34691,34861,0.1,1,1,1 M,0,34691,38952,240,330,240,340 F,0,38270,38952,1,0
Sprite,Foreground,Centre,"SB\G7.png",320,240 L,600,1 M,0,34691,34861,230,350,240,360 V,0,34691,34861,0.1,1,1,1 M,0,34691,38952,240,360,240,370 F,0,38270,38952,1,0
Sprite,Foreground,Centre,"SB\G8.png",320,240 L,700,1 M,0,34691,34861,230,380,240,390 V,0,34691,34861,0.1,1,1,1 M,0,34691,38952,240,390,240,400 F,0,38270,38952,1,0
Sprite,Foreground,Centre,"SB\G9.png",320,240 L,800,1 M,0,34691,34861,230,410,240,420 V,0,34691,34861,0.1,1,1,1 M,0,34691,38952,240,420,240,430 F,0,38270,38952,1,0
Sprite,Foreground,Centre,"SB\H1.png",320,240 L,0,1 M,0,39293,39464,80,40,90,50 V,0,39293,39464,0.1,1,1,1 M,0,39293,50543,90,50,90,70 F,0,49861,50543,1,0
Sprite,Foreground,Centre,"SB\H2.png",320,240 L,100,1 M,0,39293,39464,80,70,90,80 V,0,39293,39464,0.1,1,1,1 M,0,39293,50543,90,80,90,100 F,0,49861,50543,1,0
Sprite,Foreground,Centre,"SB\H3.png",320,240 L,200,1 M,0,39293,39464,80,100,90,110 V,0,39293,39464,0.1,1,1,1 M,0,39293,50543,90,110,90,130 F,0,49861,50543,1,0
Sprite,Foreground,Centre,"SB\H4.png",320,240 L,300,1 M,0,39293,39464,80,130,90,140 V,0,39293,39464,0.1,1,1,1 M,0,39293,50543,90,140,90,160 F,0,49861,50543,1,0
Sprite,Foreground,Centre,"SB\H5.png",320,240 L,400,1 M,0,39293,39464,80,160,90,170 V,0,39293,39464,0.1,1,1,1 M,0,39293,50543,90,170,90,190 F,0,49861,50543,1,0
Sprite,Foreground,Centre,"SB\H6.png",320,240 L,500,1 M,0,39293,39464,80,190,90,200 V,0,39293,39464,0.1,1,1,1 M,0,39293,50543,90,200,90,220 F,0,49861,50543,1,0
Sprite,Foreground,Centre,"SB\B1.png",320,240 L,0,1 M,0,42020,42191,120,120,130,130 V,0,42020,42191,0.1,1,1,1 M,0,42020,50543,130,130,130,150 F,0,49861,50543,1,0
Sprite,Foreground,Centre,"SB\B2.png",320,240 L,100,1 M,0,42020,42191,120,150,130,160 V,0,42020,42191,0.1,1,1,1 M,0,42020,50543,130,160,130,180 F,0,49861,50543,1,0
Sprite,Foreground,Centre,"SB\A9.png",320,240 L,200,1 M,0,42020,42191,120,180,130,190 V,0,42020,42191,0.1,1,1,1 M,0,42020,50543,130,190,130,210 F,0,49861,50543,1,0
Sprite,Foreground,Centre,"SB\A5.png",320,240 L,300,1 M,0,42020,42191,120,210,130,220 V,0,42020,42191,0.1,1,1,1 M,0,42020,50543,130,220,130,240 F,0,49861,50543,1,0
Sprite,Foreground,Centre,"SB\A9.png",320,240 L,400,1 M,0,42020,42191,120,240,130,250 V,0,42020,42191,0.1,1,1,1 M,0,42020,50543,130,250,130,270 F,0,49861,50543,1,0
Sprite,Foreground,Centre,"SB\H1.png",320,240 L,500,1 M,0,42020,42191,120,270,130,280 V,0,42020,42191,0.1,1,1,1 M,0,42020,50543,130,280,130,300 F,0,49861,50543,1,0
Sprite,Foreground,Centre,"SB\I1.png",320,240 L,0,1 M,0,44748,44918,190,220,200,230 V,0,44748,44918,0.1,1,1,1 M,0,44748,50543,200,230,200,250 F,0,49861,50543,1,0
Sprite,Foreground,Centre,"SB\I2.png",320,240 L,100,1 M,0,44748,44918,190,250,200,260 V,0,44748,44918,0.1,1,1,1 M,0,44748,50543,200,260,200,280 F,0,49861,50543,1,0
Sprite,Foreground,Centre,"SB\A9.png",320,240 L,200,1 M,0,44748,44918,190,280,200,290 V,0,44748,44918,0.1,1,1,1 M,0,44748,50543,200,290,200,310 F,0,49861,50543,1,0
Sprite,Foreground,Centre,"SB\E8.png",320,240 L,300,1 M,0,44748,44918,190,310,200,320 V,0,44748,44918,0.1,1,1,1 M,0,44748,50543,200,320,200,340 F,0,49861,50543,1,0
Sprite,Foreground,Centre,"SB\A3.png",320,240 L,400,1 M,0,44748,44918,190,340,200,350 V,0,44748,44918,0.1,1,1,1 M,0,44748,50543,200,350,200,370 F,0,49861,50543,1,0
Sprite,Foreground,Centre,"SB\A12.png",320,240 L,500,1 M,0,44748,44918,190,370,200,380 V,0,44748,44918,0.1,1,1,1 M,0,44748,50543,200,380,200,400 F,0,49861,50543,1,0
Sprite,Foreground,Centre,"SB\I3.png",320,240 L,0,1 M,0,47475,47645,230,310,240,320 V,0,47475,47645,0.1,1,1,1 M,0,47475,50543,240,320,240,330 F,0,49861,50543,1,0
Sprite,Foreground,Centre,"SB\I4.png",320,240 L,100,1 M,0,47475,47645,230,340,240,350 V,0,47475,47645,0.1,1,1,1 M,0,47475,50543,240,350,240,360 F,0,49861,50543,1,0
Sprite,Foreground,Centre,"SB\I5.png",320,240 L,200,1 M,0,47475,47645,230,370,240,380 V,0,47475,47645,0.1,1,1,1 M,0,47475,50543,240,380,240,390 F,0,49861,50543,1,0
Sprite,Foreground,Centre,"SB\J1.png",320,240 L,0,1 M,0,51055,51225,80,40,90,50 V,0,51055,51225,0.1,1,1,1 M,0,51055,62134,90,50,90,70 F,0,61793,62134,1,0
Sprite,Foreground,Centre,"SB\J2.png",320,240 L,100,1 M,0,51055,51225,80,70,90,80 V,0,51055,51225,0.1,1,1,1 M,0,51055,62134,90,80,90,100 F,0,61793,62134,1,0
Sprite,Foreground,Centre,"SB\J3.png",320,240 L,200,1 M,0,51055,51225,80,100,90,110 V,0,51055,51225,0.1,1,1,1 M,0,51055,62134,90,110,90,130 F,0,61793,62134,1,0
Sprite,Foreground,Centre,"SB\J4.png",320,240 L,300,1 M,0,51055,51225,80,130,90,140 V,0,51055,51225,0.1,1,1,1 M,0,51055,62134,90,140,90,160 F,0,61793,62134,1,0
Sprite,Foreground,Centre,"SB\J5.png",320,240 L,400,1 M,0,51055,51225,80,160,90,170 V,0,51055,51225,0.1,1,1,1 M,0,51055,62134,90,170,90,190 F,0,61793,62134,1,0
Sprite,Foreground,Centre,"SB\J6.png",320,240 L,500,1 M,0,51055,51225,80,190,90,200 V,0,51055,51225,0.1,1,1,1 M,0,51055,62134,90,200,90,220 F,0,61793,62134,1,0
Sprite,Foreground,Centre,"SB\J7.png",320,240 L,600,1 M,0,51055,51225,80,220,90,230 V,0,51055,51225,0.1,1,1,1 M,0,51055,62134,90,230,90,250 F,0,61793,62134,1,0
Sprite,Foreground,Centre,"SB\K1.png",320,240 L,0,1 M,0,53100,53270,120,120,130,130 V,0,53100,53270,0.1,1,1,1 M,0,53100,62134,130,130,130,150 F,0,61793,62134,1,0
Sprite,Foreground,Centre,"SB\K2.png",320,240 L,100,1 M,0,53100,53270,120,150,130,160 V,0,53100,53270,0.1,1,1,1 M,0,53100,62134,130,160,130,180 F,0,61793,62134,1,0
Sprite,Foreground,Centre,"SB\K4.png",320,240 L,300,1 M,0,53100,53270,120,210,130,220 V,0,53100,53270,0.1,1,1,1 M,0,53100,62134,130,220,130,240 F,0,61793,62134,1,0
Sprite,Foreground,Centre,"SB\K6.png",320,240 L,500,1 M,0,53100,53270,120,270,130,280 V,0,53100,53270,0.1,1,1,1 M,0,53100,62134,130,280,130,300 F,0,61793,62134,1,0
Sprite,Foreground,Centre,"SB\K7.png",320,240 L,600,1 M,0,53100,53270,120,300,130,310 V,0,53100,53270,0.1,1,1,1 M,0,53100,62134,130,310,130,330 F,0,61793,62134,1,0
Sprite,Foreground,Centre,"SB\K8.png",320,240 L,700,1 M,0,53100,53270,120,330,130,340 V,0,53100,53270,0.1,1,1,1 M,0,53100,62134,130,340,130,360 F,0,61793,62134,1,0
Sprite,Foreground,Centre,"SB\K9.png",320,240 L,800,1 M,0,53100,53270,120,360,130,370 V,0,53100,53270,0.1,1,1,1 M,0,53100,62134,130,370,130,390 F,0,61793,62134,1,0
Sprite,Foreground,Centre,"SB\L1.png",320,240 L,0,1 M,0,57020,57191,190,90,200,100 V,0,57020,57191,0.1,1,1,1 M,0,57020,62134,200,100,200,115 F,0,61793,62134,1,0
Sprite,Foreground,Centre,"SB\L2.png",320,240 L,100,1 M,0,57020,57191,190,120,200,130 V,0,57020,57191,0.1,1,1,1 M,0,57020,62134,200,130,200,145 F,0,61793,62134,1,0
Sprite,Foreground,Centre,"SB\L3.png",320,240 L,200,1 M,0,57020,57191,190,150,200,160 V,0,57020,57191,0.1,1,1,1 M,0,57020,62134,200,160,200,175 F,0,61793,62134,1,0
Sprite,Foreground,Centre,"SB\L4.png",320,240 L,300,1 M,0,57020,57191,190,180,200,190 V,0,57020,57191,0.1,1,1,1 M,0,57020,62134,200,190,200,205 F,0,61793,62134,1,0
Sprite,Foreground,Centre,"SB\A8.png",320,240 L,400,1 M,0,57020,57191,190,210,200,220 V,0,57020,57191,0.1,1,1,1 M,0,57020,62134,200,220,200,235 F,0,61793,62134,1,0
Sprite,Foreground,Centre,"SB\L5.png",320,240 L,500,1 M,0,57020,57191,190,240,200,250 V,0,57020,57191,0.1,1,1,1 M,0,57020,62134,200,250,200,265 F,0,61793,62134,1,0
Sprite,Foreground,Centre,"SB\L2.png",320,240 L,600,1 M,0,57020,57191,190,270,200,280 V,0,57020,57191,0.1,1,1,1 M,0,57020,62134,200,280,200,295 F,0,61793,62134,1,0
Sprite,Foreground,Centre,"SB\A8.png",320,240 L,700,1 M,0,57020,57191,190,300,200,310 V,0,57020,57191,0.1,1,1,1 M,0,57020,62134,200,310,200,325 F,0,61793,62134,1,0
Sprite,Foreground,Centre,"SB\A10.png",320,240 L,800,1 M,0,57020,57191,190,330,200,340 V,0,57020,57191,0.1,1,1,1 M,0,57020,62134,200,340,200,355 F,0,61793,62134,1,0
Sprite,Foreground,Centre,"SB\M1.png",320,240 L,0,1 M,0,59918,60089,230,130,240,140 V,0,59918,60089,0.1,1,1,1 M,0,59918,62134,240,140,240,150 F,0,61793,62134,1,0
Sprite,Foreground,Centre,"SB\M2.png",320,240 L,100,1 M,0,59918,60089,230,160,240,170 V,0,59918,60089,0.1,1,1,1 M,0,59918,62134,240,170,240,180 F,0,61793,62134,1,0
Sprite,Foreground,Centre,"SB\G2.png",320,240 L,200,1 M,0,59918,60089,230,190,240,200 V,0,59918,60089,0.1,1,1,1 M,0,59918,62134,240,200,240,210 F,0,61793,62134,1,0
Sprite,Foreground,Centre,"SB\M3.png",320,240 L,300,1 M,0,59918,60089,230,220,240,230 V,0,59918,60089,0.1,1,1,1 M,0,59918,62134,240,230,240,240 F,0,61793,62134,1,0
Sprite,Foreground,Centre,"SB\M4.png",320,240 L,400,1 M,0,59918,60089,230,250,240,260 V,0,59918,60089,0.1,1,1,1 M,0,59918,62134,240,260,240,270 F,0,61793,62134,1,0
Sprite,Foreground,Centre,"SB\E7.png",320,240 L,500,1 M,0,59918,60089,230,280,240,290 V,0,59918,60089,0.1,1,1,1 M,0,59918,62134,240,290,240,300 F,0,61793,62134,1,0
Sprite,Foreground,Centre,"SB\N1.png",320,240 L,0,1 M,0,62134,62305,80,40,90,50 V,0,62134,62305,0.1,1,1,1 M,0,62134,75770,90,50,90,70 F,0,75089,75770,1,0
Sprite,Foreground,Centre,"SB\N2.png",320,240 L,100,1 M,0,62134,62305,80,70,90,80 V,0,62134,62305,0.1,1,1,1 M,0,62134,75770,90,80,90,100 F,0,75089,75770,1,0
Sprite,Foreground,Centre,"SB\N3.png",320,240 L,200,1 M,0,62134,62305,80,100,90,110 V,0,62134,62305,0.1,1,1,1 M,0,62134,75770,90,110,90,130 F,0,75089,75770,1,0
Sprite,Foreground,Centre,"SB\N4.png",320,240 L,300,1 M,0,62134,62305,80,130,90,140 V,0,62134,62305,0.1,1,1,1 M,0,62134,75770,90,140,90,160 F,0,75089,75770,1,0
Sprite,Foreground,Centre,"SB\N5.png",320,240 L,400,1 M,0,62134,62305,80,160,90,170 V,0,62134,62305,0.1,1,1,1 M,0,62134,75770,90,170,90,190 F,0,75089,75770,1,0
Sprite,Foreground,Centre,"SB\N6.png",320,240 L,500,1 M,0,62134,62305,80,190,90,200 V,0,62134,62305,0.1,1,1,1 M,0,62134,75770,90,200,90,220 F,0,75089,75770,1,0
Sprite,Foreground,Centre,"SB\N7.png",320,240 L,600,1 M,0,62134,62305,80,220,90,230 V,0,62134,62305,0.1,1,1,1 M,0,62134,75770,90,230,90,250 F,0,75089,75770,1,0
Sprite,Foreground,Centre,"SB\N9.png",320,240 L,800,1 M,0,62134,62305,80,280,90,290 V,0,62134,62305,0.1,1,1,1 M,0,62134,75770,90,290,90,310 F,0,75089,75770,1,0
Sprite,Foreground,Centre,"SB\N10.png",320,240 L,900,1 M,0,62134,62305,80,310,90,320 V,0,62134,62305,0.1,1,1,1 M,0,62134,75770,90,320,90,340 F,0,75089,75770,1,0
Sprite,Foreground,Centre,"SB\N11.png",320,240 L,1000,1 M,0,62134,62305,80,340,90,350 V,0,62134,62305,0.1,1,1,1 M,0,62134,75770,90,350,90,370 F,0,75089,75770,1,0
Sprite,Foreground,Centre,"SB\N12.png",320,240 L,1100,1 M,0,62134,62305,80,370,90,380 V,0,62134,62305,0.1,1,1,1 M,0,62134,75770,90,380,90,400 F,0,75089,75770,1,0
Sprite,Foreground,Centre,"SB\O1.png",320,240 L,0,1 M,0,65373,65543,120,120,130,130 V,0,65373,65543,0.1,1,1,1 M,0,65373,75770,130,130,130,150 F,0,75089,75770,1,0
Sprite,Foreground,Centre,"SB\O2.png",320,240 L,100,1 M,0,65373,65543,120,150,130,160 V,0,65373,65543,0.1,1,1,1 M,0,65373,75770,130,160,130,180 F,0,75089,75770,1,0
Sprite,Foreground,Centre,"SB\O3.png",320,240 L,200,1 M,0,65373,65543,120,180,130,190 V,0,65373,65543,0.1,1,1,1 M,0,65373,75770,130,190,130,210 F,0,75089,75770,1,0
Sprite,Foreground,Centre,"SB\O4.png",320,240 L,300,1 M,0,65373,65543,120,210,130,220 V,0,65373,65543,0.1,1,1,1 M,0,65373,75770,130,220,130,240 F,0,75089,75770,1,0
Sprite,Foreground,Centre,"SB\P1.png",320,240 L,0,1 M,0,67930,68100,190,220,200,230 V,0,67930,68100,0.1,1,1,1 M,0,67930,75770,200,230,200,250 F,0,75089,75770,1,0
Sprite,Foreground,Centre,"SB\P2.png",320,240 L,100,1 M,0,67930,68100,190,250,200,260 V,0,67930,68100,0.1,1,1,1 M,0,67930,75770,200,260,200,280 F,0,75089,75770,1,0
Sprite,Foreground,Centre,"SB\M4.png",320,240 L,200,1 M,0,67930,68100,190,280,200,290 V,0,67930,68100,0.1,1,1,1 M,0,67930,75770,200,290,200,310 F,0,75089,75770,1,0
Sprite,Foreground,Centre,"SB\A10.png",320,240 L,300,1 M,0,67930,68100,190,310,200,320 V,0,67930,68100,0.1,1,1,1 M,0,67930,75770,200,320,200,340 F,0,75089,75770,1,0
Sprite,Foreground,Centre,"SB\P3.png",320,240 L,400,1 M,0,67930,68100,190,340,200,350 V,0,67930,68100,0.1,1,1,1 M,0,67930,75770,200,350,200,370 F,0,75089,75770,1,0
Sprite,Foreground,Centre,"SB\P4.png",320,240 L,500,1 M,0,67930,68100,190,370,200,380 V,0,67930,68100,0.1,1,1,1 M,0,67930,75770,200,380,200,400 F,0,75089,75770,1,0
Sprite,Foreground,Centre,"SB\Q1.png",320,240 L,0,1 M,0,70657,70827,230,180,240,190 V,0,70657,70827,0.1,1,1,1 M,0,70657,75770,240,190,240,200 F,0,75089,75770,1,0
Sprite,Foreground,Centre,"SB\Q2.png",320,240 L,100,1 M,0,70657,70827,230,210,240,220 V,0,70657,70827,0.1,1,1,1 M,0,70657,75770,240,220,240,230 F,0,75089,75770,1,0
Sprite,Foreground,Centre,"SB\Q3.png",320,240 L,200,1 M,0,70657,70827,230,240,240,250 V,0,70657,70827,0.1,1,1,1 M,0,70657,75770,240,250,240,260 F,0,75089,75770,1,0
Sprite,Foreground,Centre,"SB\Q4.png",320,240 L,300,1 M,0,70657,70827,230,270,240,280 V,0,70657,70827,0.1,1,1,1 M,0,70657,75770,240,280,240,290 F,0,75089,75770,1,0
Sprite,Foreground,Centre,"SB\Q5.png",320,240 L,400,1 M,0,70657,70827,230,300,240,310 V,0,70657,70827,0.1,1,1,1 M,0,70657,75770,240,310,240,320 F,0,75089,75770,1,0
Sprite,Foreground,Centre,"SB\Q6.png",320,240 L,500,1 M,0,70657,70827,230,330,240,340 V,0,70657,70827,0.1,1,1,1 M,0,70657,75770,240,340,240,350 F,0,75089,75770,1,0
Sprite,Foreground,Centre,"SB\Q7.png",320,240 L,600,1 M,0,70657,70827,230,360,240,370 V,0,70657,70827,0.1,1,1,1 M,0,70657,75770,240,370,240,380 F,0,75089,75770,1,0
Sprite,Foreground,Centre,"SB\star.png",320,240 M,0,54634,,142,390 S,1,54634,54805,3.31424,1 R,0,54634,54805,9.3184,0 S,0,54805,56339,1,1.000079 R,0,54805,56339,0,4.4032 S,0,56339,56424,1.000079,3.304079
Sprite,Foreground,Centre,"SB\star.png",320,240 M,0,54805,,142,390 F,0,54805,55145,1,0 S,0,54805,55145,1,2.09568
//Storyboard Sound Samples
//Background Colour Transformations
3,100,255,255,255

[TimingPoints]
4180,340.909090909091,4,1,1,60,1,0
4350,-100,4,1,1,45,0,0
4520,-100,4,1,1,60,0,0
4691,-100,4,1,1,45,0,0
4861,-100,4,1,1,60,0,0
5032,-100,4,1,1,45,0,0
5202,-100,4,1,1,60,0,0
5373,-100,4,1,1,45,0,0
5543,-100,4,1,1,50,0,0
10657,-100,4,1,1,55,0,0
10827,-100,4,1,1,50,0,0
16452,-100,4,1,1,65,0,0
16793,-100,4,1,1,50,0,0
25486,-100,4,1,1,65,0,0
25657,-100,4,1,1,50,0,0
25827,-100,4,1,1,65,0,0
25998,-100,4,1,1,50,0,0
27361,-100,4,1,1,65,0,0
27702,-100,4,1,1,50,0,0
38270,-100,4,1,1,65,0,0
38441,-100,4,1,1,50,0,0
49180,-100,4,1,1,70,0,0
51055,-100,4,2,1,35,0,0
51907,-100,4,1,1,70,0,1
60089,-100,4,1,1,55,0,1
60259,-100,4,1,1,70,0,1
61452,-100,4,1,1,55,0,1
61793,-100,4,1,1,70,0,1
62134,-100,4,1,1,55,0,0
62816,-100,4,1,1,70,0,1
65202,-100,4,1,1,55,0,1
65373,-100,4,1,1,70,0,1
67930,-100,4,1,1,55,0,1
68270,-100,4,1,1,70,0,1
69634,-100,4,1,1,70,0,1
73725,-100,4,1,1,60,0,0
83782,-100,4,1,1,40,0,0
83952,-100,4,1,1,45,0,0
84123,-100,4,1,1,50,0,0
84293,-100,4,1,1,55,0,0
84464,-100,4,1,1,60,0,0
84634,-100,4,1,2,65,0,0
84719,-100,4,1,2,65,0,0
85316,-100,4,1,2,55,0,0
85998,-100,4,1,2,45,0,0
86680,-100,4,1,2,35,0,0
87361,-100,4,1,2,65,0,0
88384,-100,4,2,1,5,0,0
88725,-100,4,1,1,60,0,0
89236,-100,4,1,1,40,0,0

[Colours]
Combo1 : 150,255,150
Combo2 : 255,150,100
Combo3 : 255,255,255
Combo4 : 255,150,150

[HitObjects]
108,224,4180,2,0,B|48:296,1,90,8|0
308,264,4520,2,0,B|332:352,1,90,8|0
204,264,4861,2,0,B|180:352,1,90,8|0
404,224,5202,2,0,B|464:296,1,90,8|0
336,152,5543,5,4
256,108,5714,1,0
176,152,5884,2,0,B|96:200,1,90,8|0
100,288,6225,2,0,B|180:240,2,90,2|0|8
24,340,6736,1,0
24,248,6907,6,0,B|24:156,1,90,2|0
100,108,7248,2,0,B|100:196,1,90,8|0
100,288,7589,2,0,B|120:328|176:340|232:328|252:288,1,180,2|8
176,236,8100,1,0
100,108,8270,6,0,B|148:108|148:108|224:116|224:116|280:116,1,180,2|8
332,192,8782,1,0
376,116,8952,2,0,B|416:136|428:192|416:248|376:268,2,180,2|8|0
332,192,9805,6,0,B|244:192,1,90,0|8
151,300,10145,2,0,B|103:292|103:292|67:264,1,90,0|2
16,192,10486,1,0
71,117,10657,2,0,B|104:91|104:91|153:83,1,90,12|0
16,192,10998,6,0,B|197:192,1,180,4|8
288,192,11509,1,0
336,268,11680,2,0,B|376:248|388:192|376:136|336:116,1,180,2|8
288,192,12191,1,0
208,232,12361,6,0,B|180:188|208:148,1,90,2|0
280,24,12702,2,0,B|308:68|280:108,1,90,8|0
288,192,13043,2,0,B|308:232|364:244|420:232|440:192,1,180,2|8
480,112,13555,1,0
364,140,13725,5,2
299,74,13895,1,0
211,74,14066,1,8
148,140,14236,2,0,B|208:228,1,90,0|2
256,284,14577,1,0
364,140,14748,2,0,B|315:215,1,90,8|0
256,284,15089,6,0,B|236:324|180:336|124:324|104:284,2,180,2|8|0
312,212,15941,1,0
331,190,16026,1,0
355,174,16111,1,8
383,170,16197,1,0
411,174,16282,1,0
435,190,16367,1,0
454,212,16452,6,0,B|468:254|442:308|388:333|349:316,1,180,4|8
361,226,16964,2,0,B|292:155,1,90
213,161,17304,2,0,B|149:228,1,90,0|8
58,211,17645,1,0
58,211,17731,1,0
58,211,17816,6,0,B|44:253|70:307|124:332|163:315,1,180,0|8
256,296,18327,1,0
256,204,18498,1,0
336,248,18668,2,0,B|432:248,2,90,0|8|0
256,204,19179,6,0,B|308:156|308:156|372:148,1,135
408,144,19520,2,0,B|422:101|396:47|342:22|303:39,1,180,8|0
256,108,20032,1,0
208,39,20202,1,8
112,192,20543,5,0
400,192,20884,1,8
160,268,21225,1,0
212,340,21395,1,0
300,340,21566,1,8
352,268,21736,1,0
400,192,21907,6,0,B|400:100,1,90
324,148,22248,2,0,B|278:68,1,90,8|0
236,148,22589,2,0,B|156:102,1,90,0|0
156,192,22929,2,0,B|64:192,1,90,8|0
36,276,23270,6,0,B|100:332|100:332|196:344,1,180,0|8
476,276,23952,2,0,B|412:332|412:332|316:344,1,180,0|8
256,280,24464,1,0
180,228,24634,6,0,B|200:188|256:176|312:188|332:228,2,180,0|8|0
132,308,25486,2,0,B|212:368,1,90,0|8
380,308,25827,2,0,B|300:368,1,90,0|0
112,192,26339,5,8
400,192,26679,1,0
256,48,27020,1,8
256,152,27191,1,0
256,188,27276,1,0
256,224,27361,6,0,B|276:264|332:276|388:264|408:224,1,180,4|8
380,124,27873,2,0,B|331:143|331:192,2,90
468,116,28384,2,0,B|465:63|419:47,1,90,8|0
328,48,28725,6,0,B|144:48,1,180,0|8
172,124,29236,2,0,B|192:164|244:176,1,90
148,48,29577,1,0
148,208,29748,1,8
243,80,29918,1,0
84,128,30089,1,0
84,128,30429,6,0,B|204:280,1,180,8|0
256,336,30941,1,0
316,269,31111,1,8
256,200,31282,2,0,B|256:92,1,90,0|0
256,336,31793,5,8
136,56,32134,1,0
204,124,32304,1,0
308,124,32475,1,8
376,56,32645,1,0
256,200,32816,6,0,B|276:240|332:252|388:240|408:200,1,180,0|8
408,116,33327,1,0
408,116,33498,2,0,B|408:308,2,180,0|8|0
104,116,34520,5,8
104,208,34691,2,0,B|104:308,1,90
200,208,35032,2,0,B|200:108,1,90,0|8
200,300,35373,1,0
284,344,35543,6,0,B|376:328|376:328|444:260,1,180,0|8
488,192,36054,1,0
438,116,36225,2,0,B|378:56|378:56|286:40,1,180,0|8
260,120,36736,6,0,B|240:160|188:172,1,90
284,40,37077,1,0
284,200,37248,1,8
190,69,37418,1,0
342,119,37589,5,0
316,120,37674,1,0
288,120,37759,1,0
260,120,37844,1,0
232,120,37929,1,8
204,120,38015,1,0
176,120,38100,1,0
88,118,38270,6,0,B|88:206,1,90,4|0
176,296,38611,2,0,B|176:208,1,90,8|0
260,120,38952,1,0
260,212,39123,1,0
260,300,39293,1,8
336,252,39464,1,0
336,340,39634,6,0,B|336:156,1,180,0|8
336,68,40145,1,0
188,64,40316,2,0,B|188:248,1,180,0|8
188,336,40827,1,0
80,268,40998,6,0,B|40:248|28:192|40:136|80:116,2,180
128,192,41850,2,0,B|224:192,1,90,0|8
280,124,42191,1,0
340,192,42361,6,0,B|380:212|392:268|380:324|340:344,1,180,0|8
184,268,42873,1,0
276,268,43043,2,0,B|456:268,1,180,0|8
504,192,43554,1,0
420,156,43725,6,0,B|332:112,1,90
256,84,44066,1,8
172,116,44236,2,0,B|90:157,2,90
256,84,44748,2,0,B|256:188,1,90,8|0
256,264,45089,6,0,B|216:296|168:292,1,90,0|0
100,240,45429,2,0,B|140:208|188:212,2,90,8|0|0
32,312,45941,1,0
100,240,46111,2,0,B|100:136,1,90,8|0
104,60,46452,6,0,B|136:20|184:24,1,90
104,60,46793,2,0,B|205:65|262:139,1,180,8|0
316,208,47304,1,0
352,292,47475,1,8
352,292,47816,6,0,B|164:292,1,180,0|8
352,292,48498,2,0,B|221:161,1,180,0|8
164,100,49009,1,0
164,100,49094,1,0
164,100,49179,5,2
52,156,49350,1,2
212,192,49691,5,2
146,294,49861,1,2
300,192,50202,5,2
366,294,50373,1,2
348,100,50714,5,2
460,156,50884,1,2
348,100,51055,6,0,B|320:140|264:140,1,90,2|2
184,232,51395,2,0,B|184:124,2,90,2|2|2
140,328,51907,6,0,B|236:364|312:304,1,180,4|0
372,240,52418,1,0
408,324,52589,2,0,B|261:213,1,180,0|8
200,164,53100,1,0
136,116,53270,6,0,B|96:136|84:192|96:248|136:268,1,180,0|8
256,192,53782,1,0
376,268,53952,2,0,B|416:248|428:192|416:136|376:116,1,180,0|8
256,192,54464,1,0
192,256,54634,6,0,B|160:296|112:292,1,90
192,256,54975,2,0,B|91:251|33:177,2,180,8|0|8
256,192,55827,1,0
320,256,55998,6,0,B|320:344,1,90,0|0
400,304,56339,2,0,B|400:212,1,90,8|0
400,124,56680,1,0
320,168,56850,1,0
320,80,57020,1,0
296,80,57106,1,0
272,80,57191,1,0
248,80,57276,1,0
224,80,57361,6,0,B|192:116|136:108,1,90,4|0
56,80,57702,2,0,B|152:112|168:208,1,180,8|0
128,300,58214,1,0
204,356,58384,1,8
308,356,58555,1,0
384,300,58725,6,0,B|384:224|384:224|440:204|440:140,1,180,0|8
348,144,59236,2,0,B|312:108|260:120,1,90
196,176,59577,2,0,B|232:212|284:200,2,90,0|8|0
136,108,60089,5,6
56,144,60259,1,0
56,240,60430,1,8
136,276,60600,1,0
132,192,60770,2,0,B|324:192,1,180,0|8
404,192,61282,1,0
460,268,61452,2,0,B|500:248|512:192|500:136|460:116,1,180,2|8
256,32,62134,5,0
172,116,62305,1,0
340,116,62475,1,0
256,200,62645,1,0
256,32,62816,6,0,B|256:128|196:204,1,180,4|0
140,288,63327,1,0
52,288,63498,2,0,B|236:288,1,180,0|8
324,288,64009,1,0
416,288,64180,6,0,B|382:254|379:205|379:205|336:208|300:172,1,180,0|8
256,288,64691,1,0
96,288,64861,2,0,B|129:254|132:205|132:205|175:208|211:172,1,180,0|12
256,92,65373,1,0
256,92,65458,1,0
256,92,65543,6,0,B|236:52|180:40|124:52|104:92,2,180,0|8|0
256,192,66395,1,0
256,288,66566,1,8
280,288,66651,1,0
304,288,66736,1,0
328,288,66822,1,0
352,288,66907,6,0,B|404:288|432:240,1,90,0|0
427,137,67248,2,0,B|398:94|350:94,1,90,8|0
336,192,67589,2,0,B|144:192,1,180,0|12
64,196,68100,1,0
68,284,68270,6,0,B|160:308,1,90,4|0
256,332,68611,1,8
356,305,68782,2,0,B|448:283,2,90
256,332,69293,2,0,B|256:236,1,90,8|0
256,152,69634,5,2
116,40,69975,1,8
396,40,70316,1,0
256,152,70657,1,8
256,240,70827,1,0
256,276,70912,1,0
256,312,70998,6,0,B|298:326|352:300|377:246|360:207,1,180,4|8
324,124,71509,1,0
256,64,71680,2,0,B|164:64,1,90
116,140,72020,2,0,B|208:140,1,90,8|0
28,140,72361,6,0,B|14:182|40:236|94:261|133:244,1,180,4|8
484,140,73043,2,0,B|498:182|472:236|418:261|379:244,1,180,0|8
356,236,73469,1,0
336,224,73555,1,0
316,212,73640,1,0
296,200,73725,5,4
220,144,73895,2,0,B|120:144,1,90,0|8
40,144,74236,1,0
84,228,74407,2,0,B|112:272|160:264,1,90,2|0
256,236,74748,1,8
220,144,74918,1,0
188,48,75089,6,0,B|140:60|140:60|108:84,1,90,2|0
40,144,75430,1,8
40,240,75600,1,0
108,300,75770,2,0,B|140:324|140:324|188:336,2,90,2|0|8
120,192,76282,1,0
156,192,76367,1,0
192,192,76452,6,0,B|240:192|240:192|328:216|328:216|376:216,1,180,2|8
424,144,76964,1,0
480,216,77134,2,0,B|494:258|468:312|414:337|375:320,1,180,2|8
369,216,77645,1,0
312,144,77816,6,0,B|280:104|224:104,1,90,2|0
144,104,78157,2,0,B|56:136,1,90,8|0
132,192,78498,2,0,B|44:224,1,90,2|0
116,280,78839,1,12
200,252,79009,1,8
232,240,79094,1,8
268,228,79180,6,0,B|312:203|316:158,1,90,2|0
252,96,79520,2,0,B|302:171|414:166,2,180,8|2|8
192,28,80373,1,0
136,96,80543,6,0,B|136:188,1,90,2|0
220,280,80884,2,0,B|220:188,1,90,8|0
300,92,81225,1,2
300,180,81395,1,0
300,272,81566,2,0,B|300:324,2,45,8|0|0
300,92,81907,6,0,B|208:92|208:92|136:140,1,180,6|8
60,192,82418,1,0
60,284,82589,1,2
132,340,82759,1,0
220,344,82930,2,0,B|264:344|308:308,1,90,8|0
220,344,83270,6,0,B|283:270|270:167,1,180,2|12
256,88,83782,1,0
239,83,83867,1,0
219,81,83952,1,0
201,82,84037,1,0
186,86,84123,1,0
170,91,84208,1,0
158,102,84293,1,8
146,114,84378,1,0
136,129,84464,1,0
128,147,84549,1,0
124,164,84634,1,4
256,192,84719,12,0,88384
340,248,88725,5,8
256,248,88895,2,0,B|212:248,2,45
424,248,89236,5,2
88,248,89577,1,2
