osu file format v9

[General]
AudioFilename: SoniComi - Superorbital.mp3
AudioLeadIn: 0
PreviewTime: 50969
Countdown: 0
SampleSet: Normal
StackLeniency: 0.6
Mode: 0
LetterboxInBreaks: 0

[Editor]
Bookmarks: 4180,5543,10998,16452,21907,27361,32816,38270,43725,49180,51055,51907,57361,62134,62816,68270,73725,79180,84634,89577
DistanceSpacing: 0.6
BeatDivisor: 4
GridSize: 4

[Metadata]
Title:SUPERORBITAL
Artist:Daiichi Uchuu Sokudo
Creator:phonic
Version:Easy
Source:SoniComi
Tags:Cilvery Ryafuka spboxer3 sherrie__fay NSS Nitroplus Nitro Headphone Communication With Sonico

[Difficulty]
HPDrainRate:2
CircleSize:3
OverallDifficulty:2
ApproachRate:3
SliderMultiplier:1
SliderTickRate:1

[Events]
//Background and Video events
0,0,"BG.jpg"
//Break Periods
//Storyboard Layer 0 (Background)
//Storyboard Layer 1 (Fail)
//Storyboard Layer 2 (Pass)
//Storyboard Layer 3 (Foreground)
Sprite,Foreground,Centre,"SB\A1.png",320,240 L,0,1 M,0,16111,16282,80,40,90,50 V,0,16111,16282,0.1,1,1,1 M,0,16111,26680,90,50,90,70 F,0,25998,26680,1,0
Sprite,Foreground,Centre,"SB\A2.png",320,240 L,100,1 M,0,16111,16282,80,70,90,80 V,0,16111,16282,0.1,1,1,1 M,0,16111,26680,90,80,90,100 F,0,25998,26680,1,0
Sprite,Foreground,Centre,"SB\A3.png",320,240 L,200,1 M,0,16111,16282,80,100,90,110 V,0,16111,16282,0.1,1,1,1 M,0,16111,26680,90,110,90,130 F,0,25998,26680,1,0
Sprite,Foreground,Centre,"SB\A4.png",320,240 L,300,1 M,0,16111,16282,80,130,90,140 V,0,16111,16282,0.1,1,1,1 M,0,16111,26680,90,140,90,160 F,0,25998,26680,1,0
Sprite,Foreground,Centre,"SB\A5.png",320,240 L,400,1 M,0,16111,16282,80,160,90,170 V,0,16111,16282,0.1,1,1,1 M,0,16111,26680,90,170,90,190 F,0,25998,26680,1,0
Sprite,Foreground,Centre,"SB\A6.png",320,240 L,500,1 M,0,16111,16282,80,190,90,200 V,0,16111,16282,0.1,1,1,1 M,0,16111,26680,90,200,90,220 F,0,25998,26680,1,0
Sprite,Foreground,Centre,"SB\A7.png",320,240 L,600,1 M,0,16111,16282,80,220,90,230 V,0,16111,16282,0.1,1,1,1 M,0,16111,26680,90,230,90,250 F,0,25998,26680,1,0
Sprite,Foreground,Centre,"SB\A8.png",320,240 L,2350,1 M,0,16111,16282,120,120,130,130 V,0,16111,16282,0.1,1,1,1 M,0,16111,26680,130,130,130,150 F,0,25998,26680,1,0
Sprite,Foreground,Centre,"SB\A9.png",320,240 L,2450,1 M,0,16111,16282,120,150,130,160 V,0,16111,16282,0.1,1,1,1 M,0,16111,26680,130,160,130,180 F,0,25998,26680,1,0
Sprite,Foreground,Centre,"SB\A10.png",320,240 L,2550,1 M,0,16111,16282,120,180,130,190 V,0,16111,16282,0.1,1,1,1 M,0,16111,26680,130,190,130,210 F,0,25998,26680,1,0
Sprite,Foreground,Centre,"SB\A11.png",320,240 L,2650,1 M,0,16111,16282,120,210,130,220 V,0,16111,16282,0.1,1,1,1 M,0,16111,26680,130,220,130,240 F,0,25998,26680,1,0
Sprite,Foreground,Centre,"SB\A12.png",320,240 L,2750,1 M,0,16111,16282,120,240,130,250 V,0,16111,16282,0.1,1,1,1 M,0,16111,26680,130,250,130,270 F,0,25998,26680,1,0
Sprite,Foreground,Centre,"SB\A13.png",320,240 L,2850,1 M,0,16111,16282,120,270,130,280 V,0,16111,16282,0.1,1,1,1 M,0,16111,26680,130,280,130,300 F,0,25998,26680,1,0
Sprite,Foreground,Centre,"SB\B1.png",320,240 L,0,1 M,0,21225,21395,190,220,200,230 V,0,21225,21395,0.1,1,1,1 M,0,21225,26680,200,230,200,250 F,0,25998,26680,1,0
Sprite,Foreground,Centre,"SB\B2.png",320,240 L,100,1 M,0,21225,21395,190,250,200,260 V,0,21225,21395,0.1,1,1,1 M,0,21225,26680,200,260,200,280 F,0,25998,26680,1,0
Sprite,Foreground,Centre,"SB\B1.png",320,240 L,200,1 M,0,21225,21395,190,280,200,290 V,0,21225,21395,0.1,1,1,1 M,0,21225,26680,200,290,200,310 F,0,25998,26680,1,0
Sprite,Foreground,Centre,"SB\B2.png",320,240 L,300,1 M,0,21225,21395,190,310,200,320 V,0,21225,21395,0.1,1,1,1 M,0,21225,26680,200,320,200,340 F,0,25998,26680,1,0
Sprite,Foreground,Centre,"SB\B3.png",320,240 L,400,1 M,0,21225,21395,190,340,200,350 V,0,21225,21395,0.1,1,1,1 M,0,21225,26680,200,350,200,370 F,0,25998,26680,1,0
Sprite,Foreground,Centre,"SB\B4.png",320,240 L,500,1 M,0,21225,21395,190,370,200,380 V,0,21225,21395,0.1,1,1,1 M,0,21225,26680,200,380,200,400 F,0,25998,26680,1,0
Sprite,Foreground,Centre,"SB\C1.png",320,240 L,0,1 M,0,23782,23952,230,310,240,320 V,0,23782,23952,0.1,1,1,1 M,0,23782,26680,240,320,240,340 F,0,25998,26680,1,0
Sprite,Foreground,Centre,"SB\C2.png",320,240 L,100,1 M,0,23782,23952,230,340,240,350 V,0,23782,23952,0.1,1,1,1 M,0,23782,26680,240,350,240,370 F,0,25998,26680,1,0
Sprite,Foreground,Centre,"SB\C3.png",320,240 L,200,1 M,0,23782,23952,230,370,240,380 V,0,23782,23952,0.1,1,1,1 M,0,23782,26680,240,380,240,400 F,0,25998,26680,1,0
Sprite,Foreground,Centre,"SB\D1.png",320,240 L,27020,1 M,0,0,171,80,40,90,50 V,0,0,171,0.1,1,1,1 M,0,0,10569,90,50,90,70 F,0,38270,38952,1,0
Sprite,Foreground,Centre,"SB\D2.png",320,240 L,27120,1 M,0,0,171,80,70,90,80 V,0,0,171,0.1,1,1,1 M,0,0,10569,90,80,90,100 F,0,38270,38952,1,0
Sprite,Foreground,Centre,"SB\D3.png",320,240 L,27220,1 M,0,0,171,80,100,90,110 V,0,0,171,0.1,1,1,1 M,0,0,10569,90,110,90,130 F,0,38270,38952,1,0
Sprite,Foreground,Centre,"SB\D4.png",320,240 L,27320,1 M,0,0,171,80,130,90,140 V,0,0,171,0.1,1,1,1 M,0,0,10569,90,140,90,160 F,0,38270,38952,1,0
Sprite,Foreground,Centre,"SB\E1.png",320,240 L,0,1 M,0,29407,29577,120,120,130,130 V,0,29407,29577,0.1,1,1,1 M,0,29407,38952,130,130,130,150 F,0,38270,38952,1,0
Sprite,Foreground,Centre,"SB\E2.png",320,240 L,100,1 M,0,29407,29577,120,150,130,160 V,0,29407,29577,0.1,1,1,1 M,0,29407,38952,130,160,130,180 F,0,38270,38952,1,0
Sprite,Foreground,Centre,"SB\E3.png",320,240 L,200,1 M,0,29407,29577,120,180,130,190 V,0,29407,29577,0.1,1,1,1 M,0,29407,38952,130,190,130,210 F,0,38270,38952,1,0
Sprite,Foreground,Centre,"SB\E4.png",320,240 L,300,1 M,0,29407,29577,120,210,130,220 V,0,29407,29577,0.1,1,1,1 M,0,29407,38952,130,220,130,240 F,0,38270,38952,1,0
Sprite,Foreground,Centre,"SB\E5.png",320,240 L,400,1 M,0,29407,29577,120,240,130,250 V,0,29407,29577,0.1,1,1,1 M,0,29407,38952,130,250,130,270 F,0,38270,38952,1,0
Sprite,Foreground,Centre,"SB\E6.png",320,240 L,500,1 M,0,29407,29577,120,270,130,280 V,0,29407,29577,0.1,1,1,1 M,0,29407,38952,130,280,130,300 F,0,38270,38952,1,0
Sprite,Foreground,Centre,"SB\E7.png",320,240 L,600,1 M,0,29407,29577,120,300,130,310 V,0,29407,29577,0.1,1,1,1 M,0,29407,38952,130,310,130,330 F,0,38270,38952,1,0
Sprite,Foreground,Centre,"SB\E8.png",320,240 L,700,1 M,0,29407,29577,120,330,130,340 V,0,29407,29577,0.1,1,1,1 M,0,29407,38952,130,340,130,360 F,0,38270,38952,1,0
Sprite,Foreground,Centre,"SB\F1.png",320,240 L,0,1 M,0,32134,32305,190,220,200,230 V,0,32134,32305,0.1,1,1,1 M,0,32134,38952,200,230,200,250 F,0,38270,38952,1,0
Sprite,Foreground,Centre,"SB\F2.png",320,240 L,100,1 M,0,32134,32305,190,250,200,260 V,0,32134,32305,0.1,1,1,1 M,0,32134,38952,200,260,200,280 F,0,38270,38952,1,0
Sprite,Foreground,Centre,"SB\F3.png",320,240 L,200,1 M,0,32134,32305,190,280,200,290 V,0,32134,32305,0.1,1,1,1 M,0,32134,38952,200,290,200,310 F,0,38270,38952,1,0
Sprite,Foreground,Centre,"SB\F4.png",320,240 L,300,1 M,0,32134,32305,190,310,200,320 V,0,32134,32305,0.1,1,1,1 M,0,32134,38952,200,320,200,340 F,0,38270,38952,1,0
Sprite,Foreground,Centre,"SB\F5.png",320,240 L,400,1 M,0,32134,32305,190,340,200,350 V,0,32134,32305,0.1,1,1,1 M,0,32134,38952,200,350,200,370 F,0,38270,38952,1,0
Sprite,Foreground,Centre,"SB\G1.png",320,240 L,0,1 M,0,34691,34861,230,170,240,180 V,0,34691,34861,0.1,1,1,1 M,0,34691,38952,240,180,240,190 F,0,38270,38952,1,0
Sprite,Foreground,Centre,"SB\G2.png",320,240 L,100,1 M,0,34691,34861,230,200,240,210 V,0,34691,34861,0.1,1,1,1 M,0,34691,38952,240,210,240,220 F,0,38270,38952,1,0
Sprite,Foreground,Centre,"SB\G3.png",320,240 L,200,1 M,0,34691,34861,230,230,240,240 V,0,34691,34861,0.1,1,1,1 M,0,34691,38952,240,240,240,250 F,0,38270,38952,1,0
Sprite,Foreground,Centre,"SB\G4.png",320,240 L,300,1 M,0,34691,34861,230,260,240,270 V,0,34691,34861,0.1,1,1,1 M,0,34691,38952,240,270,240,280 F,0,38270,38952,1,0
Sprite,Foreground,Centre,"SB\G5.png",320,240 L,400,1 M,0,34691,34861,230,290,240,300 V,0,34691,34861,0.1,1,1,1 M,0,34691,38952,240,300,240,310 F,0,38270,38952,1,0
Sprite,Foreground,Centre,"SB\G6.png",320,240 L,500,1 M,0,34691,34861,230,320,240,330 V,0,34691,34861,0.1,1,1,1 M,0,34691,38952,240,330,240,340 F,0,38270,38952,1,0
Sprite,Foreground,Centre,"SB\G7.png",320,240 L,600,1 M,0,34691,34861,230,350,240,360 V,0,34691,34861,0.1,1,1,1 M,0,34691,38952,240,360,240,370 F,0,38270,38952,1,0
Sprite,Foreground,Centre,"SB\G8.png",320,240 L,700,1 M,0,34691,34861,230,380,240,390 V,0,34691,34861,0.1,1,1,1 M,0,34691,38952,240,390,240,400 F,0,38270,38952,1,0
Sprite,Foreground,Centre,"SB\G9.png",320,240 L,800,1 M,0,34691,34861,230,410,240,420 V,0,34691,34861,0.1,1,1,1 M,0,34691,38952,240,420,240,430 F,0,38270,38952,1,0
Sprite,Foreground,Centre,"SB\H1.png",320,240 L,0,1 M,0,39293,39464,80,40,90,50 V,0,39293,39464,0.1,1,1,1 M,0,39293,50543,90,50,90,70 F,0,49861,50543,1,0
Sprite,Foreground,Centre,"SB\H2.png",320,240 L,100,1 M,0,39293,39464,80,70,90,80 V,0,39293,39464,0.1,1,1,1 M,0,39293,50543,90,80,90,100 F,0,49861,50543,1,0
Sprite,Foreground,Centre,"SB\H3.png",320,240 L,200,1 M,0,39293,39464,80,100,90,110 V,0,39293,39464,0.1,1,1,1 M,0,39293,50543,90,110,90,130 F,0,49861,50543,1,0
Sprite,Foreground,Centre,"SB\H4.png",320,240 L,300,1 M,0,39293,39464,80,130,90,140 V,0,39293,39464,0.1,1,1,1 M,0,39293,50543,90,140,90,160 F,0,49861,50543,1,0
Sprite,Foreground,Centre,"SB\H5.png",320,240 L,400,1 M,0,39293,39464,80,160,90,170 V,0,39293,39464,0.1,1,1,1 M,0,39293,50543,90,170,90,190 F,0,49861,50543,1,0
Sprite,Foreground,Centre,"SB\H6.png",320,240 L,500,1 M,0,39293,39464,80,190,90,200 V,0,39293,39464,0.1,1,1,1 M,0,39293,50543,90,200,90,220 F,0,49861,50543,1,0
Sprite,Foreground,Centre,"SB\B1.png",320,240 L,0,1 M,0,42020,42191,120,120,130,130 V,0,42020,42191,0.1,1,1,1 M,0,42020,50543,130,130,130,150 F,0,49861,50543,1,0
Sprite,Foreground,Centre,"SB\B2.png",320,240 L,100,1 M,0,42020,42191,120,150,130,160 V,0,42020,42191,0.1,1,1,1 M,0,42020,50543,130,160,130,180 F,0,49861,50543,1,0
Sprite,Foreground,Centre,"SB\A9.png",320,240 L,200,1 M,0,42020,42191,120,180,130,190 V,0,42020,42191,0.1,1,1,1 M,0,42020,50543,130,190,130,210 F,0,49861,50543,1,0
Sprite,Foreground,Centre,"SB\A5.png",320,240 L,300,1 M,0,42020,42191,120,210,130,220 V,0,42020,42191,0.1,1,1,1 M,0,42020,50543,130,220,130,240 F,0,49861,50543,1,0
Sprite,Foreground,Centre,"SB\A9.png",320,240 L,400,1 M,0,42020,42191,120,240,130,250 V,0,42020,42191,0.1,1,1,1 M,0,42020,50543,130,250,130,270 F,0,49861,50543,1,0
Sprite,Foreground,Centre,"SB\H1.png",320,240 L,500,1 M,0,42020,42191,120,270,130,280 V,0,42020,42191,0.1,1,1,1 M,0,42020,50543,130,280,130,300 F,0,49861,50543,1,0
Sprite,Foreground,Centre,"SB\I1.png",320,240 L,0,1 M,0,44748,44918,190,220,200,230 V,0,44748,44918,0.1,1,1,1 M,0,44748,50543,200,230,200,250 F,0,49861,50543,1,0
Sprite,Foreground,Centre,"SB\I2.png",320,240 L,100,1 M,0,44748,44918,190,250,200,260 V,0,44748,44918,0.1,1,1,1 M,0,44748,50543,200,260,200,280 F,0,49861,50543,1,0
Sprite,Foreground,Centre,"SB\A9.png",320,240 L,200,1 M,0,44748,44918,190,280,200,290 V,0,44748,44918,0.1,1,1,1 M,0,44748,50543,200,290,200,310 F,0,49861,50543,1,0
Sprite,Foreground,Centre,"SB\E8.png",320,240 L,300,1 M,0,44748,44918,190,310,200,320 V,0,44748,44918,0.1,1,1,1 M,0,44748,50543,200,320,200,340 F,0,49861,50543,1,0
Sprite,Foreground,Centre,"SB\A3.png",320,240 L,400,1 M,0,44748,44918,190,340,200,350 V,0,44748,44918,0.1,1,1,1 M,0,44748,50543,200,350,200,370 F,0,49861,50543,1,0
Sprite,Foreground,Centre,"SB\A12.png",320,240 L,500,1 M,0,44748,44918,190,370,200,380 V,0,44748,44918,0.1,1,1,1 M,0,44748,50543,200,380,200,400 F,0,49861,50543,1,0
Sprite,Foreground,Centre,"SB\I3.png",320,240 L,0,1 M,0,47475,47645,230,310,240,320 V,0,47475,47645,0.1,1,1,1 M,0,47475,50543,240,320,240,330 F,0,49861,50543,1,0
Sprite,Foreground,Centre,"SB\I4.png",320,240 L,100,1 M,0,47475,47645,230,340,240,350 V,0,47475,47645,0.1,1,1,1 M,0,47475,50543,240,350,240,360 F,0,49861,50543,1,0
Sprite,Foreground,Centre,"SB\I5.png",320,240 L,200,1 M,0,47475,47645,230,370,240,380 V,0,47475,47645,0.1,1,1,1 M,0,47475,50543,240,380,240,390 F,0,49861,50543,1,0
Sprite,Foreground,Centre,"SB\J1.png",320,240 L,0,1 M,0,51055,51225,80,40,90,50 V,0,51055,51225,0.1,1,1,1 M,0,51055,62134,90,50,90,70 F,0,61793,62134,1,0
Sprite,Foreground,Centre,"SB\J2.png",320,240 L,100,1 M,0,51055,51225,80,70,90,80 V,0,51055,51225,0.1,1,1,1 M,0,51055,62134,90,80,90,100 F,0,61793,62134,1,0
Sprite,Foreground,Centre,"SB\J3.png",320,240 L,200,1 M,0,51055,51225,80,100,90,110 V,0,51055,51225,0.1,1,1,1 M,0,51055,62134,90,110,90,130 F,0,61793,62134,1,0
Sprite,Foreground,Centre,"SB\J4.png",320,240 L,300,1 M,0,51055,51225,80,130,90,140 V,0,51055,51225,0.1,1,1,1 M,0,51055,62134,90,140,90,160 F,0,61793,62134,1,0
Sprite,Foreground,Centre,"SB\J5.png",320,240 L,400,1 M,0,51055,51225,80,160,90,170 V,0,51055,51225,0.1,1,1,1 M,0,51055,62134,90,170,90,190 F,0,61793,62134,1,0
Sprite,Foreground,Centre,"SB\J6.png",320,240 L,500,1 M,0,51055,51225,80,190,90,200 V,0,51055,51225,0.1,1,1,1 M,0,51055,62134,90,200,90,220 F,0,61793,62134,1,0
Sprite,Foreground,Centre,"SB\J7.png",320,240 L,600,1 M,0,51055,51225,80,220,90,230 V,0,51055,51225,0.1,1,1,1 M,0,51055,62134,90,230,90,250 F,0,61793,62134,1,0
Sprite,Foreground,Centre,"SB\K1.png",320,240 L,0,1 M,0,53100,53270,120,120,130,130 V,0,53100,53270,0.1,1,1,1 M,0,53100,62134,130,130,130,150 F,0,61793,62134,1,0
Sprite,Foreground,Centre,"SB\K2.png",320,240 L,100,1 M,0,53100,53270,120,150,130,160 V,0,53100,53270,0.1,1,1,1 M,0,53100,62134,130,160,130,180 F,0,61793,62134,1,0
Sprite,Foreground,Centre,"SB\K4.png",320,240 L,300,1 M,0,53100,53270,120,210,130,220 V,0,53100,53270,0.1,1,1,1 M,0,53100,62134,130,220,130,240 F,0,61793,62134,1,0
Sprite,Foreground,Centre,"SB\K6.png",320,240 L,500,1 M,0,53100,53270,120,270,130,280 V,0,53100,53270,0.1,1,1,1 M,0,53100,62134,130,280,130,300 F,0,61793,62134,1,0
Sprite,Foreground,Centre,"SB\K7.png",320,240 L,600,1 M,0,53100,53270,120,300,130,310 V,0,53100,53270,0.1,1,1,1 M,0,53100,62134,130,310,130,330 F,0,61793,62134,1,0
Sprite,Foreground,Centre,"SB\K8.png",320,240 L,700,1 M,0,53100,53270,120,330,130,340 V,0,53100,53270,0.1,1,1,1 M,0,53100,62134,130,340,130,360 F,0,61793,62134,1,0
Sprite,Foreground,Centre,"SB\K9.png",320,240 L,800,1 M,0,53100,53270,120,360,130,370 V,0,53100,53270,0.1,1,1,1 M,0,53100,62134,130,370,130,390 F,0,61793,62134,1,0
Sprite,Foreground,Centre,"SB\L1.png",320,240 L,0,1 M,0,57020,57191,190,90,200,100 V,0,57020,57191,0.1,1,1,1 M,0,57020,62134,200,100,200,115 F,0,61793,62134,1,0
Sprite,Foreground,Centre,"SB\L2.png",320,240 L,100,1 M,0,57020,57191,190,120,200,130 V,0,57020,57191,0.1,1,1,1 M,0,57020,62134,200,130,200,145 F,0,61793,62134,1,0
Sprite,Foreground,Centre,"SB\L3.png",320,240 L,200,1 M,0,57020,57191,190,150,200,160 V,0,57020,57191,0.1,1,1,1 M,0,57020,62134,200,160,200,175 F,0,61793,62134,1,0
Sprite,Foreground,Centre,"SB\L4.png",320,240 L,300,1 M,0,57020,57191,190,180,200,190 V,0,57020,57191,0.1,1,1,1 M,0,57020,62134,200,190,200,205 F,0,61793,62134,1,0
Sprite,Foreground,Centre,"SB\A8.png",320,240 L,400,1 M,0,57020,57191,190,210,200,220 V,0,57020,57191,0.1,1,1,1 M,0,57020,62134,200,220,200,235 F,0,61793,62134,1,0
Sprite,Foreground,Centre,"SB\L5.png",320,240 L,500,1 M,0,57020,57191,190,240,200,250 V,0,57020,57191,0.1,1,1,1 M,0,57020,62134,200,250,200,265 F,0,61793,62134,1,0
Sprite,Foreground,Centre,"SB\L2.png",320,240 L,600,1 M,0,57020,57191,190,270,200,280 V,0,57020,57191,0.1,1,1,1 M,0,57020,62134,200,280,200,295 F,0,61793,62134,1,0
Sprite,Foreground,Centre,"SB\A8.png",320,240 L,700,1 M,0,57020,57191,190,300,200,310 V,0,57020,57191,0.1,1,1,1 M,0,57020,62134,200,310,200,325 F,0,61793,62134,1,0
Sprite,Foreground,Centre,"SB\A10.png",320,240 L,800,1 M,0,57020,57191,190,330,200,340 V,0,57020,57191,0.1,1,1,1 M,0,57020,62134,200,340,200,355 F,0,61793,62134,1,0
Sprite,Foreground,Centre,"SB\M1.png",320,240 L,0,1 M,0,59918,60089,230,130,240,140 V,0,59918,60089,0.1,1,1,1 M,0,59918,62134,240,140,240,150 F,0,61793,62134,1,0
Sprite,Foreground,Centre,"SB\M2.png",320,240 L,100,1 M,0,59918,60089,230,160,240,170 V,0,59918,60089,0.1,1,1,1 M,0,59918,62134,240,170,240,180 F,0,61793,62134,1,0
Sprite,Foreground,Centre,"SB\G2.png",320,240 L,200,1 M,0,59918,60089,230,190,240,200 V,0,59918,60089,0.1,1,1,1 M,0,59918,62134,240,200,240,210 F,0,61793,62134,1,0
Sprite,Foreground,Centre,"SB\M3.png",320,240 L,300,1 M,0,59918,60089,230,220,240,230 V,0,59918,60089,0.1,1,1,1 M,0,59918,62134,240,230,240,240 F,0,61793,62134,1,0
Sprite,Foreground,Centre,"SB\M4.png",320,240 L,400,1 M,0,59918,60089,230,250,240,260 V,0,59918,60089,0.1,1,1,1 M,0,59918,62134,240,260,240,270 F,0,61793,62134,1,0
Sprite,Foreground,Centre,"SB\E7.png",320,240 L,500,1 M,0,59918,60089,230,280,240,290 V,0,59918,60089,0.1,1,1,1 M,0,59918,62134,240,290,240,300 F,0,61793,62134,1,0
Sprite,Foreground,Centre,"SB\N1.png",320,240 L,0,1 M,0,62134,62305,80,40,90,50 V,0,62134,62305,0.1,1,1,1 M,0,62134,75770,90,50,90,70 F,0,75089,75770,1,0
Sprite,Foreground,Centre,"SB\N2.png",320,240 L,100,1 M,0,62134,62305,80,70,90,80 V,0,62134,62305,0.1,1,1,1 M,0,62134,75770,90,80,90,100 F,0,75089,75770,1,0
Sprite,Foreground,Centre,"SB\N3.png",320,240 L,200,1 M,0,62134,62305,80,100,90,110 V,0,62134,62305,0.1,1,1,1 M,0,62134,75770,90,110,90,130 F,0,75089,75770,1,0
Sprite,Foreground,Centre,"SB\N4.png",320,240 L,300,1 M,0,62134,62305,80,130,90,140 V,0,62134,62305,0.1,1,1,1 M,0,62134,75770,90,140,90,160 F,0,75089,75770,1,0
Sprite,Foreground,Centre,"SB\N5.png",320,240 L,400,1 M,0,62134,62305,80,160,90,170 V,0,62134,62305,0.1,1,1,1 M,0,62134,75770,90,170,90,190 F,0,75089,75770,1,0
Sprite,Foreground,Centre,"SB\N6.png",320,240 L,500,1 M,0,62134,62305,80,190,90,200 V,0,62134,62305,0.1,1,1,1 M,0,62134,75770,90,200,90,220 F,0,75089,75770,1,0
Sprite,Foreground,Centre,"SB\N7.png",320,240 L,600,1 M,0,62134,62305,80,220,90,230 V,0,62134,62305,0.1,1,1,1 M,0,62134,75770,90,230,90,250 F,0,75089,75770,1,0
Sprite,Foreground,Centre,"SB\N9.png",320,240 L,800,1 M,0,62134,62305,80,280,90,290 V,0,62134,62305,0.1,1,1,1 M,0,62134,75770,90,290,90,310 F,0,75089,75770,1,0
Sprite,Foreground,Centre,"SB\N10.png",320,240 L,900,1 M,0,62134,62305,80,310,90,320 V,0,62134,62305,0.1,1,1,1 M,0,62134,75770,90,320,90,340 F,0,75089,75770,1,0
Sprite,Foreground,Centre,"SB\N11.png",320,240 L,1000,1 M,0,62134,62305,80,340,90,350 V,0,62134,62305,0.1,1,1,1 M,0,62134,75770,90,350,90,370 F,0,75089,75770,1,0
Sprite,Foreground,Centre,"SB\N12.png",320,240 L,1100,1 M,0,62134,62305,80,370,90,380 V,0,62134,62305,0.1,1,1,1 M,0,62134,75770,90,380,90,400 F,0,75089,75770,1,0
Sprite,Foreground,Centre,"SB\O1.png",320,240 L,0,1 M,0,65373,65543,120,120,130,130 V,0,65373,65543,0.1,1,1,1 M,0,65373,75770,130,130,130,150 F,0,75089,75770,1,0
Sprite,Foreground,Centre,"SB\O2.png",320,240 L,100,1 M,0,65373,65543,120,150,130,160 V,0,65373,65543,0.1,1,1,1 M,0,65373,75770,130,160,130,180 F,0,75089,75770,1,0
Sprite,Foreground,Centre,"SB\O3.png",320,240 L,200,1 M,0,65373,65543,120,180,130,190 V,0,65373,65543,0.1,1,1,1 M,0,65373,75770,130,190,130,210 F,0,75089,75770,1,0
Sprite,Foreground,Centre,"SB\O4.png",320,240 L,300,1 M,0,65373,65543,120,210,130,220 V,0,65373,65543,0.1,1,1,1 M,0,65373,75770,130,220,130,240 F,0,75089,75770,1,0
Sprite,Foreground,Centre,"SB\P1.png",320,240 L,0,1 M,0,67930,68100,190,220,200,230 V,0,67930,68100,0.1,1,1,1 M,0,67930,75770,200,230,200,250 F,0,75089,75770,1,0
Sprite,Foreground,Centre,"SB\P2.png",320,240 L,100,1 M,0,67930,68100,190,250,200,260 V,0,67930,68100,0.1,1,1,1 M,0,67930,75770,200,260,200,280 F,0,75089,75770,1,0
Sprite,Foreground,Centre,"SB\M4.png",320,240 L,200,1 M,0,67930,68100,190,280,200,290 V,0,67930,68100,0.1,1,1,1 M,0,67930,75770,200,290,200,310 F,0,75089,75770,1,0
Sprite,Foreground,Centre,"SB\A10.png",320,240 L,300,1 M,0,67930,68100,190,310,200,320 V,0,67930,68100,0.1,1,1,1 M,0,67930,75770,200,320,200,340 F,0,75089,75770,1,0
Sprite,Foreground,Centre,"SB\P3.png",320,240 L,400,1 M,0,67930,68100,190,340,200,350 V,0,67930,68100,0.1,1,1,1 M,0,67930,75770,200,350,200,370 F,0,75089,75770,1,0
Sprite,Foreground,Centre,"SB\P4.png",320,240 L,500,1 M,0,67930,68100,190,370,200,380 V,0,67930,68100,0.1,1,1,1 M,0,67930,75770,200,380,200,400 F,0,75089,75770,1,0
Sprite,Foreground,Centre,"SB\Q1.png",320,240 L,0,1 M,0,70657,70827,230,180,240,190 V,0,70657,70827,0.1,1,1,1 M,0,70657,75770,240,190,240,200 F,0,75089,75770,1,0
Sprite,Foreground,Centre,"SB\Q2.png",320,240 L,100,1 M,0,70657,70827,230,210,240,220 V,0,70657,70827,0.1,1,1,1 M,0,70657,75770,240,220,240,230 F,0,75089,75770,1,0
Sprite,Foreground,Centre,"SB\Q3.png",320,240 L,200,1 M,0,70657,70827,230,240,240,250 V,0,70657,70827,0.1,1,1,1 M,0,70657,75770,240,250,240,260 F,0,75089,75770,1,0
Sprite,Foreground,Centre,"SB\Q4.png",320,240 L,300,1 M,0,70657,70827,230,270,240,280 V,0,70657,70827,0.1,1,1,1 M,0,70657,75770,240,280,240,290 F,0,75089,75770,1,0
Sprite,Foreground,Centre,"SB\Q5.png",320,240 L,400,1 M,0,70657,70827,230,300,240,310 V,0,70657,70827,0.1,1,1,1 M,0,70657,75770,240,310,240,320 F,0,75089,75770,1,0
Sprite,Foreground,Centre,"SB\Q6.png",320,240 L,500,1 M,0,70657,70827,230,330,240,340 V,0,70657,70827,0.1,1,1,1 M,0,70657,75770,240,340,240,350 F,0,75089,75770,1,0
Sprite,Foreground,Centre,"SB\Q7.png",320,240 L,600,1 M,0,70657,70827,230,360,240,370 V,0,70657,70827,0.1,1,1,1 M,0,70657,75770,240,370,240,380 F,0,75089,75770,1,0
Sprite,Foreground,Centre,"SB\star.png",320,240 M,0,54634,,142,390 S,1,54634,54805,3.31424,1 R,0,54634,54805,9.3184,0 S,0,54805,56339,1,1.000079 R,0,54805,56339,0,4.4032 S,0,56339,56424,1.000079,3.304079
Sprite,Foreground,Centre,"SB\star.png",320,240 M,0,54805,,142,390 F,0,54805,55145,1,0 S,0,54805,55145,1,2.09568
//Storyboard Sound Samples
//Background Colour Transformations
3,100,255,255,255

[TimingPoints]
4180,340.909090909091,4,1,1,60,1,0
5543,-100,4,1,1,70,0,0
51907,-100,4,1,1,80,0,1
62134,-100,4,1,1,60,0,0
62816,-100,4,1,1,80,0,1
73725,-100,4,1,1,70,0,0

[Colours]
Combo1 : 150,255,150
Combo2 : 255,150,100
Combo3 : 255,255,255
Combo4 : 255,150,150

[HitObjects]
352,88,4180,2,0,B|304:64|256:72,1,99.9999999999999,8|8
196,88,4861,2,0,B|156:116|139:167,1,99.9999999999999,8|8
124,228,5543,6,0,B|324:228,1,200,4|8
384,332,6907,2,0,B|184:332,1,200,0|8
64,328,8270,5,0
96,212,8952,2,0,B|120:160|176:148|232:160|256:212,1,200,8|0
316,316,10316,1,8
380,212,10998,6,0,B|380:112,2,99.9999999999999,4|0|8
380,332,12361,2,0,B|176:332,1,200,0|8
60,332,13725,5,0
148,252,14407,1,8
148,132,15089,1,0
60,52,15770,1,8
180,52,16452,6,0,B|384:52,2,200,4|8|0
60,52,18498,1,8
60,172,19180,6,0,B|84:224|140:236|196:224|220:172,1,200,0|8
292,76,20543,2,0,B|316:24|372:12|428:24|452:76,1,200,0|8
372,164,21907,5,0
316,272,22589,1,8
196,272,23270,1,0
140,164,23952,1,8
156,44,24634,6,0,B|356:44,1,200,0|8
356,164,25998,2,0,B|156:164,1,200,0|8
36,164,27361,5,4
84,276,28043,2,0,B|284:276,1,200,8|0
404,276,29407,1,8
404,156,30089,6,0,B|320:84|216:120,1,200,0|8
108,164,31452,1,0
36,260,32134,1,8
156,260,32816,6,0,B|356:260,2,200,0|8|0
36,260,34861,1,8
80,148,35543,6,0,B|104:96|160:84|216:96|240:148,1,200,0|8
272,264,36907,2,0,B|296:316|352:328|408:316|432:264,2,200,0|8|4
256,144,38952,6,0,B|256:40,2,99.9999999999999,8|0|0
256,264,40316,1,8
164,344,40998,6,0,B|112:320|100:264|112:208|164:184,1,200,0|8
256,264,42361,2,0,B|456:264,2,200,0|8|0
136,264,44407,6,0,B|32:264,2,99.9999999999999,8|0|0
256,268,45770,1,8
176,180,46452,6,0,B|200:128|256:116|312:128|336:180,1,200,0|8
392,288,47816,1,0
448,180,48498,1,8
256,192,49180,12,8,50884
208,308,51907,6,0,B|154:327|106:296|75:248|94:194,1,200,4|8
128,80,53270,2,0,B|336:80,1,200,0|8
376,192,54634,6,0,B|160:192,2,200,0|8|0
496,192,56680,1,8
436,296,57361,6,0,B|412:348|356:360|300:348|276:296,1,200,4|8
228,184,58725,2,0,B|204:132|148:120|92:132|68:184,1,200,0|8
148,276,60089,5,2
256,332,60770,1,8
364,276,61452,1,2
308,168,62134,2,0,B|208:168,1,99.9999999999999,8|0
148,168,62816,6,0,B|87:263|129:362,2,200,4|8|0
232,84,64861,1,8
328,156,65543,2,0,B|368:196|360:253|330:301|273:306,1,200,4|8
256,192,66566,12,4,68270
256,272,68952,5,8
172,188,69634,1,0
256,104,70316,1,8
376,112,70998,6,0,B|428:136|440:192|428:248|376:272,2,200,4|8|4
284,192,73043,1,8
256,76,73725,6,0,B|56:76,1,200,4|8
56,196,75089,2,0,B|256:196,1,200,0|8
340,112,76452,6,0,B|392:136|404:192|392:248|340:272,2,200,0|8|0
236,52,78498,1,8
236,172,79180,6,0,B|236:272,2,99.9999999999999,4|0|8
236,52,80543,2,0,B|340:52,2,99.9999999999999,0|0|8
128,104,81907,5,4
44,192,82589,1,8
128,280,83270,2,0,B|168:320|225:312|273:282|278:225,1,200,0|8
256,192,84634,12,0,89577
