osu file format v12

[General]
AudioFilename: SUPERORBITAL.mp3
AudioLeadIn: 0
PreviewTime: 51208
Countdown: 0
SampleSet: Normal
StackLeniency: 0.7
Mode: 0
LetterboxInBreaks: 1

[Editor]
DistanceSpacing: 0.9
BeatDivisor: 2
GridSize: 8

[Metadata]
Title:SUPERORBITAL
TitleUnicode:
Artist:Daiichi Uchuu Sokudo
ArtistUnicode:
Creator:Nooko
Version:SUPERNOOKO
Source:SONICOMI
Tags:karenying Selee matthewhln Komeiji Yuki JoesSR AoiX
BeatmapID:122623
BeatmapSetID:30983

[Difficulty]
HPDrainRate:2
CircleSize:3
OverallDifficulty:2
ApproachRate:2
SliderMultiplier:0.9
SliderTickRate:1

[Events]
//Background and Video events
0,0,"SUPERORBITAL.jpg",0,0
Video,0,"SUPERORBITAL.flv"
//Break Periods
//Storyboard Layer 0 (Background)
//Storyboard Layer 1 (Fail)
//Storyboard Layer 2 (Pass)
//Storyboard Layer 3 (Foreground)
//Storyboard Sound Samples
//Background Colour Transformations
3,100,163,162,255

[TimingPoints]
4333,340.909090909091,4,1,1,60,1,0
4673,-100,4,1,1,50,0,0
5014,-100,4,1,1,60,0,0
5355,-100,4,1,1,50,0,0
16605,-100,4,2,1,50,0,0
49333,-100,4,1,1,60,0,0
49673,-100,4,1,1,5,0,0
49844,-100,4,1,1,60,0,0
50014,-100,4,1,1,5,0,0
50355,-100,4,1,1,65,0,0
50696,-100,4,1,1,5,0,0
50867,-100,4,1,1,70,0,0
52060,-100,4,1,1,55,0,1
61605,-100,4,1,1,60,0,1
61946,-100,4,1,1,55,0,1
62287,-100,4,1,1,50,0,1
63310,-100,4,1,1,55,0,1
72514,-100,4,1,2,60,0,1
73196,-100,4,1,2,55,0,1
73878,-100,4,1,2,60,0,0
74219,-100,4,1,1,50,0,0
83423,-100,4,1,1,60,0,0
83764,-100,4,1,1,65,0,0
84105,-100,4,1,1,70,0,0
84446,-100,4,1,1,75,0,0
84787,-100,4,1,1,40,0,0
85469,-100,4,1,1,35,0,0
86151,-100,4,1,1,30,0,0
86833,-100,4,1,1,25,0,0
87514,-100,4,1,1,20,0,0
88196,-100,4,1,1,15,0,0
88878,-100,4,1,1,10,0,0
89560,-100,4,1,1,5,0,0
89730,-100,4,1,1,30,0,0

[Colours]
Combo1 : 255,128,255
Combo2 : 255,255,128
Combo3 : 0,255,128
Combo4 : 0,128,255

[HitObjects]
472,344,4333,2,0,B|472:296|432:256,3,90,8|8|8|8,0:0|0:0|0:0|0:0,0:0:0:0:
416,184,5696,6,0,B|416:136|456:96,1,90,0|8,0:0|0:0,0:0:0:0:
296,48,6719,2,0,B|216:0|120:48,1,180,8|8,0:0|0:0,0:0:0:0:
72,200,8083,1,8,0:0:0:0:
72,200,8423,6,0,B|40:232|40:288,1,90,0|8,0:0|0:0,0:0:0:0:
200,280,9446,2,0,B|264:344|368:344,1,180,8|8,0:0|0:0,0:0:0:0:
472,224,10810,1,8,0:0:0:0:
424,160,11151,5,0,0:0:0:0:
472,96,11492,1,8,0:0:0:0:
320,40,12173,1,8,0:0:0:0:
208,152,12855,1,8,0:0:0:0:
56,96,13537,1,8,0:0:0:0:
40,256,14219,5,8,0:0:0:0:
176,344,14901,2,0,B|264:344,1,90,8|0,0:0|0:0,0:0:0:0:
320,280,15583,1,8,0:0:0:0:
376,344,15923,2,0,B|408:312|408:256,1,90,0|8,0:0|0:0,0:0:0:0:
472,112,16946,5,8,0:0:0:0:
320,48,17628,2,0,B|240:0|144:48,1,180,8|8,0:0|0:0,0:0:0:0:
40,168,18992,1,8,0:0:0:0:
40,248,19333,5,0,0:0:0:0:
96,304,19673,1,8,0:0:0:0:
256,280,20355,2,0,B|320:344|424:344,1,180,8|8,0:0|0:0,0:0:0:0:
472,192,21719,1,8,0:0:0:0:
424,40,22401,5,8,0:0:0:0:
280,120,23083,1,8,0:0:0:0:
280,120,23423,2,0,B|192:120,1,90,0|8,0:0|0:0,0:0:0:0:
48,40,24446,2,0,B|0:120|48:216,1,180,8|8,0:0|0:0,0:0:0:0:
144,344,25810,6,0,B|328:344,1,180,8|8,0:0|0:0,0:0:0:0:
440,232,27173,2,0,B|472:200|472:144,1,90,8|0,0:0|0:0,0:0:0:0:
464,72,27855,5,8,0:0:0:0:
320,152,28537,1,8,0:0:0:0:
208,40,29219,1,8,0:0:0:0:
64,120,29901,2,0,B|16:200|64:296,1,180,8|8,0:0|0:0,0:0:0:0:
224,288,31264,5,8,0:0:0:0:
280,344,31605,1,0,0:0:0:0:
336,288,31946,1,8,0:0:0:0:
392,136,32628,2,0,B|424:104|480:104,2,90,8|0|8,0:0|0:0|0:0,0:0:0:0:
256,48,33992,6,0,B|176:0|80:48,1,180,8|8,0:0|0:0,0:0:0:0:
176,176,35355,1,8,0:0:0:0:
40,264,36037,5,8,0:0:0:0:
176,352,36719,1,8,0:0:0:0:
256,352,37060,2,0,B|344:352,1,90,0|8,0:0|0:0,0:0:0:0:
416,200,38083,1,8,0:0:0:0:
416,200,38764,6,0,B|480:136|480:32,1,180,8|8,0:0|0:0,0:0:0:0:
320,80,40128,1,8,0:0:0:0:
320,80,40469,2,0,B|232:80,1,90,0|8,0:0|0:0,0:0:0:0:
72,40,41492,5,8,0:0:0:0:
40,200,42173,1,8,0:0:0:0:
112,344,42855,2,0,B|160:344|200:304,1,90,8|0,0:0|0:0,0:0:0:0:
248,248,43537,1,8,0:0:0:0:
408,248,44219,5,8,0:0:0:0:
472,96,44901,2,0,B|504:64|504:8,2,90,8|0|8,0:0|0:0|0:0,0:0:0:0:
320,40,46264,2,0,B|136:40,1,180,8|8,0:0|0:0,0:0:0:0:
24,152,47628,5,8,0:0:0:0:
160,240,48310,1,8,0:0:0:0:
48,352,48992,1,8,0:0:0:0:
48,352,49333,6,0,B|112:384|184:352,3,135,2|2|2|2,0:0|0:0|0:0|0:0,0:0:0:0:
464,336,52060,6,0,B|488:296|464:248,1,90,0|8,0:0|0:0,0:0:0:0:
472,88,53083,1,8,0:0:0:0:
400,120,53423,1,0,0:0:0:0:
408,40,53764,1,8,0:0:0:0:
248,48,54446,2,0,B|168:0|72:48,1,180,8|8,0:0|0:0,0:0:0:0:
32,200,55810,5,8,0:0:0:0:
32,200,56151,2,0,B|0:232|0:288,1,90,0|8,0:0|0:0,0:0:0:0:
152,344,57173,1,8,0:0:0:0:
264,232,57855,5,8,0:0:0:0:
416,288,58537,2,0,B|480:224|480:120,1,180,8|8,0:0|0:0,0:0:0:0:
320,88,59901,1,8,0:0:0:0:
264,32,60242,5,0,0:0:0:0:
208,88,60583,1,8,0:0:0:0:
56,32,61264,2,0,B|24:64|24:120,1,90,8|8,0:0|0:0,0:0:0:0:
40,192,61946,2,0,B|72:224|72:280,1,90,8|8,0:0|0:0,0:0:0:0:
80,352,62628,1,0,0:0:0:0:
240,352,63310,6,0,B|424:352,1,180,8|8,0:0|0:0,0:0:0:0:
472,200,64673,1,8,0:0:0:0:
424,48,65355,1,8,0:0:0:0:
424,48,65696,6,0,B|384:24|336:48,1,90,0|8,0:0|0:0,0:0:0:0:
224,160,66719,1,8,0:0:0:0:
112,48,67401,1,8,0:0:0:0:
32,184,68083,1,8,0:0:0:0:
32,184,68423,6,0,B|0:216|0:272,1,90,0|8,0:0|0:0,0:0:0:0:
144,344,69446,2,0,B|328:344,1,180,8|8,0:0|0:0,0:0:0:0:
440,232,70810,1,8,0:0:0:0:
440,232,71151,6,0,B|472:200|472:144,1,90,0|8,0:0|0:0,0:0:0:0:
360,32,72173,1,8,0:0:0:0:
360,32,72514,1,4,0:0:0:0:
208,88,73196,1,8,0:0:0:0:
48,48,73878,6,0,B|24:88|48:136,1,90,4|8,0:0|0:0,0:0:0:0:
40,296,74901,1,8,0:0:0:0:
96,352,75242,1,0,0:0:0:0:
152,296,75583,1,8,0:0:0:0:
312,328,76264,2,0,B|392:376|488:328,1,180,8|8,0:0|0:0,0:0:0:0:
408,192,77628,5,8,0:0:0:0:
488,56,78310,1,8,0:0:0:0:
328,96,78992,1,8,0:0:0:0:
328,96,79333,6,0,B|240:96,1,90,0|8,0:0|0:0,0:0:0:0:
88,40,80355,2,0,B|24:104|24:208,1,180,8|8,0:0|0:0,0:0:0:0:
112,344,81719,1,8,0:0:0:0:
200,208,82401,5,8,0:0:0:0:
312,320,83083,1,8,0:0:0:0:
392,312,83423,2,0,B|440:312|480:272,1,90,4|4,0:0|0:0,0:0:0:0:
464,200,84105,2,0,B|496:168|496:112,1,90,4|4,0:0|0:0,0:0:0:0:
256,192,84787,12,0,89730,0:0:0:0:
