osu file format v9

[General]
AudioFilename: kirakira.mp3.MP3
AudioLeadIn: 0
PreviewTime: 17171
Countdown: 0
SampleSet: Soft
StackLeniency: 0.7
Mode: 0
LetterboxInBreaks: 0

[Editor]
DistanceSpacing: 0.9
BeatDivisor: 4
GridSize: 4

[Metadata]
Title:KiraKira (Short Ver.)
Artist:Dai2BungeibuBand
Creator:Tenshi-nyan
Version:Hard
Source:KiraKira
Tags:d2b Eirene Kirari Shiino Sarina Kashiwara Chie Isurugi OzzyOzrock

[Difficulty]
HPDrainRate:6
CircleSize:4
OverallDifficulty:6
ApproachRate:7
SliderMultiplier:1.5
SliderTickRate:1

[Events]
//Background and Video events
0,0,"01.jpg"
Video,0,"Movie_op.avi"
//Break Periods
2,35998,38458
//Storyboard Layer 0 (Background)
//Storyboard Layer 1 (Fail)
//Storyboard Layer 2 (Pass)
//Storyboard Layer 3 (Foreground)
//Storyboard Sound Samples
//Background Colour Transformations
3,100,163,162,255

[TimingPoints]
299,297.029702970297,4,2,1,45,1,0
16190,-200,4,2,1,45,0,0
17006,-100,4,2,1,45,0,0
47823,-100,4,2,1,45,0,1
67427,-100,4,2,1,45,0,1
75150,-100,4,2,1,45,0,0
75299,-100,4,1,0,22,0,0
75670,-100,4,1,0,11,0,0
80942,-100,4,2,0,0,0,0

[Colours]
Combo1 : 217,130,117
Combo2 : 255,128,0
Combo3 : 192,192,192
Combo4 : 202,101,0

[HitObjects]
56,144,2378,1,8
80,208,2526,2,0,B|128:288|200:304,1,150,12|0
192,302,2972,1,8
408,256,3269,5,8
388,192,3417,1,8
360,132,3566,1,8
312,84,3714,2,0,B|224:60|136:92,1,150,12|0
164,84,4160,1,8
88,296,4457,5,8
128,240,4605,1,8
168,296,4754,1,8
167,296,4902,2,0,B|239:336|343:296,1,150,12|0
312,307,5348,1,8
408,96,5645,6,0,B|448:120|480:160,2,75,8|8|8
344,72,6091,1,4
220,140,6388,2,0,B|180:156|156:188,2,75,8|8|12
336,208,6982,1,8
296,264,7130,1,8
232,288,7279,1,12
192,88,7724,1,8
408,96,8021,5,8
408,96,8170,1,8
408,96,8318,1,8
408,96,8467,2,0,B|464:160|464:256,1,150,12|0
463,232,8912,1,8
256,320,9209,5,8
192,296,9358,1,8
136,256,9506,1,8
136,256,9655,1,12
208,144,9952,1,0
208,144,10100,1,8
408,200,10398,6,0,B|448:224|480:264,2,75,8|8|8
344,176,10843,2,0,B|264:152|176:176,1,150,12|0
128,192,11289,2,0,B|88:216|56:256,1,75,0|12
192,288,11734,2,0,B|240:312|296:320,1,75
328,328,12031,6,0,B|376:344,2,37.5,8|8|4
424,232,12477,1,8
344,128,12774,1,8
240,216,13071,5,8
292,172,13219,1,0
344,128,13368,1,4
224,72,13665,1,8
112,144,13962,1,8
112,280,14259,5,8
112,212,14407,1,0
112,144,14556,1,4
224,216,14853,1,8
336,288,15150,1,8
424,184,15447,1,8
256,32,15744,6,0,B|256:112,1,75,8|8
256,107,16190,2,0,B|256:296,1,187.5,4|4
384,328,17229,6,0,B|384:160,1,150,8|2
384,178,17675,1,0
384,112,17823,1,8
256,64,18120,1,2
200,104,18269,2,0,B|152:120|136:168,1,75,0|8
208,176,18566,2,0,B|320:208|272:320,1,150
216,288,19011,5,8
184,348,19160,2,0,B|72:316|120:204,1,150
108,240,19605,1,8
80,176,19754,1,0
88,108,19902,2,0,B|104:68|152:44,1,75,2|0
200,28,20199,1,8
248,160,20497,2,0,B|184:176|176:224,2,75,2|0|8
312,136,20942,1,0
312,204,21091,2,0,B|312:356,1,150,2|8
208,264,21685,5,2
112,168,21982,1,8
200,64,22279,2,0,B|220:38|264:24,2,75,2|0|8
328,112,22873,2,0,B|302:145|248:160,2,75,2|0|8
392,88,23318,1,0
448,128,23467,1,2
464,192,23615,1,0
448,256,23764,1,8
392,296,23912,6,0,B|312:352|224:352,1,150
253,350,24358,1,8
189,329,24506,2,0,B|151:323|117:297,2,75,0|2|0
253,350,24952,1,8
328,232,25249,2,0,B|370:222|400:192,2,75,2|0|8
264,248,25695,1,0
200,232,25843,2,0,B|157:222|128:192,2,75,2|0|8
264,64,26437,5,4
376,136,26734,1,8
376,272,27031,2,0,B|376:352,2,75,2|0|8
264,200,27625,2,0,B|208:192|168:160,1,75,2|0
136,144,27922,1,8
68,144,28071,1,0
100,204,28219,2,0,B|100:292,2,75,2|0|8
104,136,28665,6,0,B|96:32|224:56,1,150
197,52,29110,1,8
225,113,29259,1,0
253,174,29407,2,0,B|253:270,2,75,2|0|8
392,160,30001,1,2
364,96,30150,1,0
300,68,30298,1,8
232,64,30447,1,0
164,64,30596,2,0,B|100:64|76:96,2,75,2|0|8
200,192,31190,5,2
88,264,31487,1,8
88,128,31784,2,0,B|108:102|152:88,2,75,2|0|8
88,264,32378,2,0,B|62:297|8:312,2,75,2|0|8
136,216,32823,1,0
204,208,32972,2,0,B|237:182|252:128,2,75,2|0|8
256,252,33417,6,0,B|356:252|392:188,1,150
424,140,33863,1,8
488,116,34011,2,0,B|472:68|416:76,2,75,0|2|0
488,184,34457,1,8
368,268,34754,6,0,B|351:304|280:332,1,75,8|0
244,316,35051,2,0,B|205:302|188:266,1,75,8|0
272,228,35348,2,0,B|272:148,2,75,8|8|8
272,228,35794,1,12
48,48,39358,6,0,B|48:128|136:192,1,150,12|8
168,224,39803,1,8
220,176,39952,2,0,B|300:176|364:264,1,150,12|8
296,288,40398,2,0,B|256:297|208:276,1,75,8|12
212,80,40992,1,8
136,192,41289,6,8,B|100:211|64:240,2,75,8|8|8
136,192,41734,1,12
312,288,42180,1,8
408,192,42477,6,8,B|438:175|472:152,2,75,8|8|8
344,176,42922,1,8
280,152,43071,1,4
167,227,43368,1,8
304,340,43665,5,2
304,340,43813,1,0
304,340,43962,1,8
408,192,44259,5,2
408,192,44407,1,0
408,192,44556,1,8
267,79,44853,5,2
267,79,45001,1,0
267,79,45150,1,8
166,228,45447,5,2
166,228,45596,1,0
166,228,45744,1,8
296,332,46041,6,0,B|256:364|200:364,2,75,2|0|8
288,152,46635,6,0,B|328:120|376:120,2,75,2|0|8
144,264,47229,5,2
80,236,47378,2,8,B|40:268,6,37.5,8|8|8|8|8|8|4
228,76,48120,5,8
292,108,48269,1,8
252,164,48417,1,2
280,296,48714,1,8
88,176,49011,5,2
152,56,49308,2,0,B|102:50|80:32,2,75,8|8|2
216,176,49902,1,8
416,280,50199,5,2
472,160,50497,2,0,B|504:128|504:88,2,75,8|8|2
344,192,51091,1,8
120,160,51388,6,0,B|39:196|32:296,1,150,4|0
88,320,51833,1,4
224,304,52130,2,0,B|271:296|312:248,1,75,0|8
360,152,52576,5,4
264,56,52873,1,8
208,96,53021,1,8
184,160,53170,2,0,B|144:192|136:224,2,75,2|0|8
384,256,53764,5,2
264,320,54061,1,8
256,184,54358,2,0,B|216:120,2,75,2|0|8
96,344,54952,6,0,B|24:276|84:176,1,150,2|8
120,80,55546,1,2
184,48,55695,1,0
252,40,55843,1,8
192,256,56140,6,0,B|226:296|226:296|269:322|336:312,1,150,4|8
352,256,56586,2,0,B|318:215|318:215|274:190|208:200,1,150,0|0
156,196,57031,1,8
116,140,57180,2,0,B|92:108,2,37.5,0|0|4
336,96,57625,6,0,B|368:73|424:64,2,75,8|8|2
280,216,58219,1,8
280,216,58516,1,2
72,296,58813,6,0,B|32:312|8:344,2,75,8|8|2
184,224,59407,1,8
184,224,59704,1,2
296,24,60001,5,8
336,80,60150,1,8
328,148,60298,2,0,B|304:228|216:252,1,150,2|8
104,56,60893,6,0,B|23:92|16:192,1,150,4|0
32,240,61338,1,4
152,296,61635,2,0,B|199:288|240:240,1,75,8|0
336,88,62081,5,4
244,184,62378,1,8
196,312,62675,1,2
136,276,62823,1,0
108,212,62972,1,8
320,128,63269,5,2
408,232,63566,1,8
440,104,63863,2,0,B|458:72|490:48,2,75,2|0|8
280,256,64457,5,2
280,256,64754,1,8
232,128,65051,2,0,B|168:152|168:208,2,75,2|0|8
440,40,65645,6,0,B|388:31|345:57|345:57|311:97,1,150,4|8
304,168,66091,2,0,B|270:209|270:209|226:234|160:224,1,150,0|0
112,200,66536,5,8
112,200,66685,1,8
88,136,66833,1,4
144,96,66982,1,0
204,64,67130,2,0,B|236:40|288:32,1,75,8|4
368,184,67576,5,0
248,320,67873,1,4
208,144,68170,1,0
88,280,68467,1,4
336,48,68912,5,8
268,60,69061,1,8
204,84,69209,2,0,B|164:100|140:140,1,75,4|0
101,181,69506,1,8
144,236,69655,2,0,B|196:254|196:254|249:221|249:221|312:236,3,150,4|0|4|0
280,228,70843,1,4
408,44,71140,6,0,B|456:61|480:92,2,75,0|8|8
340,40,71586,1,4
272,52,71734,1,0
220,96,71883,1,8
184,156,72031,5,4
128,328,72328,1,0
272,220,72625,1,4
92,216,72922,1,0
236,328,73219,1,4
460,284,73516,6,0,B|512:348,2,75,0|8|0
424,228,73962,1,8
348,112,74259,1,0
348,112,74407,1,8
280,228,74704,1,0
280,228,74853,1,8
216,108,75150,1,4
256,192,75298,12,0,81091
