osu file format v13

[General]
AudioFilename: Pentatonix.mp3
AudioLeadIn: 0
PreviewTime: 3364
Countdown: 0
SampleSet: None
StackLeniency: 0.7
Mode: 3
LetterboxInBreaks: 0
SpecialStyle: 0
WidescreenStoryboard: 1

[Editor]
DistanceSpacing: 0.9
BeatDivisor: 4
GridSize: 8
TimelineZoom: 1

[Metadata]
Title:Pentatonix
TitleUnicode:Pentatonix
Artist:Daft Punk
ArtistUnicode:Daft Punk
Creator:AILK
Version:7K Hard+
Source:
Tags:
BeatmapID:547745
BeatmapSetID:236503

[Difficulty]
HPDrainRate:7
CircleSize:7
OverallDifficulty:7
ApproachRate:5
SliderMultiplier:1.4
SliderTickRate:1

[Events]
//Background and Video events
0,0,"BG.png",0,0
Video,0,"Pentatonix.avi"
//Break Periods
//Storyboard Layer 0 (Background)
//Storyboard Layer 1 (Fail)
//Storyboard Layer 2 (Pass)
//Storyboard Layer 3 (Foreground)
//Storyboard Sound Samples
//Background Colour Transformations
3,100,163,162,255

[TimingPoints]
3816,451.127819548872,4,2,0,5,1,0

[HitObjects]
256,192,3815,128,0,4041:0:0:0:0:
109,192,4267,128,0,4492:0:0:0:0:
475,192,4718,128,0,4943:0:0:0:0:
182,192,5169,128,0,5394:0:0:0:0:
36,192,5620,128,0,5846:0:0:0:0:
256,192,6071,128,0,6297:0:0:0:0:
402,192,6522,128,0,6748:0:0:0:0:
182,192,6973,128,0,7199:0:0:0:0:
329,192,7425,128,0,7650:0:0:0:0:
475,192,7425,128,0,7650:0:0:0:0:
36,192,7876,128,0,8101:0:0:0:0:
109,192,7876,128,0,8101:0:0:0:0:
402,192,8327,128,0,8552:0:0:0:0:
329,192,8327,128,0,8552:0:0:0:0:
256,192,8778,128,0,9003:0:0:0:0:
36,192,8778,128,0,9003:0:0:0:0:
182,192,9229,128,0,9455:0:0:0:0:
475,192,9229,128,0,9455:0:0:0:0:
329,192,9680,128,0,9906:0:0:0:0:
109,192,9680,128,0,9906:0:0:0:0:
256,192,10131,128,0,10357:0:0:0:0:
475,192,10131,128,0,10357:0:0:0:0:
109,192,10582,128,0,10808:0:0:0:0:
36,192,10582,128,0,10808:0:0:0:0:
329,192,11034,128,0,11259:0:0:0:0:
475,192,11034,128,0,11259:0:0:0:0:
182,192,11034,128,0,11259:0:0:0:0:
256,192,11485,128,0,11710:0:0:0:0:
109,192,11485,128,0,11710:0:0:0:0:
402,192,11485,128,0,11710:0:0:0:0:
182,192,11936,128,0,12161:0:0:0:0:
36,192,11936,128,0,12161:0:0:0:0:
256,192,11936,128,0,12161:0:0:0:0:
329,192,12387,128,0,12612:0:0:0:0:
402,192,12387,128,0,12612:0:0:0:0:
475,192,12387,128,0,12612:0:0:0:0:
109,192,12838,128,0,13064:0:0:0:0:
36,192,12838,128,0,13064:0:0:0:0:
256,192,12838,128,0,13064:0:0:0:0:
329,192,13289,128,0,13515:0:0:0:0:
402,192,13289,128,0,13515:0:0:0:0:
182,192,13289,128,0,13515:0:0:0:0:
256,192,13740,128,0,13966:0:0:0:0:
475,192,13740,128,0,13966:0:0:0:0:
36,192,13740,128,0,13966:0:0:0:0:
182,192,14191,128,0,14417:0:0:0:0:
109,192,14191,128,0,14417:0:0:0:0:
402,192,14191,128,0,14417:0:0:0:0:
329,192,14643,128,0,14868:0:0:0:0:
256,192,14643,128,0,14868:0:0:0:0:
475,192,14643,128,0,14868:0:0:0:0:
36,192,14643,128,0,14868:0:0:0:0:
109,192,15094,128,0,15319:0:0:0:0:
182,192,15094,128,0,15319:0:0:0:0:
329,192,15094,128,0,15319:0:0:0:0:
402,192,15094,128,0,15319:0:0:0:0:
182,192,15545,128,0,15770:0:0:0:0:
36,192,15545,128,0,15770:0:0:0:0:
402,192,15545,128,0,15770:0:0:0:0:
475,192,15545,128,0,15770:0:0:0:0:
256,192,15996,128,0,16222:0:0:0:0:
182,192,15996,128,0,16222:0:0:0:0:
329,192,15996,128,0,16222:0:0:0:0:
109,192,15996,128,0,16222:0:0:0:0:
402,192,16447,128,0,16673:0:0:0:0:
475,192,16447,128,0,16673:0:0:0:0:
109,192,16447,128,0,16673:0:0:0:0:
36,192,16447,128,0,16673:0:0:0:0:
256,192,16898,128,0,17124:0:0:0:0:
329,192,16898,128,0,17124:0:0:0:0:
182,192,16898,128,0,17124:0:0:0:0:
36,192,16898,128,0,17124:0:0:0:0:
329,192,17349,128,0,17575:0:0:0:0:
402,192,17349,128,0,17575:0:0:0:0:
256,192,17349,128,0,17575:0:0:0:0:
109,192,17349,128,0,17575:0:0:0:0:
329,192,17800,128,0,18026:0:0:0:0:
475,192,17800,128,0,18026:0:0:0:0:
182,192,17800,128,0,18026:0:0:0:0:
36,192,17800,128,0,18026:0:0:0:0:
256,192,18252,128,0,18928:0:0:0:0:
109,192,18252,128,0,25244:0:0:0:0:
402,192,18252,128,0,18477:0:0:0:0:
475,192,18703,128,0,18928:0:0:0:0:
256,192,19154,128,0,19831:0:0:0:0:
329,192,19154,128,0,19379:0:0:0:0:
36,192,19605,128,0,19831:0:0:0:0:
256,192,20056,128,0,20733:0:0:0:0:
402,192,20056,128,0,20282:0:0:0:0:
182,192,20507,128,0,20733:0:0:0:0:
256,192,20958,128,0,21635:0:0:0:0:
475,192,20958,128,0,21184:0:0:0:0:
36,192,21409,128,0,21635:0:0:0:0:
256,192,21861,128,0,22537:0:0:0:0:
402,192,21861,128,0,22086:0:0:0:0:
475,192,22312,128,0,22537:0:0:0:0:
256,192,22763,128,0,23440:0:0:0:0:
329,192,22763,128,0,22988:0:0:0:0:
182,192,23214,128,0,23440:0:0:0:0:
256,192,23665,128,0,24342:0:0:0:0:
402,192,23665,128,0,23891:0:0:0:0:
36,192,24116,128,0,24342:0:0:0:0:
256,192,24567,128,0,25244:0:0:0:0:
182,192,24567,128,0,24793:0:0:0:0:
475,192,25019,128,0,25244:0:0:0:0:
329,192,25470,128,0,26146:0:0:0:0:
109,192,25470,128,0,25695:0:0:0:0:
36,192,25470,128,0,25695:0:0:0:0:
256,192,25921,128,0,26146:0:0:0:0:
475,192,25921,128,0,26146:0:0:0:0:
329,192,26372,128,0,27049:0:0:0:0:
182,192,26372,128,0,26597:0:0:0:0:
36,192,26372,128,0,26597:0:0:0:0:
402,192,26823,128,0,27049:0:0:0:0:
475,192,26823,128,0,27049:0:0:0:0:
182,192,27274,128,0,27951:0:0:0:0:
109,192,27274,128,0,27500:0:0:0:0:
256,192,27274,128,0,27500:0:0:0:0:
402,192,27725,128,0,27951:0:0:0:0:
329,192,27725,128,0,27951:0:0:0:0:
182,192,28176,128,0,28853:0:0:0:0:
109,192,28176,128,0,28402:0:0:0:0:
36,192,28176,128,0,28402:0:0:0:0:
329,192,28628,128,0,28853:0:0:0:0:
475,192,28628,128,0,28853:0:0:0:0:
402,192,29079,128,0,29755:0:0:0:0:
109,192,29079,128,0,29304:0:0:0:0:
256,192,29079,128,0,29304:0:0:0:0:
329,192,29530,128,0,29755:0:0:0:0:
182,192,29530,128,0,29755:0:0:0:0:
36,192,29530,128,0,29755:0:0:0:0:
109,192,29981,128,0,30658:0:0:0:0:
256,192,29981,128,0,30206:0:0:0:0:
475,192,29981,128,0,30206:0:0:0:0:
402,192,30432,128,0,30658:0:0:0:0:
329,192,30432,128,0,30658:0:0:0:0:
182,192,30432,128,0,30658:0:0:0:0:
36,192,30883,128,0,31109:0:0:0:0:
182,192,31109,128,0,31334:0:0:0:0:
329,192,31334,128,0,31560:0:0:0:0:
475,192,31560,128,0,31785:0:0:0:0:
256,192,31785,128,0,32688:0:0:0:0:
402,192,32237,128,0,32688:0:0:0:0:
109,192,32237,128,0,32688:0:0:0:0:
36,192,32688,128,0,33364:0:0:0:0:
329,192,32688,1,0,0:0:0:0:
475,192,32688,1,0,0:0:0:0:
475,192,33364,128,0,34041:0:0:0:0:
256,192,33364,1,0,0:0:0:0:
182,192,33364,1,0,0:0:0:0:
36,192,34041,128,0,34718:0:0:0:0:
329,192,34041,1,0,0:0:0:0:
402,192,34041,1,0,0:0:0:0:
475,192,34718,128,0,35394:0:0:0:0:
182,192,34718,1,0,0:0:0:0:
329,192,34718,1,0,0:0:0:0:
256,192,35394,1,0,0:0:0:0:
182,192,35620,128,0,36297:0:0:0:0:
329,192,35620,128,0,36297:0:0:0:0:
256,192,35620,1,0,0:0:0:0:
109,192,36297,128,0,36973:0:0:0:0:
475,192,36297,1,0,0:0:0:0:
402,192,36297,1,0,0:0:0:0:
402,192,36973,128,0,37650:0:0:0:0:
256,192,36973,1,0,0:0:0:0:
36,192,36973,1,0,0:0:0:0:
109,192,37650,128,0,38327:0:0:0:0:
182,192,37650,1,0,0:0:0:0:
475,192,37650,1,0,0:0:0:0:
402,192,38327,128,0,39003:0:0:0:0:
329,192,38327,1,0,0:0:0:0:
256,192,38327,1,0,0:0:0:0:
256,192,39003,128,0,39906:0:0:0:0:
36,192,39003,1,0,0:0:0:0:
475,192,39229,1,0,0:0:0:0:
182,192,39455,128,0,39906:0:0:0:0:
329,192,39455,128,0,39906:0:0:0:0:
36,192,39455,1,0,0:0:0:0:
475,192,39680,1,0,0:0:0:0:
109,192,39906,128,0,40582:0:0:0:0:
36,192,39906,1,0,0:0:0:0:
402,192,39906,1,0,0:0:0:0:
402,192,40582,128,0,41259:0:0:0:0:
256,192,40582,1,0,0:0:0:0:
329,192,40582,1,0,0:0:0:0:
109,192,41259,128,0,41936:0:0:0:0:
182,192,41259,1,0,0:0:0:0:
475,192,41259,1,0,0:0:0:0:
402,192,41936,128,0,42612:0:0:0:0:
329,192,41936,1,0,0:0:0:0:
36,192,41936,1,0,0:0:0:0:
256,192,42612,1,0,0:0:0:0:
329,192,42838,128,0,43515:0:0:0:0:
182,192,42838,128,0,43515:0:0:0:0:
256,192,42838,1,0,0:0:0:0:
109,192,43064,128,0,43515:0:0:0:0:
402,192,43064,128,0,43515:0:0:0:0:
36,192,43515,128,0,43966:0:0:0:0:
256,192,43515,1,0,0:0:0:0:
475,192,43966,128,0,44417:0:0:0:0:
256,192,43966,1,0,0:0:0:0:
36,192,44417,128,0,44868:0:0:0:0:
256,192,44417,1,0,0:0:0:0:
475,192,44868,128,0,45319:0:0:0:0:
256,192,44868,1,0,0:0:0:0:
256,192,45319,1,0,0:0:0:0:
256,192,47124,1,0,0:0:0:0:
475,192,47124,128,0,47462:0:0:0:0:
109,192,47349,1,0,0:0:0:0:
329,192,47462,1,0,0:0:0:0:
256,192,47575,1,0,0:0:0:0:
402,192,47800,1,0,0:0:0:0:
182,192,47800,128,0,48139:0:0:0:0:
256,192,48026,1,0,0:0:0:0:
475,192,48139,128,0,48477:0:0:0:0:
109,192,48252,1,0,0:0:0:0:
256,192,48477,1,0,0:0:0:0:
36,192,48477,128,0,48815:0:0:0:0:
402,192,48703,1,0,0:0:0:0:
182,192,48815,1,0,0:0:0:0:
256,192,48928,1,0,0:0:0:0:
109,192,49154,1,0,0:0:0:0:
329,192,49154,128,0,49492:0:0:0:0:
256,192,49379,1,0,0:0:0:0:
182,192,49492,1,0,0:0:0:0:
402,192,49605,1,0,0:0:0:0:
256,192,49831,1,0,0:0:0:0:
475,192,49831,128,0,50169:0:0:0:0:
109,192,50056,1,0,0:0:0:0:
36,192,50169,1,0,0:0:0:0:
256,192,50282,1,0,0:0:0:0:
402,192,50507,1,0,0:0:0:0:
182,192,50507,1,0,0:0:0:0:
36,192,50733,1,0,0:0:0:0:
256,192,50733,128,0,51071:0:0:0:0:
182,192,50958,1,0,0:0:0:0:
109,192,51071,1,0,0:0:0:0:
475,192,51184,1,0,0:0:0:0:
329,192,51409,1,0,0:0:0:0:
402,192,51409,128,0,51748:0:0:0:0:
36,192,51635,1,0,0:0:0:0:
256,192,51748,128,0,52086:0:0:0:0:
182,192,51861,1,0,0:0:0:0:
475,192,52086,1,0,0:0:0:0:
109,192,52086,128,0,52425:0:0:0:0:
329,192,52312,1,0,0:0:0:0:
402,192,52425,1,0,0:0:0:0:
36,192,52537,1,0,0:0:0:0:
182,192,52763,1,0,0:0:0:0:
256,192,52763,128,0,53101:0:0:0:0:
475,192,52988,1,0,0:0:0:0:
109,192,53101,1,0,0:0:0:0:
329,192,53214,1,0,0:0:0:0:
36,192,53440,1,0,0:0:0:0:
402,192,53440,128,0,53778:0:0:0:0:
182,192,53665,1,0,0:0:0:0:
109,192,53778,128,0,54116:0:0:0:0:
475,192,53891,1,0,0:0:0:0:
329,192,54116,1,0,0:0:0:0:
402,192,54116,128,0,54342:0:0:0:0:
256,192,54342,1,0,0:0:0:0:
36,192,54342,128,0,54680:0:0:0:0:
109,192,54567,1,0,0:0:0:0:
475,192,54680,1,0,0:0:0:0:
256,192,54793,1,0,0:0:0:0:
402,192,55019,1,0,0:0:0:0:
329,192,55019,128,0,55357:0:0:0:0:
256,192,55244,1,0,0:0:0:0:
182,192,55357,1,0,0:0:0:0:
109,192,55470,1,0,0:0:0:0:
256,192,55695,1,0,0:0:0:0:
182,192,55695,128,0,56034:0:0:0:0:
402,192,55921,1,0,0:0:0:0:
475,192,56034,1,0,0:0:0:0:
256,192,56146,1,0,0:0:0:0:
109,192,56372,1,0,0:0:0:0:
329,192,56372,128,0,56710:0:0:0:0:
256,192,56597,1,0,0:0:0:0:
182,192,56710,1,0,0:0:0:0:
402,192,56823,1,0,0:0:0:0:
256,192,57049,1,0,0:0:0:0:
475,192,57049,128,0,57387:0:0:0:0:
109,192,57274,1,0,0:0:0:0:
36,192,57387,128,0,57725:0:0:0:0:
256,192,57500,1,0,0:0:0:0:
402,192,57725,1,0,0:0:0:0:
475,192,57725,128,0,57951:0:0:0:0:
36,192,57951,1,0,0:0:0:0:
182,192,57951,128,0,58289:0:0:0:0:
256,192,58176,1,0,0:0:0:0:
402,192,58289,1,0,0:0:0:0:
475,192,58402,1,0,0:0:0:0:
256,192,58628,1,0,0:0:0:0:
109,192,58628,128,0,58966:0:0:0:0:
36,192,58853,1,0,0:0:0:0:
329,192,58966,1,0,0:0:0:0:
256,192,59079,1,0,0:0:0:0:
475,192,59304,1,0,0:0:0:0:
402,192,59304,128,0,59643:0:0:0:0:
256,192,59530,1,0,0:0:0:0:
182,192,59643,1,0,0:0:0:0:
36,192,59755,1,0,0:0:0:0:
256,192,59981,1,0,0:0:0:0:
329,192,59981,128,0,60319:0:0:0:0:
475,192,60206,1,0,0:0:0:0:
109,192,60319,1,0,0:0:0:0:
256,192,60432,1,0,0:0:0:0:
256,192,60658,128,0,61334:0:0:0:0:
109,192,60658,128,0,61334:0:0:0:0:
402,192,60658,128,0,61334:0:0:0:0:
329,192,61109,128,0,61334:0:0:0:0:
182,192,61109,128,0,61334:0:0:0:0:
36,192,61560,1,0,0:0:0:0:
256,192,61560,1,0,0:0:0:0:
475,192,61560,128,0,62688:0:0:0:0:
402,192,61785,1,0,0:0:0:0:
329,192,61898,1,0,0:0:0:0:
109,192,62011,1,0,0:0:0:0:
182,192,62011,1,0,0:0:0:0:
36,192,62237,1,0,0:0:0:0:
256,192,62349,1,0,0:0:0:0:
182,192,62462,1,0,0:0:0:0:
329,192,62462,1,0,0:0:0:0:
109,192,62688,128,0,62913:0:0:0:0:
402,192,62688,1,0,0:0:0:0:
256,192,62800,1,0,0:0:0:0:
402,192,62913,128,0,63139:0:0:0:0:
36,192,62913,1,0,0:0:0:0:
475,192,62913,1,0,0:0:0:0:
256,192,63139,128,0,64267:0:0:0:0:
182,192,63139,1,0,0:0:0:0:
36,192,63252,1,0,0:0:0:0:
329,192,63364,1,0,0:0:0:0:
475,192,63364,1,0,0:0:0:0:
402,192,63590,1,0,0:0:0:0:
329,192,63703,1,0,0:0:0:0:
109,192,63815,1,0,0:0:0:0:
36,192,63815,1,0,0:0:0:0:
182,192,64041,1,0,0:0:0:0:
402,192,64154,1,0,0:0:0:0:
475,192,64267,1,0,0:0:0:0:
109,192,64267,1,0,0:0:0:0:
182,192,64492,128,0,64718:0:0:0:0:
36,192,64492,1,0,0:0:0:0:
475,192,64605,1,0,0:0:0:0:
329,192,64718,128,0,64943:0:0:0:0:
402,192,64718,1,0,0:0:0:0:
256,192,64718,1,0,0:0:0:0:
36,192,64943,128,0,66071:0:0:0:0:
109,192,64943,1,0,0:0:0:0:
182,192,65056,1,0,0:0:0:0:
402,192,65169,1,0,0:0:0:0:
475,192,65169,1,0,0:0:0:0:
329,192,65394,1,0,0:0:0:0:
256,192,65507,1,0,0:0:0:0:
182,192,65620,1,0,0:0:0:0:
109,192,65620,1,0,0:0:0:0:
329,192,65846,1,0,0:0:0:0:
475,192,65958,1,0,0:0:0:0:
402,192,66071,1,0,0:0:0:0:
182,192,66071,1,0,0:0:0:0:
475,192,66297,128,0,66522:0:0:0:0:
256,192,66297,1,0,0:0:0:0:
36,192,66409,1,0,0:0:0:0:
329,192,66522,128,0,66748:0:0:0:0:
109,192,66522,1,0,0:0:0:0:
182,192,66522,1,0,0:0:0:0:
402,192,66748,128,0,68101:0:0:0:0:
475,192,66748,1,0,0:0:0:0:
36,192,66861,1,0,0:0:0:0:
256,192,66973,1,0,0:0:0:0:
109,192,66973,1,0,0:0:0:0:
329,192,67199,1,0,0:0:0:0:
475,192,67312,1,0,0:0:0:0:
182,192,67425,1,0,0:0:0:0:
109,192,67425,1,0,0:0:0:0:
36,192,67650,1,0,0:0:0:0:
182,192,67763,1,0,0:0:0:0:
256,192,67876,1,0,0:0:0:0:
475,192,67876,1,0,0:0:0:0:
329,192,68101,1,0,0:0:0:0:
36,192,68214,1,0,0:0:0:0:
182,192,68327,1,0,0:0:0:0:
475,192,68327,1,0,0:0:0:0:
256,192,68552,128,0,68778:0:0:0:0:
402,192,68552,1,0,0:0:0:0:
475,192,68665,1,0,0:0:0:0:
36,192,68778,128,0,69680:0:0:0:0:
329,192,68778,1,0,0:0:0:0:
109,192,68778,1,0,0:0:0:0:
182,192,69003,1,0,0:0:0:0:
256,192,69116,1,0,0:0:0:0:
402,192,69229,1,0,0:0:0:0:
475,192,69229,1,0,0:0:0:0:
329,192,69455,1,0,0:0:0:0:
475,192,69567,1,0,0:0:0:0:
402,192,69680,1,0,0:0:0:0:
109,192,69680,1,0,0:0:0:0:
182,192,69906,128,0,70131:0:0:0:0:
256,192,69906,1,0,0:0:0:0:
36,192,70019,1,0,0:0:0:0:
329,192,70131,128,0,70357:0:0:0:0:
402,192,70131,1,0,0:0:0:0:
475,192,70131,1,0,0:0:0:0:
109,192,70357,128,0,71485:0:0:0:0:
256,192,70357,1,0,0:0:0:0:
402,192,70470,1,0,0:0:0:0:
182,192,70582,1,0,0:0:0:0:
36,192,70582,1,0,0:0:0:0:
475,192,70808,1,0,0:0:0:0:
36,192,70921,1,0,0:0:0:0:
256,192,71034,1,0,0:0:0:0:
402,192,71034,1,0,0:0:0:0:
182,192,71259,1,0,0:0:0:0:
329,192,71372,1,0,0:0:0:0:
475,192,71485,1,0,0:0:0:0:
256,192,71485,1,0,0:0:0:0:
182,192,71710,128,0,71936:0:0:0:0:
402,192,71710,1,0,0:0:0:0:
36,192,71823,1,0,0:0:0:0:
329,192,71936,128,0,72161:0:0:0:0:
109,192,71936,1,0,0:0:0:0:
256,192,71936,1,0,0:0:0:0:
475,192,72161,128,0,73289:0:0:0:0:
402,192,72161,1,0,0:0:0:0:
256,192,72274,1,0,0:0:0:0:
182,192,72387,1,0,0:0:0:0:
36,192,72387,1,0,0:0:0:0:
109,192,72612,1,0,0:0:0:0:
182,192,72725,1,0,0:0:0:0:
256,192,72838,1,0,0:0:0:0:
402,192,72838,1,0,0:0:0:0:
329,192,73064,1,0,0:0:0:0:
256,192,73176,1,0,0:0:0:0:
109,192,73289,1,0,0:0:0:0:
36,192,73289,1,0,0:0:0:0:
402,192,73515,128,0,73740:0:0:0:0:
182,192,73515,1,0,0:0:0:0:
256,192,73628,1,0,0:0:0:0:
109,192,73740,128,0,73966:0:0:0:0:
329,192,73740,1,0,0:0:0:0:
475,192,73740,1,0,0:0:0:0:
182,192,73966,128,0,75319:0:0:0:0:
329,192,73966,128,0,75319:0:0:0:0:
475,192,73966,1,0,0:0:0:0:
256,192,74079,1,0,0:0:0:0:
109,192,74191,1,0,0:0:0:0:
36,192,74191,1,0,0:0:0:0:
256,192,74417,1,0,0:0:0:0:
36,192,74530,1,0,0:0:0:0:
402,192,74643,1,0,0:0:0:0:
475,192,74643,1,0,0:0:0:0:
109,192,74868,1,0,0:0:0:0:
402,192,74981,1,0,0:0:0:0:
36,192,75094,1,0,0:0:0:0:
475,192,75094,1,0,0:0:0:0:
256,192,75545,128,0,75996:0:0:0:0:
182,192,76222,128,0,77575:0:0:0:0:
329,192,76334,128,0,77575:0:0:0:0:
256,192,76560,128,0,77575:0:0:0:0:
109,192,76785,1,0,0:0:0:0:
402,192,76898,1,0,0:0:0:0:
109,192,77011,1,0,0:0:0:0:
402,192,77124,1,0,0:0:0:0:
36,192,77349,128,0,77575:0:0:0:0:
475,192,77349,128,0,77575:0:0:0:0:
109,192,78026,128,0,79379:0:0:0:0:
402,192,78139,128,0,79379:0:0:0:0:
329,192,78364,128,0,79379:0:0:0:0:
256,192,78590,1,0,0:0:0:0:
36,192,78703,1,0,0:0:0:0:
256,192,78815,1,0,0:0:0:0:
36,192,78928,1,0,0:0:0:0:
475,192,79154,128,0,79379:0:0:0:0:
182,192,79154,128,0,79379:0:0:0:0:
256,192,79831,128,0,81184:0:0:0:0:
36,192,79943,128,0,81184:0:0:0:0:
402,192,80169,128,0,81184:0:0:0:0:
182,192,80394,1,0,0:0:0:0:
475,192,80507,1,0,0:0:0:0:
182,192,80620,1,0,0:0:0:0:
475,192,80733,1,0,0:0:0:0:
329,192,80958,128,0,81184:0:0:0:0:
109,192,80958,128,0,81184:0:0:0:0:
182,192,81635,128,0,82425:0:0:0:0:
475,192,81748,128,0,82425:0:0:0:0:
36,192,81973,128,0,82425:0:0:0:0:
256,192,82199,128,0,82425:0:0:0:0:
402,192,82425,128,0,82763:0:0:0:0:
109,192,82425,128,0,82763:0:0:0:0:
329,192,82537,128,0,82763:0:0:0:0:
182,192,82537,128,0,82763:0:0:0:0:
475,192,82763,128,0,83214:0:0:0:0:
36,192,82763,128,0,83214:0:0:0:0:
329,192,82988,128,0,83214:0:0:0:0:
182,192,82988,128,0,83214:0:0:0:0:
109,192,83440,128,0,84793:0:0:0:0:
402,192,83552,128,0,84793:0:0:0:0:
256,192,83778,128,0,84793:0:0:0:0:
36,192,84003,1,0,0:0:0:0:
475,192,84116,1,0,0:0:0:0:
36,192,84229,1,0,0:0:0:0:
475,192,84342,1,0,0:0:0:0:
182,192,84567,128,0,84793:0:0:0:0:
329,192,84567,128,0,84793:0:0:0:0:
36,192,85244,128,0,86597:0:0:0:0:
402,192,85357,128,0,86597:0:0:0:0:
329,192,85582,128,0,86597:0:0:0:0:
109,192,85808,1,0,0:0:0:0:
182,192,85921,1,0,0:0:0:0:
109,192,86034,1,0,0:0:0:0:
182,192,86146,1,0,0:0:0:0:
256,192,86372,128,0,86597:0:0:0:0:
475,192,86372,128,0,86597:0:0:0:0:
182,192,87049,128,0,88402:0:0:0:0:
329,192,87161,128,0,88402:0:0:0:0:
36,192,87387,128,0,88402:0:0:0:0:
256,192,87612,1,0,0:0:0:0:
475,192,87725,1,0,0:0:0:0:
256,192,87838,1,0,0:0:0:0:
475,192,87951,1,0,0:0:0:0:
402,192,88176,128,0,88402:0:0:0:0:
109,192,88176,128,0,88402:0:0:0:0:
256,192,88402,128,0,88628:0:0:0:0:
36,192,88853,1,0,0:0:0:0:
182,192,88853,1,0,0:0:0:0:
109,192,88966,1,0,0:0:0:0:
402,192,88966,1,0,0:0:0:0:
329,192,89191,1,0,0:0:0:0:
475,192,89191,1,0,0:0:0:0:
256,192,89417,1,0,0:0:0:0:
36,192,89417,1,0,0:0:0:0:
182,192,89643,1,0,0:0:0:0:
329,192,89643,1,0,0:0:0:0:
475,192,89755,1,0,0:0:0:0:
36,192,89755,1,0,0:0:0:0:
402,192,89981,1,0,0:0:0:0:
109,192,89981,1,0,0:0:0:0:
256,192,90206,128,0,90432:0:0:0:0:
329,192,90206,1,0,0:0:0:0:
182,192,90206,1,0,0:0:0:0:
475,192,90658,1,0,0:0:0:0:
256,192,90658,1,0,0:0:0:0:
329,192,90770,1,0,0:0:0:0:
109,192,90770,1,0,0:0:0:0:
182,192,90996,1,0,0:0:0:0:
36,192,90996,1,0,0:0:0:0:
256,192,91222,1,0,0:0:0:0:
402,192,91222,1,0,0:0:0:0:
182,192,91447,1,0,0:0:0:0:
109,192,91447,1,0,0:0:0:0:
36,192,91560,1,0,0:0:0:0:
329,192,91560,1,0,0:0:0:0:
402,192,91785,1,0,0:0:0:0:
182,192,91785,1,0,0:0:0:0:
256,192,92011,128,0,92237:0:0:0:0:
475,192,92011,1,0,0:0:0:0:
36,192,92011,1,0,0:0:0:0:
182,192,92462,1,0,0:0:0:0:
109,192,92462,1,0,0:0:0:0:
329,192,92575,1,0,0:0:0:0:
475,192,92575,1,0,0:0:0:0:
402,192,92800,1,0,0:0:0:0:
36,192,92800,1,0,0:0:0:0:
182,192,93026,1,0,0:0:0:0:
475,192,93026,1,0,0:0:0:0:
329,192,93252,1,0,0:0:0:0:
109,192,93252,1,0,0:0:0:0:
475,192,93477,1,0,0:0:0:0:
36,192,93477,1,0,0:0:0:0:
256,192,93703,1,0,0:0:0:0:
402,192,93703,1,0,0:0:0:0:
182,192,93815,1,0,0:0:0:0:
36,192,93815,1,0,0:0:0:0:
329,192,94041,1,0,0:0:0:0:
109,192,94041,1,0,0:0:0:0:
402,192,94154,1,0,0:0:0:0:
256,192,94154,1,0,0:0:0:0:
475,192,94379,1,0,0:0:0:0:
329,192,94379,1,0,0:0:0:0:
182,192,94605,1,0,0:0:0:0:
36,192,94605,1,0,0:0:0:0:
329,192,94718,1,0,0:0:0:0:
402,192,94718,1,0,0:0:0:0:
256,192,94943,1,0,0:0:0:0:
475,192,94943,1,0,0:0:0:0:
109,192,95169,1,0,0:0:0:0:
36,192,95169,1,0,0:0:0:0:
256,192,95394,128,0,95846:0:0:0:0:
329,192,95394,1,0,0:0:0:0:
182,192,95394,1,0,0:0:0:0:
402,192,95620,1,0,0:0:0:0:
109,192,95620,1,0,0:0:0:0:
475,192,95846,128,0,99455:0:0:0:0:
36,192,95846,1,0,0:0:0:0:
182,192,95846,128,0,96071:0:0:0:0:
329,192,96071,1,0,0:0:0:0:
256,192,96071,128,0,96297:0:0:0:0:
109,192,96297,1,0,0:0:0:0:
329,192,96522,1,0,0:0:0:0:
182,192,96522,128,0,96748:0:0:0:0:
36,192,96748,1,0,0:0:0:0:
329,192,96973,1,0,0:0:0:0:
402,192,96973,128,0,97199:0:0:0:0:
182,192,97199,1,0,0:0:0:0:
329,192,97425,1,0,0:0:0:0:
256,192,97425,128,0,98327:0:0:0:0:
36,192,97650,1,0,0:0:0:0:
329,192,97876,1,0,0:0:0:0:
109,192,98101,1,0,0:0:0:0:
329,192,98327,1,0,0:0:0:0:
36,192,98552,1,0,0:0:0:0:
109,192,98552,128,0,98778:0:0:0:0:
329,192,98778,1,0,0:0:0:0:
402,192,98778,128,0,99003:0:0:0:0:
182,192,99003,1,0,0:0:0:0:
256,192,99003,128,0,99455:0:0:0:0:
329,192,99229,1,0,0:0:0:0:
36,192,99455,128,0,99680:0:0:0:0:
109,192,99455,1,0,0:0:0:0:
182,192,99680,128,0,99906:0:0:0:0:
329,192,99680,1,0,0:0:0:0:
475,192,99906,1,0,0:0:0:0:
402,192,100131,128,0,100357:0:0:0:0:
256,192,100131,1,0,0:0:0:0:
36,192,100357,1,0,0:0:0:0:
109,192,100582,128,0,100808:0:0:0:0:
182,192,100582,1,0,0:0:0:0:
402,192,100808,1,0,0:0:0:0:
256,192,101034,128,0,103064:0:0:0:0:
36,192,101034,1,0,0:0:0:0:
329,192,101259,1,0,0:0:0:0:
182,192,101485,1,0,0:0:0:0:
329,192,101710,1,0,0:0:0:0:
36,192,102049,1,0,0:0:0:0:
402,192,102161,128,0,103064:0:0:0:0:
109,192,102161,128,0,103064:0:0:0:0:
475,192,102161,1,0,0:0:0:0:
36,192,102387,1,0,0:0:0:0:
475,192,102612,1,0,0:0:0:0:
36,192,102725,1,0,0:0:0:0:
475,192,102838,1,0,0:0:0:0:
182,192,103064,1,0,0:0:0:0:
36,192,103064,1,0,0:0:0:0:
256,192,103289,1,0,0:0:0:0:
329,192,103515,1,0,0:0:0:0:
475,192,103515,1,0,0:0:0:0:
182,192,103740,1,0,0:0:0:0:
256,192,103966,1,0,0:0:0:0:
36,192,103966,1,0,0:0:0:0:
475,192,104191,1,0,0:0:0:0:
402,192,104417,1,0,0:0:0:0:
182,192,104417,1,0,0:0:0:0:
256,192,104643,1,0,0:0:0:0:
109,192,104868,1,0,0:0:0:0:
329,192,104868,1,0,0:0:0:0:
475,192,105094,1,0,0:0:0:0:
402,192,105319,1,0,0:0:0:0:
182,192,105319,1,0,0:0:0:0:
256,192,105545,1,0,0:0:0:0:
36,192,105770,1,0,0:0:0:0:
329,192,105770,1,0,0:0:0:0:
182,192,105996,1,0,0:0:0:0:
256,192,106222,1,0,0:0:0:0:
475,192,106222,1,0,0:0:0:0:
402,192,106447,1,0,0:0:0:0:
182,192,106673,1,0,0:0:0:0:
36,192,106673,1,0,0:0:0:0:
329,192,106898,1,0,0:0:0:0:
475,192,107124,1,0,0:0:0:0:
256,192,107124,1,0,0:0:0:0:
182,192,107349,1,0,0:0:0:0:
256,192,107575,1,0,0:0:0:0:
36,192,107575,1,0,0:0:0:0:
402,192,107800,1,0,0:0:0:0:
329,192,108026,1,0,0:0:0:0:
109,192,108026,1,0,0:0:0:0:
256,192,108252,1,0,0:0:0:0:
182,192,108477,1,0,0:0:0:0:
36,192,108477,1,0,0:0:0:0:
329,192,108703,1,0,0:0:0:0:
109,192,108928,1,0,0:0:0:0:
402,192,108928,1,0,0:0:0:0:
256,192,109154,1,0,0:0:0:0:
475,192,109379,1,0,0:0:0:0:
182,192,109379,1,0,0:0:0:0:
329,192,109605,1,0,0:0:0:0:
36,192,109831,1,0,0:0:0:0:
256,192,109831,1,0,0:0:0:0:
402,192,110056,1,0,0:0:0:0:
182,192,110282,128,0,110507:0:0:0:0:
109,192,110282,1,0,0:0:0:0:
475,192,110282,1,0,0:0:0:0:
329,192,110507,128,0,110733:0:0:0:0:
256,192,110507,1,0,0:0:0:0:
182,192,110733,1,0,0:0:0:0:
36,192,110733,1,0,0:0:0:0:
256,192,110958,128,0,111184:0:0:0:0:
329,192,110958,1,0,0:0:0:0:
402,192,111184,1,0,0:0:0:0:
109,192,111184,1,0,0:0:0:0:
475,192,111409,128,0,111635:0:0:0:0:
256,192,111409,1,0,0:0:0:0:
329,192,111635,1,0,0:0:0:0:
36,192,111635,1,0,0:0:0:0:
182,192,111861,128,0,113440:0:0:0:0:
109,192,111861,1,0,0:0:0:0:
256,192,112086,1,0,0:0:0:0:
475,192,112086,1,0,0:0:0:0:
329,192,112312,1,0,0:0:0:0:
402,192,112537,1,0,0:0:0:0:
36,192,112537,1,0,0:0:0:0:
256,192,112763,1,0,0:0:0:0:
475,192,112988,1,0,0:0:0:0:
109,192,112988,1,0,0:0:0:0:
329,192,113214,1,0,0:0:0:0:
256,192,113440,1,0,0:0:0:0:
36,192,113440,1,0,0:0:0:0:
402,192,113665,1,0,0:0:0:0:
329,192,113891,128,0,114116:0:0:0:0:
109,192,113891,1,0,0:0:0:0:
256,192,113891,1,0,0:0:0:0:
475,192,114116,128,0,114342:0:0:0:0:
182,192,114116,1,0,0:0:0:0:
256,192,114342,1,0,0:0:0:0:
402,192,114342,1,0,0:0:0:0:
109,192,114567,128,0,114793:0:0:0:0:
329,192,114567,1,0,0:0:0:0:
36,192,114793,1,0,0:0:0:0:
475,192,114793,1,0,0:0:0:0:
402,192,115019,128,0,115244:0:0:0:0:
182,192,115019,1,0,0:0:0:0:
329,192,115244,1,0,0:0:0:0:
109,192,115244,1,0,0:0:0:0:
256,192,115470,128,0,117500:0:0:0:0:
182,192,115470,1,0,0:0:0:0:
329,192,115695,1,0,0:0:0:0:
475,192,115695,1,0,0:0:0:0:
109,192,115921,1,0,0:0:0:0:
36,192,116146,1,0,0:0:0:0:
402,192,116146,1,0,0:0:0:0:
329,192,116372,1,0,0:0:0:0:
475,192,116597,1,0,0:0:0:0:
182,192,116597,1,0,0:0:0:0:
329,192,116823,1,0,0:0:0:0:
36,192,117049,128,0,117500:0:0:0:0:
475,192,117049,128,0,117500:0:0:0:0:
402,192,117049,1,0,0:0:0:0:
109,192,117049,1,0,0:0:0:0:
182,192,117274,1,0,0:0:0:0:
402,192,117500,128,0,120883:0:0:0:0:
109,192,117500,128,0,120883:0:0:0:0:
329,192,117500,128,0,118176:0:0:0:0:
36,192,117951,1,0,0:0:0:0:
182,192,118176,128,0,118402:0:0:0:0:
256,192,118402,1,0,0:0:0:0:
475,192,118628,128,0,118853:0:0:0:0:
329,192,118853,1,0,0:0:0:0:
256,192,119079,128,0,119530:0:0:0:0:
182,192,119304,1,0,0:0:0:0:
36,192,119530,128,0,119755:0:0:0:0:
475,192,119755,128,0,119981:0:0:0:0:
256,192,119755,1,0,0:0:0:0:
329,192,119981,128,0,120432:0:0:0:0:
36,192,120206,1,0,0:0:0:0:
182,192,120432,128,0,120658:0:0:0:0:
36,192,120658,128,0,120883:0:0:0:0:
475,192,120658,1,0,0:0:0:0:
256,192,120883,128,0,121334:0:0:0:0:
109,192,121109,128,0,124492:0:0:0:0:
402,192,121109,128,0,124492:0:0:0:0:
329,192,121109,1,0,0:0:0:0:
475,192,121334,128,0,121560:0:0:0:0:
36,192,121560,1,0,0:0:0:0:
182,192,121785,128,0,122011:0:0:0:0:
475,192,122011,1,0,0:0:0:0:
329,192,122237,128,0,122462:0:0:0:0:
256,192,122462,1,0,0:0:0:0:
36,192,122688,128,0,123139:0:0:0:0:
329,192,122913,1,0,0:0:0:0:
256,192,123139,128,0,123364:0:0:0:0:
182,192,123364,128,0,123590:0:0:0:0:
36,192,123364,1,0,0:0:0:0:
475,192,123590,128,0,123815:0:0:0:0:
329,192,123815,128,0,124041:0:0:0:0:
256,192,123815,1,0,0:0:0:0:
182,192,124041,128,0,124492:0:0:0:0:
475,192,124267,1,0,0:0:0:0:
256,192,124492,128,0,124943:0:0:0:0:
109,192,124718,128,0,128101:0:0:0:0:
402,192,124718,128,0,128101:0:0:0:0:
36,192,124718,1,0,0:0:0:0:
329,192,124943,128,0,125169:0:0:0:0:
182,192,125169,1,0,0:0:0:0:
36,192,125394,128,0,125620:0:0:0:0:
256,192,125620,1,0,0:0:0:0:
475,192,125846,128,0,126071:0:0:0:0:
36,192,126071,1,0,0:0:0:0:
182,192,126297,128,0,126748:0:0:0:0:
256,192,126522,1,0,0:0:0:0:
329,192,126748,128,0,126973:0:0:0:0:
475,192,126973,128,0,127199:0:0:0:0:
36,192,126973,1,0,0:0:0:0:
182,192,127199,128,0,127425:0:0:0:0:
256,192,127425,1,0,0:0:0:0:
475,192,127425,128,0,127650:0:0:0:0:
36,192,127876,128,0,128101:0:0:0:0:
329,192,127876,1,0,0:0:0:0:
109,192,128327,128,0,130808:0:0:0:0:
402,192,128327,128,0,130808:0:0:0:0:
256,192,128327,1,0,0:0:0:0:
182,192,128327,128,0,128552:0:0:0:0:
329,192,128552,128,0,128778:0:0:0:0:
256,192,128778,1,0,0:0:0:0:
475,192,128778,128,0,129003:0:0:0:0:
36,192,129003,128,0,129229:0:0:0:0:
256,192,129229,1,0,0:0:0:0:
475,192,129455,128,0,129680:0:0:0:0:
256,192,129680,1,0,0:0:0:0:
36,192,129680,128,0,129906:0:0:0:0:
475,192,129906,128,0,130808:0:0:0:0:
329,192,130131,1,0,0:0:0:0:
182,192,130357,1,0,0:0:0:0:
329,192,130582,1,0,0:0:0:0:
182,192,130808,1,0,0:0:0:0:
256,192,131034,128,0,131936:0:0:0:0:
36,192,131259,1,0,0:0:0:0:
475,192,131259,1,0,0:0:0:0:
402,192,131485,128,0,131936:0:0:0:0:
109,192,131485,128,0,131936:0:0:0:0:
329,192,131710,1,0,0:0:0:0:
182,192,131710,1,0,0:0:0:0:
475,192,131936,1,0,0:0:0:0:
36,192,131936,1,0,0:0:0:0:
182,192,131936,1,0,0:0:0:0:
329,192,132161,1,0,0:0:0:0:
475,192,132161,1,0,0:0:0:0:
256,192,132274,1,0,0:0:0:0:
182,192,132387,1,0,0:0:0:0:
109,192,132387,1,0,0:0:0:0:
402,192,132612,1,0,0:0:0:0:
36,192,132612,1,0,0:0:0:0:
182,192,132725,1,0,0:0:0:0:
475,192,132838,1,0,0:0:0:0:
256,192,132838,1,0,0:0:0:0:
109,192,132838,1,0,0:0:0:0:
329,192,133064,1,0,0:0:0:0:
36,192,133064,1,0,0:0:0:0:
402,192,133176,1,0,0:0:0:0:
182,192,133289,1,0,0:0:0:0:
329,192,133289,1,0,0:0:0:0:
475,192,133515,1,0,0:0:0:0:
256,192,133515,1,0,0:0:0:0:
36,192,133628,1,0,0:0:0:0:
402,192,133740,1,0,0:0:0:0:
109,192,133740,1,0,0:0:0:0:
329,192,133853,1,0,0:0:0:0:
36,192,133966,1,0,0:0:0:0:
256,192,134079,1,0,0:0:0:0:
109,192,134191,1,0,0:0:0:0:
402,192,134191,1,0,0:0:0:0:
182,192,134191,1,0,0:0:0:0:
256,192,134417,1,0,0:0:0:0:
475,192,134530,1,0,0:0:0:0:
329,192,134643,1,0,0:0:0:0:
36,192,134643,1,0,0:0:0:0:
329,192,134868,128,0,135545:0:0:0:0:
109,192,134868,1,0,0:0:0:0:
182,192,134981,1,0,0:0:0:0:
256,192,135094,1,0,0:0:0:0:
475,192,135094,1,0,0:0:0:0:
402,192,135319,1,0,0:0:0:0:
182,192,135432,1,0,0:0:0:0:
475,192,135545,1,0,0:0:0:0:
109,192,135545,1,0,0:0:0:0:
36,192,135545,1,0,0:0:0:0:
256,192,135770,1,0,0:0:0:0:
402,192,135770,1,0,0:0:0:0:
36,192,135883,1,0,0:0:0:0:
182,192,135996,1,0,0:0:0:0:
329,192,135996,1,0,0:0:0:0:
109,192,136222,1,0,0:0:0:0:
475,192,136222,1,0,0:0:0:0:
256,192,136334,1,0,0:0:0:0:
109,192,136447,1,0,0:0:0:0:
36,192,136447,1,0,0:0:0:0:
329,192,136447,1,0,0:0:0:0:
402,192,136673,1,0,0:0:0:0:
182,192,136673,1,0,0:0:0:0:
36,192,136785,1,0,0:0:0:0:
329,192,136898,1,0,0:0:0:0:
402,192,136898,1,0,0:0:0:0:
475,192,137124,1,0,0:0:0:0:
182,192,137124,1,0,0:0:0:0:
256,192,137237,1,0,0:0:0:0:
109,192,137349,1,0,0:0:0:0:
36,192,137349,1,0,0:0:0:0:
329,192,137462,1,0,0:0:0:0:
109,192,137575,1,0,0:0:0:0:
256,192,137688,1,0,0:0:0:0:
475,192,137800,1,0,0:0:0:0:
329,192,137800,1,0,0:0:0:0:
36,192,137800,1,0,0:0:0:0:
182,192,138026,1,0,0:0:0:0:
402,192,138139,1,0,0:0:0:0:
256,192,138252,1,0,0:0:0:0:
36,192,138252,1,0,0:0:0:0:
329,192,138477,1,0,0:0:0:0:
109,192,138477,128,0,139154:0:0:0:0:
475,192,138477,1,0,0:0:0:0:
256,192,138703,1,0,0:0:0:0:
182,192,138703,1,0,0:0:0:0:
256,192,138928,1,0,0:0:0:0:
329,192,138928,1,0,0:0:0:0:
182,192,139154,1,0,0:0:0:0:
36,192,139154,1,0,0:0:0:0:
402,192,139154,1,0,0:0:0:0:
329,192,139379,1,0,0:0:0:0:
109,192,139379,1,0,0:0:0:0:
256,192,139492,1,0,0:0:0:0:
402,192,139605,1,0,0:0:0:0:
475,192,139605,1,0,0:0:0:0:
329,192,139831,1,0,0:0:0:0:
256,192,139831,1,0,0:0:0:0:
109,192,139943,1,0,0:0:0:0:
182,192,140056,1,0,0:0:0:0:
402,192,140056,1,0,0:0:0:0:
329,192,140282,1,0,0:0:0:0:
36,192,140282,1,0,0:0:0:0:
182,192,140394,1,0,0:0:0:0:
402,192,140507,1,0,0:0:0:0:
256,192,140507,1,0,0:0:0:0:
182,192,140733,1,0,0:0:0:0:
36,192,140733,1,0,0:0:0:0:
329,192,140846,1,0,0:0:0:0:
256,192,140958,1,0,0:0:0:0:
109,192,140958,1,0,0:0:0:0:
475,192,141071,1,0,0:0:0:0:
329,192,141184,1,0,0:0:0:0:
402,192,141297,1,0,0:0:0:0:
475,192,141409,1,0,0:0:0:0:
182,192,141409,1,0,0:0:0:0:
36,192,141409,1,0,0:0:0:0:
256,192,141635,1,0,0:0:0:0:
109,192,141748,1,0,0:0:0:0:
402,192,141861,1,0,0:0:0:0:
475,192,141861,1,0,0:0:0:0:
329,192,142086,128,0,142763:0:0:0:0:
36,192,142086,1,0,0:0:0:0:
182,192,142199,1,0,0:0:0:0:
256,192,142312,1,0,0:0:0:0:
402,192,142312,1,0,0:0:0:0:
475,192,142537,1,0,0:0:0:0:
109,192,142650,1,0,0:0:0:0:
36,192,142763,128,0,142988:0:0:0:0:
182,192,142763,128,0,142988:0:0:0:0:
256,192,142763,128,0,142988:0:0:0:0:
329,192,143214,128,0,143440:0:0:0:0:
475,192,143214,128,0,143440:0:0:0:0:
109,192,143214,128,0,143440:0:0:0:0:
256,192,143665,128,0,143891:0:0:0:0:
402,192,143665,128,0,143891:0:0:0:0:
36,192,143665,128,0,143891:0:0:0:0:
182,192,144116,128,0,144342:0:0:0:0:
329,192,144116,128,0,144342:0:0:0:0:
475,192,144116,128,0,144342:0:0:0:0:
475,192,144567,128,0,146372:0:0:0:0:
329,192,144567,128,0,146372:0:0:0:0:
256,192,144567,128,0,146372:0:0:0:0:
182,192,144567,128,0,146372:0:0:0:0:
36,192,144567,128,0,146372:0:0:0:0:
402,192,146372,1,0,0:0:0:0:
109,192,146372,128,0,146597:0:0:0:0:
182,192,146597,128,0,146823:0:0:0:0:
256,192,146823,128,0,147049:0:0:0:0:
475,192,147049,128,0,147274:0:0:0:0:
329,192,147274,128,0,147500:0:0:0:0:
182,192,147500,128,0,147725:0:0:0:0:
109,192,147725,128,0,147951:0:0:0:0:
402,192,147951,128,0,148176:0:0:0:0:
36,192,148176,128,0,148402:0:0:0:0:
109,192,148402,128,0,148628:0:0:0:0:
329,192,148628,128,0,148853:0:0:0:0:
256,192,148853,128,0,149079:0:0:0:0:
402,192,149079,128,0,149304:0:0:0:0:
329,192,149304,128,0,149530:0:0:0:0:
182,192,149530,128,0,149755:0:0:0:0:
402,192,149755,128,0,149981:0:0:0:0:
36,192,149981,128,0,150206:0:0:0:0:
109,192,150206,128,0,150432:0:0:0:0:
402,192,150432,128,0,150658:0:0:0:0:
256,192,150658,128,0,150883:0:0:0:0:
475,192,150883,128,0,151109:0:0:0:0:
402,192,151109,128,0,151334:0:0:0:0:
329,192,151334,128,0,151560:0:0:0:0:
256,192,151560,128,0,151785:0:0:0:0:
182,192,151785,128,0,152011:0:0:0:0:
36,192,152011,128,0,152237:0:0:0:0:
256,192,152237,128,0,152462:0:0:0:0:
402,192,152462,128,0,152688:0:0:0:0:
182,192,152688,128,0,152913:0:0:0:0:
329,192,152913,128,0,153139:0:0:0:0:
36,192,153139,128,0,153364:0:0:0:0:
109,192,153364,128,0,153590:0:0:0:0:
256,192,153590,128,0,153815:0:0:0:0:
182,192,153590,128,0,153815:0:0:0:0:
402,192,153815,128,0,154041:0:0:0:0:
256,192,154041,128,0,154267:0:0:0:0:
475,192,154041,128,0,154267:0:0:0:0:
329,192,154267,128,0,154492:0:0:0:0:
256,192,154492,128,0,154718:0:0:0:0:
402,192,154492,128,0,154718:0:0:0:0:
182,192,154718,128,0,154943:0:0:0:0:
329,192,154943,128,0,155169:0:0:0:0:
109,192,155169,128,0,155394:0:0:0:0:
256,192,155394,128,0,155620:0:0:0:0:
182,192,155394,128,0,155620:0:0:0:0:
402,192,155620,128,0,155846:0:0:0:0:
256,192,155846,128,0,156071:0:0:0:0:
475,192,155846,128,0,156071:0:0:0:0:
329,192,156071,128,0,156297:0:0:0:0:
256,192,156297,128,0,156522:0:0:0:0:
402,192,156297,128,0,156522:0:0:0:0:
182,192,156522,128,0,156748:0:0:0:0:
329,192,156748,128,0,156973:0:0:0:0:
109,192,156973,128,0,157199:0:0:0:0:
256,192,157199,128,0,157425:0:0:0:0:
182,192,157199,128,0,157425:0:0:0:0:
329,192,157425,128,0,157650:0:0:0:0:
256,192,157650,128,0,157876:0:0:0:0:
475,192,157650,128,0,157876:0:0:0:0:
36,192,157876,128,0,159003:0:0:0:0:
402,192,157876,128,0,158101:0:0:0:0:
256,192,158101,128,0,158327:0:0:0:0:
475,192,158101,128,0,158327:0:0:0:0:
402,192,158327,128,0,158552:0:0:0:0:
256,192,158552,128,0,158778:0:0:0:0:
329,192,158552,128,0,158778:0:0:0:0:
182,192,158778,128,0,159003:0:0:0:0:
256,192,159003,128,0,159229:0:0:0:0:
109,192,159003,128,0,159229:0:0:0:0:
182,192,159229,128,0,159455:0:0:0:0:
329,192,159455,128,0,159680:0:0:0:0:
475,192,159680,128,0,159906:0:0:0:0:
109,192,159906,128,0,160131:0:0:0:0:
182,192,160131,128,0,160357:0:0:0:0:
256,192,160244,128,0,160582:0:0:0:0:
36,192,160357,128,0,160582:0:0:0:0:
109,192,160582,128,0,160808:0:0:0:0:
182,192,160808,1,0,0:0:0:0:
402,192,160808,1,0,0:0:0:0:
329,192,161034,1,0,0:0:0:0:
256,192,161259,1,0,0:0:0:0:
36,192,161259,1,0,0:0:0:0:
402,192,161485,1,0,0:0:0:0:
109,192,161710,1,0,0:0:0:0:
329,192,161710,1,0,0:0:0:0:
182,192,161936,1,0,0:0:0:0:
256,192,162161,1,0,0:0:0:0:
475,192,162161,1,0,0:0:0:0:
36,192,162387,1,0,0:0:0:0:
182,192,162612,1,0,0:0:0:0:
329,192,162612,1,0,0:0:0:0:
256,192,162838,1,0,0:0:0:0:
402,192,163064,1,0,0:0:0:0:
475,192,163064,1,0,0:0:0:0:
182,192,163289,1,0,0:0:0:0:
256,192,163515,1,0,0:0:0:0:
36,192,163515,1,0,0:0:0:0:
402,192,163740,1,0,0:0:0:0:
182,192,163966,1,0,0:0:0:0:
109,192,163966,1,0,0:0:0:0:
329,192,164191,1,0,0:0:0:0:
256,192,164417,1,0,0:0:0:0:
36,192,164417,1,0,0:0:0:0:
182,192,164643,1,0,0:0:0:0:
475,192,164868,1,0,0:0:0:0:
329,192,164868,1,0,0:0:0:0:
109,192,165094,1,0,0:0:0:0:
256,192,165319,1,0,0:0:0:0:
475,192,165319,1,0,0:0:0:0:
182,192,165545,1,0,0:0:0:0:
109,192,165770,1,0,0:0:0:0:
36,192,165770,1,0,0:0:0:0:
329,192,165996,1,0,0:0:0:0:
256,192,166222,1,0,0:0:0:0:
109,192,166222,1,0,0:0:0:0:
402,192,166447,1,0,0:0:0:0:
182,192,166673,1,0,0:0:0:0:
36,192,166673,1,0,0:0:0:0:
475,192,166898,1,0,0:0:0:0:
329,192,167124,1,0,0:0:0:0:
256,192,167124,1,0,0:0:0:0:
109,192,167349,1,0,0:0:0:0:
182,192,167575,1,0,0:0:0:0:
402,192,167575,1,0,0:0:0:0:
256,192,167800,1,0,0:0:0:0:
329,192,168026,1,0,0:0:0:0:
475,192,168026,1,0,0:0:0:0:
36,192,168026,1,0,0:0:0:0:
182,192,168026,1,0,0:0:0:0:
402,192,168252,1,0,0:0:0:0:
256,192,168252,1,0,0:0:0:0:
182,192,168364,1,0,0:0:0:0:
36,192,168364,1,0,0:0:0:0:
182,192,168703,1,0,0:0:0:0:
36,192,168703,1,0,0:0:0:0:
329,192,168928,1,0,0:0:0:0:
475,192,168928,1,0,0:0:0:0:
109,192,168928,1,0,0:0:0:0:
36,192,168928,1,0,0:0:0:0:
402,192,169154,1,0,0:0:0:0:
256,192,169154,1,0,0:0:0:0:
36,192,169267,1,0,0:0:0:0:
109,192,169267,1,0,0:0:0:0:
329,192,169379,1,0,0:0:0:0:
182,192,169379,1,0,0:0:0:0:
256,192,169605,1,0,0:0:0:0:
402,192,169605,1,0,0:0:0:0:
109,192,169605,1,0,0:0:0:0:
36,192,169605,1,0,0:0:0:0:
329,192,169831,1,0,0:0:0:0:
475,192,169831,1,0,0:0:0:0:
182,192,169831,1,0,0:0:0:0:
36,192,169831,1,0,0:0:0:0:
109,192,170056,1,0,0:0:0:0:
256,192,170056,1,0,0:0:0:0:
329,192,170169,1,0,0:0:0:0:
475,192,170169,1,0,0:0:0:0:
182,192,170282,1,0,0:0:0:0:
475,192,170507,1,0,0:0:0:0:
329,192,170507,1,0,0:0:0:0:
109,192,170507,1,0,0:0:0:0:
182,192,170733,1,0,0:0:0:0:
329,192,170733,1,0,0:0:0:0:
402,192,170733,1,0,0:0:0:0:
475,192,170733,1,0,0:0:0:0:
109,192,170958,1,0,0:0:0:0:
256,192,170958,1,0,0:0:0:0:
475,192,171071,1,0,0:0:0:0:
402,192,171071,1,0,0:0:0:0:
36,192,171184,1,0,0:0:0:0:
182,192,171184,1,0,0:0:0:0:
109,192,171409,1,0,0:0:0:0:
256,192,171409,1,0,0:0:0:0:
402,192,171409,1,0,0:0:0:0:
475,192,171409,1,0,0:0:0:0:
329,192,171635,1,0,0:0:0:0:
36,192,171635,1,0,0:0:0:0:
475,192,171635,1,0,0:0:0:0:
256,192,171748,1,0,0:0:0:0:
182,192,171861,1,0,0:0:0:0:
256,192,171973,1,0,0:0:0:0:
36,192,171973,1,0,0:0:0:0:
475,192,171973,1,0,0:0:0:0:
329,192,172086,1,0,0:0:0:0:
256,192,172199,1,0,0:0:0:0:
182,192,172312,1,0,0:0:0:0:
36,192,172312,1,0,0:0:0:0:
475,192,172312,1,0,0:0:0:0:
256,192,172425,1,0,0:0:0:0:
329,192,172537,1,0,0:0:0:0:
402,192,172537,1,0,0:0:0:0:
109,192,172537,1,0,0:0:0:0:
256,192,172650,1,0,0:0:0:0:
182,192,172763,1,0,0:0:0:0:
256,192,172876,1,0,0:0:0:0:
402,192,172876,1,0,0:0:0:0:
109,192,172876,1,0,0:0:0:0:
402,192,173214,1,0,0:0:0:0:
109,192,173214,1,0,0:0:0:0:
256,192,173440,1,0,0:0:0:0:
36,192,173440,1,0,0:0:0:0:
475,192,173440,128,0,173665:0:0:0:0:
402,192,173665,128,0,173891:0:0:0:0:
329,192,173891,128,0,174116:0:0:0:0:
256,192,174116,128,0,174342:0:0:0:0:
36,192,174342,128,0,174567:0:0:0:0:
182,192,174567,128,0,174793:0:0:0:0:
36,192,174793,128,0,175019:0:0:0:0:
109,192,175019,128,0,175244:0:0:0:0:
256,192,175244,128,0,175921:0:0:0:0:
402,192,175244,128,0,175921:0:0:0:0:
36,192,176146,1,0,0:0:0:0:
109,192,176297,1,0,0:0:0:0:
182,192,176447,1,0,0:0:0:0:
329,192,176597,1,0,0:0:0:0:
109,192,176748,1,0,0:0:0:0:
256,192,176898,1,0,0:0:0:0:
36,192,177049,1,0,0:0:0:0:
475,192,177161,1,0,0:0:0:0:
109,192,177274,1,0,0:0:0:0:
402,192,177387,1,0,0:0:0:0:
329,192,177500,1,0,0:0:0:0:
182,192,177575,1,0,0:0:0:0:
36,192,177650,1,0,0:0:0:0:
256,192,177725,1,0,0:0:0:0:
109,192,177800,1,0,0:0:0:0:
329,192,177876,1,0,0:0:0:0:
402,192,177951,1,0,0:0:0:0:
182,192,178064,1,0,0:0:0:0:
475,192,178176,1,0,0:0:0:0:
109,192,178289,1,0,0:0:0:0:
36,192,178402,1,0,0:0:0:0:
256,192,178515,1,0,0:0:0:0:
402,192,178628,1,0,0:0:0:0:
182,192,178740,1,0,0:0:0:0:
256,192,178853,128,0,179530:0:0:0:0:
109,192,178853,128,0,179530:0:0:0:0:
402,192,178853,128,0,179530:0:0:0:0:
329,192,179755,1,0,0:0:0:0:
475,192,179755,1,0,0:0:0:0:
182,192,179981,1,0,0:0:0:0:
36,192,179981,1,0,0:0:0:0:
402,192,180206,1,0,0:0:0:0:
256,192,180357,1,0,0:0:0:0:
109,192,180507,1,0,0:0:0:0:
36,192,180658,1,0,0:0:0:0:
182,192,180770,1,0,0:0:0:0:
475,192,180883,1,0,0:0:0:0:
329,192,180996,1,0,0:0:0:0:
109,192,181109,1,0,0:0:0:0:
256,192,181259,1,0,0:0:0:0:
402,192,181409,1,0,0:0:0:0:
182,192,181560,1,0,0:0:0:0:
36,192,181560,1,0,0:0:0:0:
329,192,181785,1,0,0:0:0:0:
475,192,181785,1,0,0:0:0:0:
109,192,182011,1,0,0:0:0:0:
36,192,182011,1,0,0:0:0:0:
402,192,182237,1,0,0:0:0:0:
475,192,182237,1,0,0:0:0:0:
182,192,182349,128,0,183139:0:0:0:0:
256,192,182349,128,0,183139:0:0:0:0:
329,192,182349,128,0,183139:0:0:0:0:
329,192,183364,1,0,0:0:0:0:
475,192,183364,1,0,0:0:0:0:
182,192,183590,1,0,0:0:0:0:
36,192,183590,1,0,0:0:0:0:
256,192,183815,1,0,0:0:0:0:
402,192,183815,1,0,0:0:0:0:
109,192,184041,1,0,0:0:0:0:
329,192,184041,1,0,0:0:0:0:
36,192,184267,1,0,0:0:0:0:
329,192,184379,1,0,0:0:0:0:
182,192,184492,1,0,0:0:0:0:
475,192,184605,1,0,0:0:0:0:
402,192,184718,1,0,0:0:0:0:
109,192,184793,1,0,0:0:0:0:
329,192,184868,1,0,0:0:0:0:
36,192,184943,1,0,0:0:0:0:
182,192,185019,1,0,0:0:0:0:
475,192,185094,1,0,0:0:0:0:
402,192,185169,1,0,0:0:0:0:
256,192,185319,1,0,0:0:0:0:
109,192,185470,1,0,0:0:0:0:
329,192,185620,1,0,0:0:0:0:
475,192,185620,128,0,187650:0:0:0:0:
36,192,185770,1,0,0:0:0:0:
182,192,185921,1,0,0:0:0:0:
402,192,186071,128,0,187650:0:0:0:0:
256,192,186071,128,0,186748:0:0:0:0:
109,192,186071,128,0,186748:0:0:0:0:
36,192,186071,128,0,186748:0:0:0:0:
329,192,186973,128,0,187199:0:0:0:0:
36,192,187199,128,0,187425:0:0:0:0:
256,192,187425,128,0,187650:0:0:0:0:
109,192,187650,128,0,187876:0:0:0:0:
256,192,187876,1,0,0:0:0:0:
329,192,187876,128,0,188101:0:0:0:0:
182,192,187876,128,0,188101:0:0:0:0:
256,192,188214,1,0,0:0:0:0:
36,192,188327,128,0,188552:0:0:0:0:
475,192,188327,128,0,188552:0:0:0:0:
256,192,188552,1,0,0:0:0:0:
402,192,188778,128,0,189003:0:0:0:0:
109,192,188778,128,0,189003:0:0:0:0:
256,192,188891,1,0,0:0:0:0:
256,192,189229,1,0,0:0:0:0:
329,192,189229,128,0,189455:0:0:0:0:
182,192,189229,128,0,189455:0:0:0:0:
475,192,189680,128,0,196673:0:0:0:0:
36,192,189680,128,0,191485:0:0:0:0:
182,192,189680,128,0,189906:0:0:0:0:
256,192,189906,128,0,190131:0:0:0:0:
402,192,190131,128,0,190357:0:0:0:0:
329,192,190357,128,0,190582:0:0:0:0:
402,192,190582,128,0,190808:0:0:0:0:
256,192,191034,128,0,191259:0:0:0:0:
402,192,191259,128,0,191485:0:0:0:0:
182,192,191485,128,0,193289:0:0:0:0:
109,192,193289,128,0,195094:0:0:0:0:
36,192,193289,128,0,193515:0:0:0:0:
182,192,193515,128,0,193740:0:0:0:0:
256,192,193740,128,0,193966:0:0:0:0:
329,192,193966,128,0,194191:0:0:0:0:
402,192,194191,128,0,194417:0:0:0:0:
329,192,194643,128,0,194868:0:0:0:0:
256,192,194868,128,0,195545:0:0:0:0:
182,192,195094,128,0,196898:0:0:0:0:
256,192,195996,128,0,196222:0:0:0:0:
329,192,196222,128,0,196447:0:0:0:0:
329,192,196673,128,0,196898:0:0:0:0:
475,192,196898,128,0,197575:0:0:0:0:
36,192,196898,128,0,197575:0:0:0:0:
256,192,196898,128,0,197124:0:0:0:0:
182,192,197124,128,0,197349:0:0:0:0:
109,192,197349,128,0,197575:0:0:0:0:
256,192,197575,128,0,197800:0:0:0:0:
475,192,197800,128,0,198477:0:0:0:0:
182,192,197800,128,0,198477:0:0:0:0:
109,192,197800,128,0,198026:0:0:0:0:
36,192,198252,128,0,198477:0:0:0:0:
256,192,198477,128,0,198703:0:0:0:0:
475,192,198703,128,0,199379:0:0:0:0:
109,192,198703,128,0,199379:0:0:0:0:
36,192,198928,128,0,199154:0:0:0:0:
182,192,199154,128,0,199379:0:0:0:0:
475,192,199605,128,0,200282:0:0:0:0:
182,192,199605,128,0,200282:0:0:0:0:
329,192,199605,128,0,199831:0:0:0:0:
402,192,199831,128,0,200056:0:0:0:0:
256,192,200056,128,0,200282:0:0:0:0:
109,192,200282,128,0,200507:0:0:0:0:
475,192,200507,128,0,201184:0:0:0:0:
36,192,200507,128,0,201184:0:0:0:0:
182,192,200507,128,0,200733:0:0:0:0:
256,192,200733,128,0,200958:0:0:0:0:
329,192,200958,128,0,201184:0:0:0:0:
475,192,201409,128,0,202086:0:0:0:0:
182,192,201409,128,0,202086:0:0:0:0:
402,192,201409,128,0,201635:0:0:0:0:
329,192,201861,128,0,202086:0:0:0:0:
402,192,202086,128,0,202312:0:0:0:0:
475,192,202312,128,0,204116:0:0:0:0:
36,192,202312,128,0,204116:0:0:0:0:
182,192,202312,128,0,202537:0:0:0:0:
109,192,202537,128,0,202763:0:0:0:0:
329,192,202763,128,0,202988:0:0:0:0:
402,192,202988,128,0,203440:0:0:0:0:
256,192,203440,128,0,204116:0:0:0:0:
109,192,203665,128,0,203891:0:0:0:0:
402,192,203891,128,0,204116:0:0:0:0:
329,192,204116,1,0,0:0:0:0:
109,192,204116,1,0,0:0:0:0:
182,192,204342,1,0,0:0:0:0:
329,192,204567,1,0,0:0:0:0:
475,192,204567,1,0,0:0:0:0:
256,192,204793,1,0,0:0:0:0:
109,192,205019,1,0,0:0:0:0:
36,192,205019,1,0,0:0:0:0:
329,192,205244,1,0,0:0:0:0:
475,192,205470,1,0,0:0:0:0:
182,192,205470,1,0,0:0:0:0:
256,192,205695,1,0,0:0:0:0:
402,192,205921,1,0,0:0:0:0:
36,192,205921,1,0,0:0:0:0:
182,192,206146,1,0,0:0:0:0:
329,192,206372,1,0,0:0:0:0:
475,192,206372,1,0,0:0:0:0:
256,192,206597,1,0,0:0:0:0:
109,192,206823,1,0,0:0:0:0:
36,192,206823,1,0,0:0:0:0:
329,192,207049,1,0,0:0:0:0:
475,192,207274,1,0,0:0:0:0:
256,192,207274,1,0,0:0:0:0:
182,192,207500,1,0,0:0:0:0:
402,192,207725,1,0,0:0:0:0:
329,192,207725,1,0,0:0:0:0:
109,192,207951,1,0,0:0:0:0:
256,192,208176,1,0,0:0:0:0:
36,192,208176,1,0,0:0:0:0:
475,192,208402,1,0,0:0:0:0:
329,192,208628,1,0,0:0:0:0:
182,192,208628,1,0,0:0:0:0:
109,192,208853,1,0,0:0:0:0:
256,192,209079,1,0,0:0:0:0:
402,192,209079,1,0,0:0:0:0:
36,192,209304,1,0,0:0:0:0:
182,192,209530,1,0,0:0:0:0:
475,192,209530,1,0,0:0:0:0:
329,192,209755,1,0,0:0:0:0:
256,192,209981,1,0,0:0:0:0:
109,192,209981,1,0,0:0:0:0:
36,192,209981,1,0,0:0:0:0:
182,192,210206,1,0,0:0:0:0:
256,192,210432,1,0,0:0:0:0:
329,192,210432,1,0,0:0:0:0:
475,192,210432,1,0,0:0:0:0:
402,192,210658,1,0,0:0:0:0:
256,192,210883,5,0,0:0:0:0:
329,192,210883,1,0,0:0:0:0:
109,192,210883,1,0,0:0:0:0:
182,192,211109,1,0,0:0:0:0:
256,192,211334,1,0,0:0:0:0:
36,192,211334,1,0,0:0:0:0:
402,192,211334,1,0,0:0:0:0:
109,192,211560,1,0,0:0:0:0:
256,192,211785,1,0,0:0:0:0:
329,192,211785,1,0,0:0:0:0:
475,192,211785,1,0,0:0:0:0:
182,192,212011,1,0,0:0:0:0:
256,192,212237,1,0,0:0:0:0:
402,192,212237,1,0,0:0:0:0:
109,192,212237,1,0,0:0:0:0:
36,192,212462,1,0,0:0:0:0:
256,192,212688,1,0,0:0:0:0:
182,192,212688,1,0,0:0:0:0:
329,192,212688,1,0,0:0:0:0:
109,192,212913,1,0,0:0:0:0:
256,192,213139,5,0,0:0:0:0:
402,192,213139,1,0,0:0:0:0:
475,192,213139,1,0,0:0:0:0:
182,192,213364,1,0,0:0:0:0:
256,192,213590,1,0,0:0:0:0:
36,192,213590,1,0,0:0:0:0:
329,192,213590,1,0,0:0:0:0:
402,192,213815,1,0,0:0:0:0:
256,192,214041,5,0,0:0:0:0:
182,192,214041,1,0,0:0:0:0:
109,192,214041,1,0,0:0:0:0:
475,192,214267,1,0,0:0:0:0:
256,192,214492,1,0,0:0:0:0:
329,192,214492,1,0,0:0:0:0:
36,192,214492,1,0,0:0:0:0:
182,192,214718,1,0,0:0:0:0:
256,192,214943,1,0,0:0:0:0:
402,192,214943,1,0,0:0:0:0:
109,192,214943,1,0,0:0:0:0:
475,192,215169,1,0,0:0:0:0:
256,192,215394,5,0,0:0:0:0:
329,192,215394,1,0,0:0:0:0:
109,192,215394,1,0,0:0:0:0:
36,192,215620,1,0,0:0:0:0:
256,192,215846,1,0,0:0:0:0:
182,192,215846,1,0,0:0:0:0:
402,192,215846,1,0,0:0:0:0:
329,192,216071,1,0,0:0:0:0:
256,192,216297,1,0,0:0:0:0:
475,192,216297,1,0,0:0:0:0:
36,192,216297,1,0,0:0:0:0:
256,192,216522,128,0,218552:0:0:0:0:
402,192,216522,128,0,218552:0:0:0:0:
109,192,216522,128,0,218552:0:0:0:0:
475,192,216748,1,0,0:0:0:0:
329,192,216748,1,0,0:0:0:0:
36,192,216973,1,0,0:0:0:0:
182,192,216973,1,0,0:0:0:0:
329,192,217199,1,0,0:0:0:0:
475,192,217199,1,0,0:0:0:0:
182,192,217425,1,0,0:0:0:0:
36,192,217425,1,0,0:0:0:0:
475,192,217650,1,0,0:0:0:0:
329,192,217650,1,0,0:0:0:0:
182,192,217876,1,0,0:0:0:0:
36,192,217876,128,0,218552:0:0:0:0:
329,192,218101,1,0,0:0:0:0:
475,192,218101,128,0,218552:0:0:0:0:
329,192,218552,1,0,0:0:0:0:
182,192,218552,1,0,0:0:0:0:
329,192,218778,1,0,0:0:0:0:
475,192,218778,1,0,0:0:0:0:
402,192,218891,1,0,0:0:0:0:
256,192,218891,1,0,0:0:0:0:
182,192,219116,1,0,0:0:0:0:
36,192,219116,1,0,0:0:0:0:
475,192,219342,1,0,0:0:0:0:
256,192,219342,1,0,0:0:0:0:
402,192,219567,1,0,0:0:0:0:
109,192,219567,1,0,0:0:0:0:
329,192,219680,1,0,0:0:0:0:
182,192,219680,1,0,0:0:0:0:
36,192,219906,128,0,220131:0:0:0:0:
475,192,219906,128,0,220131:0:0:0:0:
256,192,220131,1,0,0:0:0:0:
256,192,220357,128,0,220582:0:0:0:0:
36,192,220582,1,0,0:0:0:0:
402,192,220582,1,0,0:0:0:0:
182,192,220695,1,0,0:0:0:0:
329,192,220695,1,0,0:0:0:0:
329,192,220921,1,0,0:0:0:0:
475,192,220921,1,0,0:0:0:0:
109,192,221146,1,0,0:0:0:0:
36,192,221146,1,0,0:0:0:0:
256,192,221372,1,0,0:0:0:0:
329,192,221372,1,0,0:0:0:0:
402,192,221485,1,0,0:0:0:0:
182,192,221485,1,0,0:0:0:0:
109,192,221710,128,0,221936:0:0:0:0:
475,192,221710,128,0,221936:0:0:0:0:
256,192,221936,1,0,0:0:0:0:
256,192,222161,128,0,222387:0:0:0:0:
109,192,222387,1,0,0:0:0:0:
36,192,222387,1,0,0:0:0:0:
182,192,222500,1,0,0:0:0:0:
402,192,222500,1,0,0:0:0:0:
329,192,222725,1,0,0:0:0:0:
475,192,222725,1,0,0:0:0:0:
256,192,222951,1,0,0:0:0:0:
36,192,222951,1,0,0:0:0:0:
329,192,223176,1,0,0:0:0:0:
109,192,223176,1,0,0:0:0:0:
475,192,223289,1,0,0:0:0:0:
182,192,223289,1,0,0:0:0:0:
402,192,223515,128,0,223740:0:0:0:0:
36,192,223515,128,0,223740:0:0:0:0:
256,192,223740,1,0,0:0:0:0:
256,192,223966,128,0,224191:0:0:0:0:
475,192,224191,1,0,0:0:0:0:
329,192,224191,1,0,0:0:0:0:
182,192,224304,1,0,0:0:0:0:
109,192,224304,1,0,0:0:0:0:
402,192,224530,1,0,0:0:0:0:
36,192,224530,1,0,0:0:0:0:
329,192,224755,1,0,0:0:0:0:
182,192,224755,1,0,0:0:0:0:
402,192,224981,1,0,0:0:0:0:
475,192,224981,1,0,0:0:0:0:
109,192,225094,1,0,0:0:0:0:
36,192,225094,1,0,0:0:0:0:
256,192,225319,128,0,225770:0:0:0:0:
329,192,225319,1,0,0:0:0:0:
182,192,225319,1,0,0:0:0:0:
402,192,225545,1,0,0:0:0:0:
109,192,225545,1,0,0:0:0:0:
475,192,225770,1,0,0:0:0:0:
36,192,225770,1,0,0:0:0:0:
329,192,225996,1,0,0:0:0:0:
256,192,225996,1,0,0:0:0:0:
475,192,226109,1,0,0:0:0:0:
36,192,226109,1,0,0:0:0:0:
402,192,226109,1,0,0:0:0:0:
182,192,226109,1,0,0:0:0:0:
329,192,226334,1,0,0:0:0:0:
109,192,226334,1,0,0:0:0:0:
475,192,226447,1,0,0:0:0:0:
36,192,226447,1,0,0:0:0:0:
256,192,226560,1,0,0:0:0:0:
402,192,226560,1,0,0:0:0:0:
475,192,226673,1,0,0:0:0:0:
36,192,226673,1,0,0:0:0:0:
256,192,226785,1,0,0:0:0:0:
109,192,226785,1,0,0:0:0:0:
182,192,226898,1,0,0:0:0:0:
329,192,226898,1,0,0:0:0:0:
475,192,227011,1,0,0:0:0:0:
36,192,227011,1,0,0:0:0:0:
109,192,227124,128,0,227349:0:0:0:0:
402,192,227124,128,0,227349:0:0:0:0:
475,192,227349,1,0,0:0:0:0:
36,192,227349,1,0,0:0:0:0:
402,192,227575,1,0,0:0:0:0:
109,192,227575,1,0,0:0:0:0:
182,192,227800,1,0,0:0:0:0:
256,192,227800,1,0,0:0:0:0:
402,192,227913,1,0,0:0:0:0:
109,192,227913,1,0,0:0:0:0:
475,192,227913,1,0,0:0:0:0:
36,192,227913,1,0,0:0:0:0:
329,192,228139,1,0,0:0:0:0:
475,192,228139,1,0,0:0:0:0:
402,192,228252,1,0,0:0:0:0:
109,192,228252,1,0,0:0:0:0:
182,192,228364,1,0,0:0:0:0:
36,192,228364,1,0,0:0:0:0:
402,192,228477,1,0,0:0:0:0:
109,192,228477,1,0,0:0:0:0:
329,192,228590,1,0,0:0:0:0:
182,192,228590,1,0,0:0:0:0:
256,192,228703,1,0,0:0:0:0:
475,192,228703,1,0,0:0:0:0:
402,192,228815,1,0,0:0:0:0:
109,192,228815,1,0,0:0:0:0:
329,192,228928,128,0,229154:0:0:0:0:
182,192,228928,128,0,229154:0:0:0:0:
402,192,229154,1,0,0:0:0:0:
109,192,229154,1,0,0:0:0:0:
475,192,229379,1,0,0:0:0:0:
36,192,229379,1,0,0:0:0:0:
402,192,229605,1,0,0:0:0:0:
256,192,229605,1,0,0:0:0:0:
475,192,229718,1,0,0:0:0:0:
36,192,229718,1,0,0:0:0:0:
182,192,229718,1,0,0:0:0:0:
109,192,229718,1,0,0:0:0:0:
329,192,229943,1,0,0:0:0:0:
182,192,229943,1,0,0:0:0:0:
475,192,230056,1,0,0:0:0:0:
36,192,230056,1,0,0:0:0:0:
256,192,230169,1,0,0:0:0:0:
109,192,230169,1,0,0:0:0:0:
475,192,230282,1,0,0:0:0:0:
36,192,230282,1,0,0:0:0:0:
402,192,230394,1,0,0:0:0:0:
182,192,230394,1,0,0:0:0:0:
329,192,230507,1,0,0:0:0:0:
256,192,230507,1,0,0:0:0:0:
475,192,230620,1,0,0:0:0:0:
36,192,230620,1,0,0:0:0:0:
402,192,230733,128,0,230958:0:0:0:0:
109,192,230733,128,0,230958:0:0:0:0:
475,192,230958,1,0,0:0:0:0:
36,192,230958,1,0,0:0:0:0:
329,192,231184,1,0,0:0:0:0:
182,192,231184,1,0,0:0:0:0:
256,192,231184,1,0,0:0:0:0:
36,192,231409,128,0,231635:0:0:0:0:
475,192,231409,128,0,231635:0:0:0:0:
109,192,231635,128,0,231861:0:0:0:0:
402,192,231635,128,0,231861:0:0:0:0:
182,192,231861,128,0,232086:0:0:0:0:
329,192,231861,128,0,232086:0:0:0:0:
475,192,232086,128,0,232537:0:0:0:0:
36,192,232086,128,0,232537:0:0:0:0:
256,192,232312,1,0,0:0:0:0:
402,192,232537,128,0,232988:0:0:0:0:
109,192,232537,128,0,232988:0:0:0:0:
256,192,232763,1,0,0:0:0:0:
36,192,232988,128,0,233891:0:0:0:0:
329,192,232988,128,0,233665:0:0:0:0:
475,192,232988,128,0,233665:0:0:0:0:
402,192,233665,1,0,0:0:0:0:
182,192,233665,1,0,0:0:0:0:
182,192,233891,128,0,234793:0:0:0:0:
329,192,233891,128,0,234567:0:0:0:0:
256,192,233891,128,0,234567:0:0:0:0:
475,192,234567,1,0,0:0:0:0:
36,192,234567,1,0,0:0:0:0:
402,192,234793,128,0,235695:0:0:0:0:
109,192,234793,128,0,235470:0:0:0:0:
256,192,234793,128,0,235470:0:0:0:0:
182,192,235470,1,0,0:0:0:0:
329,192,235470,1,0,0:0:0:0:
329,192,235695,128,0,236597:0:0:0:0:
36,192,235695,128,0,236034:0:0:0:0:
475,192,235695,128,0,236034:0:0:0:0:
182,192,236034,128,0,236372:0:0:0:0:
256,192,236034,128,0,236372:0:0:0:0:
36,192,236372,128,0,236597:0:0:0:0:
475,192,236372,128,0,236597:0:0:0:0:
109,192,236597,128,0,237500:0:0:0:0:
402,192,236597,128,0,237500:0:0:0:0:
256,192,236597,128,0,237500:0:0:0:0:
475,192,237500,128,0,238402:0:0:0:0:
182,192,237500,128,0,238176:0:0:0:0:
36,192,237500,128,0,238176:0:0:0:0:
329,192,238176,1,0,0:0:0:0:
256,192,238176,1,0,0:0:0:0:
402,192,238402,1,0,0:0:0:0:
256,192,238402,1,0,0:0:0:0:
109,192,238402,1,0,0:0:0:0:
182,192,238628,128,0,238853:0:0:0:0:
329,192,238628,128,0,238853:0:0:0:0:
36,192,238853,128,0,239079:0:0:0:0:
475,192,238853,128,0,239079:0:0:0:0:
109,192,239079,128,0,239304:0:0:0:0:
402,192,239079,128,0,239304:0:0:0:0:
475,192,239304,1,0,0:0:0:0:
256,192,239304,1,0,0:0:0:0:
36,192,239304,1,0,0:0:0:0:
402,192,239455,1,0,0:0:0:0:
256,192,239455,1,0,0:0:0:0:
109,192,239455,1,0,0:0:0:0:
329,192,239605,1,0,0:0:0:0:
256,192,239605,1,0,0:0:0:0:
182,192,239605,1,0,0:0:0:0:
256,192,239755,1,0,0:0:0:0:
475,192,239755,1,0,0:0:0:0:
36,192,239755,1,0,0:0:0:0:
256,192,240206,128,0,245620:0:0:0:0:
475,192,240206,128,0,240432:0:0:0:0:
109,192,240206,1,0,0:0:0:0:
182,192,240206,1,0,0:0:0:0:
402,192,240432,1,0,0:0:0:0:
329,192,240545,1,0,0:0:0:0:
36,192,240658,128,0,240883:0:0:0:0:
109,192,240658,1,0,0:0:0:0:
475,192,240658,1,0,0:0:0:0:
182,192,240883,1,0,0:0:0:0:
402,192,240996,1,0,0:0:0:0:
109,192,241109,128,0,241334:0:0:0:0:
182,192,241109,1,0,0:0:0:0:
475,192,241109,1,0,0:0:0:0:
329,192,241334,1,0,0:0:0:0:
182,192,241447,1,0,0:0:0:0:
402,192,241560,128,0,241785:0:0:0:0:
475,192,241560,1,0,0:0:0:0:
36,192,241560,1,0,0:0:0:0:
109,192,241785,1,0,0:0:0:0:
475,192,241898,1,0,0:0:0:0:
329,192,242011,128,0,242237:0:0:0:0:
402,192,242011,1,0,0:0:0:0:
36,192,242011,1,0,0:0:0:0:
182,192,242237,1,0,0:0:0:0:
109,192,242349,1,0,0:0:0:0:
475,192,242462,128,0,242688:0:0:0:0:
402,192,242462,1,0,0:0:0:0:
36,192,242462,1,0,0:0:0:0:
182,192,242688,1,0,0:0:0:0:
402,192,242800,1,0,0:0:0:0:
329,192,242913,1,0,0:0:0:0:
109,192,242913,128,0,243139:0:0:0:0:
36,192,242913,1,0,0:0:0:0:
182,192,243139,1,0,0:0:0:0:
36,192,243252,1,0,0:0:0:0:
475,192,243364,128,0,243590:0:0:0:0:
329,192,243364,1,0,0:0:0:0:
109,192,243364,1,0,0:0:0:0:
402,192,243590,1,0,0:0:0:0:
182,192,243703,1,0,0:0:0:0:
329,192,243815,1,0,0:0:0:0:
36,192,243815,128,0,244041:0:0:0:0:
109,192,243815,1,0,0:0:0:0:
402,192,244041,1,0,0:0:0:0:
475,192,244154,1,0,0:0:0:0:
182,192,244267,128,0,244492:0:0:0:0:
109,192,244267,1,0,0:0:0:0:
329,192,244267,1,0,0:0:0:0:
402,192,244492,1,0,0:0:0:0:
36,192,244605,1,0,0:0:0:0:
182,192,244718,1,0,0:0:0:0:
475,192,244718,128,0,244943:0:0:0:0:
329,192,244718,1,0,0:0:0:0:
402,192,244943,1,0,0:0:0:0:
109,192,245056,1,0,0:0:0:0:
329,192,245169,128,0,245394:0:0:0:0:
36,192,245169,1,0,0:0:0:0:
475,192,245169,1,0,0:0:0:0:
182,192,245394,1,0,0:0:0:0:
402,192,245507,1,0,0:0:0:0:
475,192,245620,128,0,245846:0:0:0:0:
109,192,246071,128,0,246297:0:0:0:0:
402,192,246522,128,0,246748:0:0:0:0:
36,192,246973,128,0,247199:0:0:0:0:
