osu file format v5

[General]
AudioFilename: one more time.mp3
AudioLeadIn: 0
PreviewTime: -1
Countdown: 1
SampleSet: Soft
EditorBookmarks: 96542,98007,100448,101669,102523,103744,104964,106185,107039,108260,109114,109969,133427,135989,137088,140749

[Metadata]
Title:One More Time
Artist:Daft Punk
Creator:Mifune24
Version:Insane

[Difficulty]
HPDrainRate:7
CircleSize:5
OverallDifficulty:6
SliderMultiplier:2.2
SliderTickRate:1

[Events]
//Background and Video events
1,-31000,"301c10d8322c126ef583cb0f6f3da005.avi"
//Break Periods
2,157498,171868
//Storyboard Layer 0 (Background)
//Storyboard Layer 1 (Failing)
//Storyboard Layer 2 (Passing)
//Storyboard Layer 3 (Foreground)
//Storyboard Sound Samples
//Background Colour Transformations
3,100,163,162,255

[TimingPoints]
1572,488.231123545507,4,2,0,100
111931,447.431123545501,4,2,0,100
119732,488.231123545507,4,2,0,100
242947,488.131123545507,4,2,0,100

[Colours]
Combo1 : 255,128,0
Combo2 : 5,240,5
Combo3 : 5,5,240
Combo4 : 240,5,5

[HitObjects]
128,32,16707,5,0
128,192,17195,1,0
86,269,17439,1,0
173,269,17683,2,0,B|260:364,1,110
320,288,18171,1,0
376,221,18415,1,0
301,173,18660,2,0,B|218:92,1,110
165,28,19148,1,0
112,98,19392,1,0
169,164,19636,1,0
225,96,19880,2,0,B|451:97,1,220
479,178,20613,5,0
511,259,20857,1,0
424,243,21101,2,0,B|361:343,1,110
277,339,21589,1,0
203,290,21833,1,0
273,237,22077,2,0,B|275:112,1,110
362,121,22565,1,0
419,53,22810,1,0
335,26,23054,2,0,B|221:26,1,110
137,30,23542,1,0
137,30,23786,2,0,B|137:258,1,220
62,297,24518,5,0
119,363,24762,1,0
201,331,25007,2,0,B|290:254,1,110
349,318,25495,1,0
411,255,25739,1,0
346,194,25983,2,0,B|252:111,1,110
196,64,26471,1,0
120,109,26715,1,0
193,158,26960,2,0,B|113:251,1,110
70,313,27448,1,0
70,313,27692,2,0,B|296:315,1,220
377,316,28424,5,2
375,228,28668,2,2,B|376:88,1,110
287,117,29157,1,2
199,112,29401,2,2,B|199:254,1,110
201,309,29889,1,2
113,308,30133,2,2,B|113:171,1,110
113,110,30621,1,2
114,22,30865,2,2,B|237:23,3,110
257,95,32330,5,0
91,155,32818,1,0
80,330,33307,1,0
80,330,33551,1,0
255,332,34039,2,0,B|314:256|359:386|473:305,1,220
492,232,34771,1,0
419,182,35015,1,0
442,97,35259,1,0
361,60,35504,1,0
332,143,35748,1,0
332,143,35992,1,0
332,143,36236,1,0
180,53,36724,6,0,B|105:54|47:92|37:155|43:227,1,220
36,275,37456,1,0
37,366,37701,2,0,B|163:368|189:224,1,220
212,150,38433,1,0
278,92,38677,1,0
341,152,38921,1,0
408,96,39165,2,0,B|449:144|446:228|422:275|391:312,1,220
232,356,40142,1,2
160,305,40386,1,2
83,261,40630,1,2
86,85,41118,5,0
86,85,41362,1,0
262,78,41851,2,0,B|339:161|371:30|475:98,1,220
464,180,42583,1,0
441,265,42827,1,0
357,291,43071,1,0
369,203,43315,1,0
285,232,43559,1,0
285,232,43803,1,0
285,232,44048,1,0
156,352,44536,6,0,B|55:280|106:156,1,220
139,76,45268,1,0
221,45,45512,2,0,B|297:20|364:42|409:66|443:133,1,220
467,172,46245,1,0
439,255,46489,1,0
383,323,46733,1,0
302,359,46977,2,0,B|226:378|105:325|79:296,1,220
31,143,47953,1,2
93,80,48198,1,2
172,42,48442,1,4
156,217,48930,5,0
156,217,49174,1,0
302,314,49662,2,0,B|376:336|451:290|473:231|475:178,1,220
437,129,50395,1,2
388,55,50639,1,2
337,127,50883,1,2
290,52,51127,1,2
241,125,51371,1,2
241,125,51615,1,2
241,125,51859,1,2
401,196,52348,6,0,B|329:286|191:194,1,220
124,162,53080,1,0
43,127,53324,2,0,B|12:209|13:279|79:349,1,220
140,381,54056,1,0
210,328,54300,1,0
282,378,54545,1,0
354,328,54789,2,0,B|431:239|411:165|316:102,1,220
206,42,55765,1,2
156,114,56009,1,2
110,189,56253,1,2
198,306,56742,5,0
198,306,56986,1,0
299,162,57474,2,0,B|251:113|245:48|287:15|378:20,1,220
447,43,58206,1,0
501,111,58450,1,0
461,189,58695,1,0
406,119,58939,1,0
352,188,59183,1,0
352,188,59427,1,0
352,188,59671,1,0
257,39,60159,5,2
259,214,60647,1,2
84,63,62600,5,2
260,64,63089,1,2
435,66,63577,1,4
439,241,64065,5,0
375,179,64309,2,0,B|375:298,1,110
303,238,64797,1,0
233,291,65042,1,0
233,207,65286,2,0,B|234:80,1,110
157,139,65774,1,0
157,226,66018,1,0
79,184,66262,2,0,B|78:307,1,110
165,298,66750,2,0,B|397:298,1,220
473,299,67483,5,0
471,123,67971,1,0
383,124,68215,2,0,B|385:251,1,110
314,286,68703,1,0
314,198,68947,1,0
229,224,69192,2,0,B|228:67,1,110
160,57,69680,1,0
160,144,69924,1,0
81,103,70168,2,0,B|82:235,1,110
84,300,70656,2,0,B|329:299,1,220
392,301,71389,5,2
394,125,71877,1,2
319,77,72121,2,2,B|319:201,1,110
252,244,72609,1,2
253,156,72853,1,2
172,191,73097,2,2,B|172:50,1,110
105,138,73586,1,2
103,50,73830,1,2
27,95,74074,2,2,B|27:229,1,110
28,292,74562,2,2,B|256:291,1,220
335,291,75294,5,2
474,183,75783,1,2
363,45,76271,1,2
257,185,76759,1,2
98,109,77247,1,2
141,279,77736,1,2
185,108,78224,1,2
251,50,78468,2,0,B|312:103|362:143|370:188|361:235|323:293|229:330,1,330
257,54,80177,5,0
169,57,80421,1,0
22,154,80909,2,0,B|106:100|148:218|256:129,1,220
316,118,81641,1,0
404,122,81886,1,0
373,204,82130,1,0
285,201,82374,1,0
317,282,82618,1,0
404,283,82862,1,0
365,362,83106,1,0
164,369,83594,6,0,B|100:314|109:242|169:173,1,220
224,107,84327,1,0
300,63,84571,2,0,B|403:64|455:139|457:211,1,220
476,276,85303,1,0
406,329,85547,1,0
337,273,85791,1,0
279,206,86035,2,0,B|221:133|198:114|114:144|86:227,1,220
72,364,87012,1,2
71,276,87256,1,2
147,319,87500,1,2
349,98,87988,5,0
287,161,88233,1,0
151,48,88721,2,0,B|76:101|77:142|99:188|136:239,1,220
182,307,89453,1,0
224,230,89697,1,0
301,272,89941,1,0
330,188,90185,1,0
393,249,90430,1,0
428,168,90674,1,0
366,105,90918,1,0
200,44,91406,6,0,B|117:14|74:30|43:82|55:150,1,220
51,224,92138,1,0
93,300,92382,1,0
174,334,92627,1,0
182,246,92871,1,0
352,289,93359,1,0
257,140,93847,1,2
255,315,94335,1,2
102,226,94824,1,2
257,64,96532,6,0,B|172:76|158:125|164:191|193:247|276:273|365:251|382:194|376:149|327:102|233:124|150:282|202:344|302:364|394:354,1,660
78,160,99950,5,0
78,160,100560,2,0,B|4:221|-3:276|1:334|42:356|97:362|144:374|194:337|226:283|192:192|150:153,1,495
136,350,102513,6,0,B|133:8|134:7|134:7|317:9|423:85|447:150|444:233|437:301|392:343|312:377|227:383|113:374,1,1100
100,188,106175,2,0,B|180:100|277:314|464:171,1,385
189,339,108250,2,0,B|190:22|190:22|347:22|395:83|421:130|414:191|365:230|306:231|219:215,1,770
64,192,110447,5,2
448,192,112378,5,2
256,32,114391,5,2
256,119,114615,1,2
257,294,115063,1,2
477,294,115622,1,2
256,352,118195,5,2
256,264,118418,1,2
257,88,118978,1,2
81,88,119425,1,2
351,162,120464,5,0
407,229,120708,1,0
343,289,120952,1,0
287,220,121196,1,0
233,289,121440,1,0
162,236,121684,1,0
221,171,121929,1,0
284,110,122173,1,0
32,96,125102,5,2
32,183,125346,1,2
32,358,125834,1,2
480,352,129008,5,2
478,176,129496,1,2
481,0,129984,1,2
128,64,132914,5,2
215,66,133158,1,2
390,66,133646,1,2
392,153,133890,5,0
432,230,134134,1,0
344,230,134378,2,0,B|205:230,1,110
172,166,134867,1,0
118,235,135111,1,0
183,293,135355,2,0,B|259:380,1,110
324,321,135843,1,0
322,233,136087,1,0
397,278,136331,2,0,B|397:155,1,110
397,79,136820,1,0
328,134,137064,1,0
324,46,137308,2,0,B|195:45,1,110
213,133,137796,5,2
157,201,138040,2,2,B|52:107,1,110
130,59,138528,1,2
200,6,138773,1,2
201,94,139017,2,2,B|334:93,1,110
381,145,139505,1,2
380,57,139749,1,2
457,98,139993,2,2,B|457:213,1,110
458,295,140481,1,2
403,225,140725,1,2
360,301,140970,2,2,B|275:192,1,110
237,144,141458,1,2
240,319,141946,1,2
64,317,142434,6,0,B|65:82,1,220
241,99,143411,1,0
328,101,143655,1,0
169,176,144143,2,0,B|395:176,1,220
429,259,145364,2,0,B|371:336|300:350|193:295,1,220
163,261,146096,1,0
165,173,146340,1,0
87,214,146584,1,0
89,126,146828,1,0
163,78,147072,1,0
235,127,147317,1,0
257,324,149269,6,0,B|344:330|410:285|433:238|454:193,1,220
415,66,151222,2,0,B|318:22|256:36|176:35|119:60|63:100|39:150|29:200,1,440
356,321,153175,1,0
443,319,153419,1,0
59,103,154640,6,2,B|100:47|171:50|241:72|256:120,1,220
342,258,155616,1,2
289,186,155861,1,2
328,107,156105,1,2
240,107,156349,1,2
201,186,156593,1,2
153,260,156837,1,2
106,185,157081,1,2
151,109,157325,1,2
256,192,172949,12,0,176366
162,67,176855,5,0
202,145,177099,1,0
279,103,177343,1,0
320,180,177587,1,0
244,224,177831,1,0
375,106,178319,1,0
375,106,178563,1,0
423,364,179784,1,2
335,366,180028,1,2
159,366,180516,1,2
256,192,180760,12,0,184178
190,326,184666,5,0
155,245,184910,1,0
155,245,185154,1,0
243,249,185399,1,0
203,170,185643,1,0
32,127,186131,1,0
32,127,186375,1,0
451,261,187596,1,2
449,173,187840,1,2
447,29,188328,1,2
256,192,188572,12,0,191990
256,38,192478,5,0
256,38,192722,1,0
178,80,192966,1,0
229,151,193210,1,0
147,183,193454,1,0
302,99,193943,1,0
301,186,194187,1,0
36,351,195407,1,2
34,263,195651,1,2
31,86,196140,1,2
256,192,196384,12,0,199801
385,289,200290,5,0
468,260,200534,1,0
385,229,200778,1,0
385,229,201022,1,0
468,201,201266,1,0
417,32,201754,1,0
417,119,201998,1,0
353,70,203219,1,2
177,66,203707,1,2
1,62,204195,1,4
0,61,204440,5,0
76,104,204684,1,0
29,178,204928,1,0
116,178,205172,2,0,B|43:266,1,110
116,315,205660,2,0,B|192:221,1,110
272,224,206148,1,0
344,240,206393,1,0
326,154,206637,1,0
344,240,206881,1,0
392,313,207125,1,0
465,265,207369,1,0
442,179,207613,1,0
398,102,207857,1,0
316,69,208101,2,0,B|210:33,1,110
204,121,208590,1,0
212,33,208834,1,0
132,71,209078,2,0,B|54:123|63:206|87:255|117:278,1,220
162,328,209810,1,0
102,263,210054,1,0
215,251,210298,2,0,B|287:346,2,110
249,169,211031,1,2
146,167,211275,1,2
251,30,211763,1,2
329,69,212007,5,0
371,146,212251,1,0
373,233,212495,1,0
371,146,212740,1,0
308,197,212984,2,0,B|215:260,1,110
216,258,213472,1,0
216,345,213716,1,0
216,257,213960,2,0,B|216:126,3,110
148,90,214937,1,0
149,185,215181,1,0
75,139,215425,1,0
149,185,215669,1,0
224,140,215913,2,0,B|285:141|325:101,4,110
224,51,217134,1,0
226,138,217378,1,0
293,194,217622,2,0,B|440:194,1,110
293,194,218110,2,0,B|363:310,1,110
271,327,218598,1,0
220,254,218842,1,2
271,327,219087,1,2
408,216,219575,1,2
405,128,219819,5,0
321,155,220063,2,0,B|231:229,1,110
148,225,220551,2,0,B|25:225,1,110
40,137,221039,2,0,B|39:14,1,110
110,79,221528,1,0
107,166,221772,1,0
107,166,222016,2,0,B|107:302,2,110
107,276,222748,1,0
107,166,222992,1,0
194,175,223236,1,0
192,79,223481,1,0
267,123,223725,1,0
271,210,223969,1,0
192,249,224213,1,0
271,210,224457,1,0
265,122,224701,2,0,B|388:121,1,110
431,188,225189,1,0
384,262,225434,1,0
462,302,225678,1,0
384,262,225922,2,0,B|281:203,2,110
288,207,226654,1,2
288,119,226898,1,2
112,120,227386,1,4
110,208,227631,5,0
53,275,227875,1,0
110,208,228119,1,0
153,284,228363,2,0,B|251:207,2,110
239,216,229095,1,0
306,272,229339,1,0
374,217,229584,1,0
310,165,229828,1,0
306,272,230072,1,0
310,165,230316,2,0,B|309:43,1,110
309,55,230804,1,0
221,54,231048,1,0
220,141,231292,2,0,B|220:298,1,110
160,320,231781,5,2
160,224,232025,1,2
64,320,232269,1,2
64,224,232513,1,2
160,320,232757,1,2
160,224,233001,1,2
64,320,233245,1,2
160,320,233489,1,2
160,224,233733,1,2
64,224,233978,1,2
