osu file format v4

[General]
AudioFilename: harderbetterstrongerfaster.mp3
AudioLeadIn: 0
AudioHash: d98cddfe7aacf12b52da11ec5c27fb83
PreviewTime: -1
Countdown: 1
SampleSet: Normal

[Metadata]
Title:Harder Better Faster Stronger
Artist:Daft Punk
Creator:agentkt
Version:Normal

[Difficulty]
HPDrainRate:6
CircleSize:6
OverallDifficulty:6
SliderMultiplier: 1.3
SliderTickRate: 2

[Events]
//Background and Video events
0,-100000,"harderbetterfs.jpg"
//Break Periods
2,82790,93051
2,160523,166897
//Storyboard Layer 0 (Background)
//Storyboard Layer 1 (Failing)
//Storyboard Layer 2 (Passing)
//Storyboard Layer 3 (Foreground)
//Storyboard Sound Samples
//Background Colour Transformations
3,100,163,162,255

[TimingPoints]
-14,485.82995951417,4,1,0,100

[HitObjects]
256,128,8730,1,0
256,128,9216,1,0
320,192,9702,1,0
320,192,10188,1,0
256,256,10674,1,0
256,256,11160,1,0
192,192,11645,1,0
192,192,12131,1,0
256,256,16504,5,0
256,256,16990,1,0
320,192,17475,1,0
320,192,17961,1,0
256,128,18447,1,0
256,128,18933,1,0
192,192,19419,1,0
192,192,19905,1,0
192,160,24277,6,0,B|192:160|320:160,3,130
320,224,26220,2,0,B|320:224|192:224,3,130
224,256,32050,6,0,B|224:256|192:192|224:128,3,130
288,128,33994,2,0,B|288:128|320:192|288:256,3,130
64,96,39824,5,0
128,96,40309,1,0
192,96,40795,1,0
256,96,41281,1,0
256,160,41767,1,0
192,160,42253,1,0
128,160,42739,1,0
64,160,43224,1,0
448,96,47597,5,0
384,96,48083,1,0
320,96,48568,1,0
256,96,49054,1,0
256,160,49540,1,0
320,160,50026,1,0
384,160,50512,1,0
448,160,50998,1,0
448,224,51483,5,0
448,224,51726,1,0
384,320,52455,1,0
384,320,52698,1,0
320,224,53427,1,0
320,224,53670,1,0
256,320,54398,1,0
256,320,54641,1,0
192,224,55370,5,0
192,160,55856,2,0,B|192:160|352:160,2,130
192,96,57313,1,0
192,32,57799,2,0,B|192:32|32:32,2,130
64,224,59743,5,0
64,224,59986,1,0
128,320,60714,1,0
128,320,60957,1,0
192,224,61686,1,0
192,224,61929,1,0
256,320,62658,1,0
256,320,62900,1,0
256,256,63143,5,0
257,178,63629,2,0,B|257:178|374:71,2,130
257,111,65087,1,0
256,32,65573,2,0,B|256:32|160:128,2,130
320,64,67030,5,0
320,64,67273,1,0
416,64,68002,2,0,B|416:64|416:128,1,65
320,128,68973,1,0
320,128,69216,1,0
416,128,69945,2,0,B|416:128|416:192,1,65
320,288,70917,6,0,B|320:288|160:288,3,130
256,224,72860,1,0
256,160,73346,1,0
256,96,73832,1,0
256,32,74317,1,0
96,64,75289,5,0
96,64,75532,1,0
192,64,76261,2,0,B|192:64|192:96,1,65
96,128,77232,1,0
96,128,77475,1,0
192,128,78204,2,0,B|192:128|192:192,1,65
224,288,79176,6,0,B|224:288|128:288|128:96|384:96|384:288|288:288,2,390
192,192,94237,6,0,B|192:192|352:192,5,130
352,320,98123,5,0
352,320,98609,1,0
256,320,99095,1,0
256,320,99581,1,0
160,320,100066,1,0
160,320,100552,1,0
256,224,101038,1,0
256,224,101524,1,0
256,160,102010,5,0
192,128,102496,1,0
192,64,102981,1,0
256,32,103467,1,0
320,64,103953,1,0
320,128,104439,1,0
256,160,104925,1,0
256,96,105411,1,0
352,64,105896,5,0
352,64,106382,1,0
256,64,106868,1,0
256,64,107354,1,0
160,64,107840,1,0
160,64,108326,1,0
256,160,108811,1,0
256,160,109297,1,0
256,224,109783,5,0
192,256,110269,1,0
192,320,110755,1,0
256,352,111241,1,0
320,320,111726,1,0
320,256,112212,1,0
256,224,112698,1,0
256,288,113184,1,0
320,320,113670,6,0,B|320:320|160:320,1,130
192,256,114641,2,0,B|192:256|352:256,1,130
320,192,115613,2,0,B|320:192|160:192,1,130
192,128,116585,2,0,B|192:128|352:128,1,130
384,32,117556,6,0,B|384:32|320:64|448:96|352:160,1,130
384,224,118528,2,0,B|384:224|352:160|320:288|256:192,1,130
192,224,119500,2,0,B|192:224|160:160|128:288|64:192,1,130
96,160,120471,2,0,B|96:160|160:128|32:96|128:32,1,130
192,64,121443,5,0
192,64,121686,1,0
192,64,121929,1,0
320,64,122415,1,0
320,64,122658,1,0
320,64,122900,1,0
256,128,123386,1,0
256,128,123629,1,0
256,128,123872,1,0
256,224,124358,1,0
256,224,124601,1,0
256,224,124844,1,0
416,288,125330,5,0
320,288,125815,2,0,B|320:288|160:288,1,130
96,288,126787,1,0
96,288,127030,1,0
96,224,127273,2,0,B|96:224|256:224,1,130
320,224,128245,1,0
320,224,128488,1,0
320,224,128730,1,0
192,224,129216,5,0
192,288,129702,1,0
192,352,130188,1,0
256,352,130674,1,0
320,352,131160,1,0
320,288,131645,1,0
320,224,132131,1,0
256,224,132617,1,0
256,288,133103,5,0
256,288,133346,1,0
192,256,133589,1,0
192,256,133832,1,0
192,192,134075,5,0
192,192,134317,1,0
256,160,134560,1,0
256,160,134803,1,0
320,192,135046,5,0
320,192,135289,1,0
320,256,135532,1,0
320,256,135775,1,0
256,224,136018,5,0
256,224,136261,1,0
256,224,136504,1,0
256,224,136747,1,0
320,224,136990,6,0,B|320:224|320:64,1,130
320,32,137961,1,0
320,32,138204,1,0
320,32,138447,1,0
192,32,138933,6,0,B|192:32|192:192,1,130
192,224,139905,1,0
192,224,140147,1,0
192,224,140390,1,0
192,288,140876,6,0,B|192:288|256:320|320:288,1,130
288,224,141848,1,0
224,224,142334,1,0
224,160,142820,1,0
288,160,143305,1,0
320,96,143791,2,0,B|320:96|256:64|192:96,1,130
160,160,144763,5,0
160,160,145006,1,0
160,160,145249,1,0
160,256,145734,2,0,B|160:256|288:160,1,130
352,160,146706,5,0
352,160,146949,1,0
352,160,147192,1,0
352,256,147678,2,0,B|352:256|224:160,1,130
192,96,148649,6,0,B|192:96|352:96,4,130
256,224,151564,1,0
256,224,151807,1,0
256,224,152050,1,0
320,160,152536,6,0,B|320:160|320:128|288:96,3,65
224,96,153508,2,0,B|224:96|192:128|192:160,3,65
192,224,154479,2,0,B|192:224|192:256|224:288,3,65
288,288,155451,2,0,B|288:288|320:256|320:224,3,65
256,192,156423,12,0,160309
192,128,167840,1,0
256,128,168083,1,0
256,128,168326,1,0
256,128,168568,1,0
320,256,170026,1,0
256,256,170269,1,0
256,256,170512,1,0
192,96,171969,5,0
192,96,172212,1,0
192,160,172455,1,0
192,160,172698,1,0
192,224,172941,1,0
320,288,173913,1,0
320,288,174156,1,0
320,224,174398,2,0,B|320:224|320:64,1,130
192,64,175856,6,0,B|192:64|128:128,1,65
109,148,176342,1,0
64,256,177799,2,0,B|64:256|128:320,1,65
149,340,178285,1,0
320,352,179743,2,0,B|320:352|384:288,1,65
400,264,180228,1,0
427,162,181686,5,0
391,121,181929,1,0
354,82,182172,1,0
311,49,182415,1,0
256,32,182658,2,0,B|256:32|256:192,1,130
256,320,183629,6,0,B|256:320|160:320|128:224,1,130
160,160,184601,2,0,B|160:160|160:64|256:32,1,130
288,64,185573,2,0,B|288:64|384:64|416:160,1,130
416,224,186544,2,0,B|416:224|416:320|320:352,1,130
256,320,187516,6,0,B|256:320|256:256,1,65
286,210,188002,1,0
228,210,188245,1,0
257,159,188488,1,0
256,64,188973,1,0
160,32,189459,6,0,B|160:32|160:192,1,130
256,160,190431,2,0,B|256:160|256:320,1,130
320,352,191403,6,0,B|320:352|416:352|416:224,1,130
416,160,192374,1,0
416,64,192860,1,0
320,64,193346,2,0,B|320:64|160:64,1,130
96,64,194317,1,0
96,160,194803,1,0
96,256,195289,2,0,B|96:256|96:352|192:352,1,130
256,352,196261,1,0
256,256,196747,1,0
256,192,197232,12,0,198690
192,288,201119,6,0,B|192:288|128:256|96:128|192:32|320:32|416:128|352:288|288:320,1,520
256,192,203548,1,0
256,192,204520,1,0
256,192,205492,1,0
256,192,206463,1,0
256,128,206949,5,0
256,64,207435,2,0,B|256:64|416:64,1,130
384,64,208407,1,0
448,64,208892,5,0
448,128,209378,2,0,B|448:128|448:288,1,130
448,256,210350,1,0
448,320,210836,5,0
384,320,211322,2,0,B|384:320|224:320,1,130
256,320,212293,1,0
192,320,212779,5,0
128,320,213265,1,0
64,320,213751,1,0
64,256,214237,1,0
64,192,214722,5,0
64,128,215208,1,0
64,64,215694,1,0
128,64,216180,1,0
192,64,216666,5,0
256,64,217151,1,0
256,128,217637,1,0
256,192,218123,1,0
256,192,218609,12,0,222010
