osu file format v4

[General]
AudioFilename: harderbetterstrongerfaster.mp3
AudioLeadIn: 0
AudioHash: d98cddfe7aacf12b52da11ec5c27fb83
PreviewTime: -1
Countdown: 1
SampleSet: Normal

[Metadata]
Title:Harder Better Faster Stronger
Artist:Daft Punk
Creator:agentkt
Version:Hard

[Difficulty]
HPDrainRate:7
CircleSize:7
OverallDifficulty:8
SliderMultiplier: 1.6
SliderTickRate: 4

[Events]
//Background and Video events
0,-100000,"harderbetterfs.jpg"
//Break Periods
2,82790,93051
2,160523,166897
//Storyboard Layer 0 (Background)
//Storyboard Layer 1 (Failing)
//Storyboard Layer 2 (Passing)
//Storyboard Layer 3 (Foreground)
//Storyboard Sound Samples
//Background Colour Transformations
3,100,163,162,255

[TimingPoints]
-14,485.82995951417,4,1,0,100

[HitObjects]
256,288,8730,1,0
256,192,9216,1,0
256,96,9702,2,0,B|256:96|352:80|352:208,1,160
448,192,10674,1,0
352,192,11160,1,0
256,192,11645,1,0
160,192,12131,1,0
256,96,16504,5,0
256,192,16990,1,0
256,288,17475,2,0,B|256:288|144:304|160:160,1,160
64,192,18447,1,0
160,192,18933,1,0
256,192,19419,1,0
256,128,19662,1,0
320,128,19905,1,0
320,192,20147,1,0
80,144,24277,5,0
176,144,24763,2,0,B|176:144|352:144,2,160
176,240,26220,1,0
272,240,26706,2,0,B|272:240|448:240,2,160
256,64,32050,5,0
192,128,32536,1,0
128,192,33022,1,0
192,256,33508,1,0
256,320,33994,1,0
320,256,34479,2,0,B|320:256|368:192|320:96,2,160
256,64,39824,5,0
192,128,40309,1,0
256,192,40795,1,0
192,256,41281,1,0
256,320,41767,1,0
320,256,42253,1,0
256,192,42739,1,0
320,128,43224,1,0
256,96,47597,5,0
160,96,48083,2,0,B|160:96|48:96|64:208,2,160
256,96,49540,1,0
352,96,50026,2,0,B|352:96|464:96|448:208,2,160
256,96,51483,5,0
256,96,51726,1,0
256,192,52455,1,0
256,192,52698,1,0
256,288,53427,1,0
256,288,53670,1,0
352,288,54398,1,0
352,288,54641,1,0
352,192,55370,5,0
352,96,55856,2,0,B|352:96|160:96,2,160
448,96,57313,1,0
448,192,57799,2,0,B|448:192|272:192,2,160
352,288,59743,5,0
288,288,59986,1,0
192,288,60714,2,0,B|192:288|192:176,1,80
192,112,61686,1,0
256,112,61929,1,0
352,112,62658,2,0,B|352:112|352:208,1,80
352,256,63143,5,0
256,256,63629,2,0,B|256:256|128:128,2,160
256,160,65087,1,0
256,64,65573,2,0,B|256:64|384:192,2,160
352,64,67030,5,0
352,64,67273,1,0
448,64,68002,2,0,B|448:64|448:160,1,80
352,144,68973,1,0
352,144,69216,1,0
448,144,69945,2,0,B|448:144|448:240,1,80
448,320,70917,6,0,B|448:320|272:320,3,160
192,320,72860,1,0
256,256,73346,1,0
256,160,73832,1,0
256,64,74317,1,0
160,64,75289,5,0
160,64,75532,1,0
64,64,76261,2,0,B|64:64|64:160,1,80
160,144,77232,1,0
160,144,77475,1,0
64,144,78204,2,0,B|64:144|64:240,1,80
160,224,79176,6,0,B|160:224|96:160|96:64|256:16|416:64|416:176|352:240,2,480
432,320,94237,6,0,B|432:320|368:256,3,80
336,224,95208,6,0,B|336:224|272:288,3,80
224,304,96180,6,0,B|224:304|160:240,3,80
160,192,97151,5,0
96,192,97394,1,0
96,128,97637,1,0
160,128,97880,1,0
160,64,98123,5,0
224,64,98366,1,0
288,64,98609,2,0,B|288:64|384:64,1,80
368,128,99095,1,0
304,128,99338,1,0
240,128,99581,2,0,B|240:128|144:128,1,80
160,192,100066,5,0
112,240,100309,1,0
160,288,100552,1,0
208,240,100795,1,0
272,240,101038,1,0
320,192,101281,1,0
368,240,101524,1,0
320,288,101767,1,0
256,288,102010,5,0
176,256,102496,1,0
176,160,102981,1,0
256,112,103467,1,0
336,160,103953,1,0
336,256,104439,1,0
256,304,104925,1,0
256,208,105411,1,0
256,112,105896,5,0
256,48,106139,1,0
192,48,106382,2,0,B|192:48|160:80|192:128,1,80
192,176,106868,1,0
128,176,107111,1,0
64,176,107354,2,0,B|64:176|32:144|64:96,1,80
64,48,107840,1,0
128,48,108083,5,0
192,48,108326,2,0,B|192:48|272:112,1,80
256,160,108811,1,0
256,160,109054,1,0
256,160,109297,1,0
256,160,109540,1,0
256,96,109783,5,0
176,128,110269,1,0
176,224,110755,1,0
256,272,111241,1,0
336,224,111726,1,0
336,128,112212,1,0
256,80,112698,1,0
256,176,113184,1,0
256,272,113670,5,0
192,256,113913,1,0
144,208,114156,1,0
144,208,114398,1,0
192,160,114641,5,0
240,208,114884,1,0
304,224,115127,1,0
304,224,115370,1,0
352,176,115613,5,0
288,160,115856,1,0
240,112,116099,1,0
240,112,116342,1,0
288,64,116585,5,0
336,112,116828,1,0
400,128,117071,1,0
400,128,117313,1,0
400,64,117556,6,0,B|400:64|464:144|384:224,1,160
304,208,118528,2,0,B|304:208|240:288|320:368,1,160
400,352,119500,2,0,B|400:352|464:272|384:192,1,160
304,208,120471,2,0,B|304:208|240:128|320:48,1,160
400,64,121443,5,0
368,128,121686,1,0
304,160,121929,1,0
240,160,122172,1,0
240,224,122415,5,0
208,288,122658,1,0
144,320,122900,1,0
80,320,123143,1,0
80,256,123386,5,0
112,192,123629,1,0
176,160,123872,1,0
240,160,124115,1,0
304,160,124358,5,0
336,96,124601,1,0
400,64,124844,1,0
464,64,125087,1,0
464,128,125330,5,0
464,128,125573,1,0
464,192,125815,2,0,B|464:192|464:288,1,80
464,336,126301,1,0
464,336,126544,1,0
400,336,126787,2,0,B|400:336|304:336,1,80
256,336,127273,1,0
256,336,127516,1,0
256,272,127759,2,0,B|256:272|256:176,1,80
256,128,128245,1,0
256,128,128488,1,0
256,128,128730,1,0
256,128,128973,1,0
256,192,129216,5,0
192,256,129702,1,0
256,320,130188,1,0
320,256,130674,1,0
256,192,131160,1,0
192,128,131645,1,0
256,64,132131,1,0
320,128,132617,1,0
256,192,133103,5,0
256,192,133346,1,0
192,224,133589,1,0
192,224,133832,1,0
192,160,134075,5,0
192,160,134317,1,0
256,128,134560,1,0
256,128,134803,1,0
320,160,135046,5,0
320,160,135289,1,0
320,224,135532,1,0
320,224,135775,1,0
256,256,136018,5,0
256,256,136261,1,0
256,192,136504,1,0
256,192,136747,1,0
320,192,136990,6,0,B|320:192|432:176|416:48,1,160
320,80,137961,1,0
256,80,138204,1,0
192,80,138447,1,0
96,80,138933,2,0,B|96:80|64:192|176:192,1,160
256,192,139905,1,0
256,256,140147,1,0
256,320,140390,1,0
368,320,140876,6,0,B|368:320|464:320|464:208,2,160
256,320,142334,1,0
160,320,142820,2,0,B|160:320|64:320|64:208,2,160
256,320,144277,1,0
256,240,144763,5,0
208,192,145006,1,0
144,160,145249,1,0
80,96,145734,1,0
144,64,145977,1,0
208,48,146220,1,0
304,48,146706,5,0
368,64,146949,1,0
432,96,147192,1,0
368,160,147678,1,0
304,192,147921,1,0
256,240,148164,1,0
256,144,148649,5,0
256,144,148771,1,0
256,80,149014,1,0
256,16,149257,1,0
256,16,149378,1,0
320,16,149621,2,0,B|320:16|320:112,1,80
320,160,150107,1,0
384,160,150350,1,0
432,160,150471,2,0,B|432:160|432:48,1,80
368,80,150957,1,0
304,80,151322,2,0,B|304:80|192:80,4,80
352,32,152536,5,0
416,32,152779,1,0
464,80,153022,1,0
464,144,153265,1,0
416,192,153508,1,0
368,240,153751,1,0
320,288,153994,1,0
256,288,154237,1,0
192,288,154479,5,0
144,240,154722,1,0
96,192,154965,1,0
96,128,155208,1,0
144,80,155451,1,0
208,80,155694,1,0
256,128,155937,1,0
256,192,156180,1,0
256,192,156423,12,0,160309
112,96,167840,1,0
112,96,167961,1,0
112,96,168083,1,0
176,96,168326,2,0,B|176:96|272:96,1,80
352,96,169054,1,0
432,96,169419,1,0
432,192,169905,5,0
352,192,170269,1,0
288,192,170512,1,0
208,192,170998,2,0,B|208:192|32:192,1,160
48,96,171969,5,0
96,48,172212,1,0
144,96,172455,1,0
192,48,172698,1,0
240,96,172941,2,0,B|240:96|416:96,1,160
400,192,173913,1,0
352,240,174156,1,0
304,192,174398,2,0,B|304:192|128:192,1,160
208,48,175856,5,0
160,96,176099,1,0
208,144,176342,1,0
160,192,176585,1,0
160,256,176828,2,0,B|160:256|160:368|272:352,1,160
352,352,177799,5,0
400,304,178042,1,0
352,256,178285,1,0
400,208,178528,1,0
400,144,178771,2,0,B|400:144|400:32|304:48,1,160
208,48,179743,5,0
208,112,179985,1,0
208,176,180228,2,0,B|208:176|320:176|304:80,1,160
400,80,181200,1,0
304,80,181686,5,0
256,128,181929,1,0
208,176,182172,1,0
256,224,182415,1,0
304,272,182658,1,0
336,304,182779,1,0
288,352,183022,1,0
256,320,183143,2,0,B|256:320|192:256,1,80
144,208,183629,6,0,B|144:208|208:128,1,80
240,96,184115,1,0
320,96,184601,2,0,B|320:96|384:176,1,80
416,208,185087,1,0
416,208,185330,1,0
368,256,185573,2,0,B|368:256|272:256,1,80
224,256,186058,1,0
224,256,186301,1,0
160,256,186544,2,0,B|160:256|160:160,1,80
160,112,187030,1,0
160,112,187273,1,0
224,112,187516,5,0
288,112,187759,1,0
256,176,188002,1,0
320,176,188245,2,0,B|320:176|368:240|256:288|144:240|208:160,1,240
192,80,189459,5,0
272,80,189824,1,0
352,80,190188,2,0,B|352:80|352:176,1,80
352,240,190795,1,0
352,304,191038,1,0
272,304,191403,6,0,B|272:304|176:304,1,80
128,304,191888,1,0
128,240,192131,1,0
128,176,192374,2,0,B|128:176|128:80|224:64,1,160
304,64,193346,2,0,B|304:64|400:64,1,80
448,64,193832,1,0
448,128,194075,1,0
448,192,194317,2,0,B|448:192|448:288|368:320,1,160
272,320,195289,5,0
224,272,195532,1,0
272,224,195775,1,0
224,176,196018,1,0
272,128,196261,1,0
256,32,196747,1,0
352,32,197232,5,0
400,80,197475,1,0
352,128,197718,1,0
400,176,197961,1,0
352,224,198204,1,0
320,256,198326,1,0
272,304,198568,1,0
240,336,198690,2,0,B|240:336|144:336,1,80
208,64,201119,6,0,B|208:64|96:128|96:256|208:352|304:352|416:256|416:128|288:64,1,640
256,176,203548,1,0
256,176,204520,1,0
256,176,205492,1,0
256,176,206463,1,0
256,80,206949,5,0
304,32,207192,1,0
352,80,207435,1,0
400,32,207678,1,0
368,192,208892,5,0
416,240,209135,1,0
368,288,209378,1,0
416,336,209621,1,0
256,304,210836,5,0
208,352,211079,1,0
160,304,211322,1,0
112,352,211565,1,0
176,160,212779,5,0
176,96,213022,1,0
240,96,213265,1,0
240,160,213508,1,0
304,160,213751,1,0
304,96,213994,1,0
368,96,214237,1,0
368,160,214479,1,0
368,224,214722,5,0
352,288,214965,1,0
304,240,215208,1,0
288,304,215451,1,0
240,256,215694,1,0
224,320,215937,1,0
176,272,216180,1,0
160,336,216423,1,0
112,288,216666,5,0
64,240,216909,1,0
128,224,217151,1,0
80,176,217394,1,0
96,112,217637,1,0
144,160,217880,1,0
160,96,218123,1,0
112,48,218366,1,0
176,32,218609,5,0
224,80,218852,1,0
240,16,219095,1,0
288,64,219338,1,0
272,128,219581,1,0
336,112,219824,1,0
384,160,220066,1,0
320,176,220309,1,0
256,192,220552,5,0
208,240,220795,1,0
272,256,221038,1,0
320,208,221281,1,0
304,144,221524,1,0
240,128,221767,1,0
192,176,222010,1,0
256,192,222253,1,0
