osu file format v4

[General]
AudioFilename: harderbetterstrongerfaster.mp3
AudioLeadIn: 0
AudioHash: d98cddfe7aacf12b52da11ec5c27fb83
PreviewTime: -1
Countdown: 1
SampleSet: Normal
EditorBookmarks: 8744

[Metadata]
Title:Harder Better Faster Stronger
Artist:Daft Punk
Creator:agentkt
Version:Easy

[Difficulty]
HPDrainRate:3
CircleSize:5
OverallDifficulty:3
SliderMultiplier: 0.899999999999999
SliderTickRate: 1

[Events]
//Background and Video events
0,-100000,"harderbetterfs.jpg"
//Break Periods
2,82790,93051
2,160523,166897
//Storyboard Layer 0 (Background)
//Storyboard Layer 1 (Failing)
//Storyboard Layer 2 (Passing)
//Storyboard Layer 3 (Foreground)
//Storyboard Sound Samples
//Background Colour Transformations
3,100,163,162,255

[TimingPoints]
-14,485.82995951417,4,1,0,100

[HitObjects]
160,96,8730,1,0
352,96,9702,1,0
352,288,10674,1,0
160,288,11645,1,0
160,288,16504,5,0
352,288,17475,1,0
352,96,18447,1,0
160,96,19419,1,0
160,128,24277,6,0,B|160:128|256:96|352:128,3,180
352,256,32050,6,0,B|352:256|256:288|160:256,3,180
64,96,39824,5,0
192,288,40795,1,0
192,96,41767,1,0
64,288,42739,1,0
448,96,47597,5,0
320,320,48568,1,0
448,320,49540,1,0
320,96,50512,1,0
128,96,51483,5,0
128,96,52455,1,0
128,288,53427,1,0
128,288,54398,1,0
320,96,55370,6,0,B|320:96|320:192|320:288,1,180
192,288,57313,2,0,B|192:288|192:96,1,180
384,96,59743,5,0
384,96,60714,1,0
384,288,61686,1,0
384,288,62658,1,0
160,96,63629,6,0,B|160:96|160:288,1,180
352,288,65573,2,0,B|352:288|352:96,1,180
448,96,67030,5,0
352,96,68002,2,0,B|352:96|160:96,1,180
64,96,69945,1,0
192,64,70917,6,0,B|192:64|96:128|96:256|192:352|320:352|416:256|416:128|320:64,1,629.999999999999
416,320,75289,5,0
320,320,76261,2,0,B|320:320|128:320,1,180
64,320,78204,1,0
192,320,79176,6,0,B|192:320|96:256|96:128|192:32|320:32|416:128|416:256|320:320,1,629.999999999999
96,64,94237,5,0
192,160,95208,1,0
288,64,96180,1,0
416,160,97151,1,0
352,320,98123,5,0
352,320,98609,1,0
256,320,99095,1,0
256,320,99581,1,0
160,320,100066,1,0
160,320,100552,1,0
256,224,101038,1,0
256,224,101524,1,0
256,128,102010,6,0,B|256:128|160:160|128:288,1,180
256,256,103953,2,0,B|256:256|352:224|384:128,1,180
160,64,105896,5,0
160,64,106382,1,0
256,64,106868,1,0
256,64,107354,1,0
352,64,107840,1,0
352,64,108326,1,0
256,160,108811,1,0
256,160,109297,1,0
256,256,109783,5,0
160,160,110755,1,0
256,64,111726,1,0
352,160,112698,1,0
352,288,113670,6,0,B|352:288|160:288,2,180
256,160,116585,1,0
256,160,117071,1,0
320,64,117556,6,0,B|320:64|224:64,1,89.9999999999999
160,64,118528,1,0
160,192,119500,2,0,B|160:192|256:192,1,89.9999999999999
320,192,120471,1,0
320,320,121443,5,0
320,320,121929,1,0
192,320,122415,1,0
192,320,122900,1,0
192,224,123386,1,0
192,224,123872,1,0
320,224,124358,1,0
320,224,124844,1,0
320,128,125330,6,0,B|320:128|320:32,3,89.9999999999999
192,32,127273,2,0,B|192:32|192:128,3,89.9999999999999
192,224,129216,5,0
192,288,129702,1,0
192,352,130188,1,0
256,352,130674,1,0
320,352,131160,1,0
320,288,131645,1,0
320,224,132131,1,0
256,224,132617,1,0
256,288,133103,6,0,B|256:288|160:288,1,89.9999999999999
160,224,134075,2,0,B|160:224|160:128,1,89.9999999999999
160,64,135046,2,0,B|160:64|256:64,1,89.9999999999999
320,64,136018,2,0,B|320:64|320:160,1,89.9999999999999
320,224,136990,6,0,B|320:224|224:224,1,89.9999999999999
160,224,137961,1,0
160,224,138447,1,0
160,128,138933,6,0,B|160:128|256:128,1,89.9999999999999
320,128,139905,1,0
320,128,140390,1,0
320,32,140876,6,0,B|320:32|224:32,1,89.9999999999999
160,32,141848,1,0
160,32,142334,1,0
160,128,142820,2,0,B|160:128|320:256,1,180
448,256,144763,5,0
320,320,145734,1,0
192,320,146706,1,0
64,256,147678,1,0
192,192,148649,2,0,B|192:192|288:192,7,89.9999999999999
384,192,152536,6,0,B|384:192|320:128,1,89.9999999999999
256,96,153508,2,0,B|256:96|192:160,1,89.9999999999999
160,224,154479,2,0,B|160:224|224:288,1,89.9999999999999
288,320,155451,2,0,B|288:320|352:256,1,89.9999999999999
256,192,156423,12,0,160309
224,128,168083,1,0
288,128,168568,1,0
352,128,169054,1,0
288,256,170026,1,0
224,256,170512,1,0
160,256,170998,1,0
192,96,171969,5,0
192,160,172455,1,0
192,224,172941,1,0
320,288,173913,1,0
320,224,174398,1,0
320,160,174884,1,0
320,320,175856,5,0
320,320,176342,1,0
192,320,177799,1,0
192,320,178285,1,0
256,192,179743,1,0
256,192,180228,1,0
256,64,181686,5,0
320,128,182172,1,0
256,192,182658,1,0
192,128,183143,1,0
256,64,183629,6,0,B|256:64|256:256,1,180
256,352,185573,1,0
256,352,186058,1,0
160,256,187516,1,0
160,192,188002,1,0
160,128,188488,1,0
352,128,189459,1,0
352,192,189945,1,0
352,256,190431,1,0
256,352,191403,6,0,B|256:352|256:256,3,89.9999999999999
256,192,193346,2,0,B|256:192|256:96,3,89.9999999999999
256,32,195289,1,0
256,32,195775,1,0
256,32,196261,1,0
256,32,196747,1,0
256,128,197232,6,0,B|256:128|256:224,1,89.9999999999999
256,288,198204,1,0
256,288,198690,1,0
128,288,199176,6,0,B|128:288|256:352|416:288,1,270
384,192,201119,2,0,B|384:192|256:256|96:192,1,270
192,128,203062,6,0,B|192:128|288:128,7,89.9999999999999
352,64,206949,5,0
352,64,207435,1,0
448,192,208892,1,0
448,192,209378,1,0
352,320,210836,1,0
352,320,211322,1,0
256,224,212779,2,0,B|256:224|256:160|256:128,3,89.9999999999999
160,64,214722,5,0
160,64,215208,1,0
64,192,216666,1,0
64,192,217151,1,0
160,320,218609,1,0
160,320,219095,1,0
256,256,220552,2,0,B|256:256|256:160,3,89.9999999999999
