osu file format v9

[General]
AudioFilename: Midnight Fusion.mp3
AudioLeadIn: 0
PreviewTime: -1
Countdown: 0
SampleSet: Normal
StackLeniency: 0.7
Mode: 0
LetterboxInBreaks: 1

[Editor]
DistanceSpacing: 1
BeatDivisor: 4
GridSize: 8

[Metadata]
Title:Midnight Fusion
Artist:Dachirumi
Creator:Kujo
Version:Insane
Source:
Tags:

[Difficulty]
HPDrainRate:9
CircleSize:4
OverallDifficulty:10
ApproachRate:8
SliderMultiplier:1.8
SliderTickRate:1

[Events]
//Background and Video events
0,0,"19471508.jpg"
//Break Periods
//Storyboard Layer 0 (Background)
//Storyboard Layer 1 (Fail)
//Storyboard Layer 2 (Pass)
//Storyboard Layer 3 (Foreground)
//Storyboard Sound Samples
//Background Colour Transformations
3,100,163,162,255

[TimingPoints]
1689.23417232045,333.333333333333,4,1,0,61,1,0

[HitObjects]
256,192,1689,1,0
472,264,2022,1,0
368,40,2355,1,0
208,272,2689,1,0
224,96,3022,1,0
272,176,3189,1,0
352,128,3355,1,0
272,176,3522,1,0
304,264,3689,1,0
272,176,3855,1,0
184,208,4022,1,0
96,48,4355,5,0
216,320,4689,1,0
432,72,5022,1,0
344,96,5189,1,0
256,256,5522,1,0
104,64,5855,1,0
104,336,6189,1,0
416,320,6522,1,0
256,256,6689,1,0
416,160,6855,1,0
248,104,7022,1,0
256,280,7355,5,0
56,112,7689,1,0
344,40,8022,1,0
168,240,8355,1,0
248,280,8522,1,0
168,240,8689,1,0
232,176,8855,1,0
168,240,9022,1,0
120,160,9189,1,0
168,240,9355,2,0,B|176:288|192:320|216:328|232:264|288:248,1,180
456,64,10022,5,0
352,312,10355,1,0
248,128,10522,1,0
104,336,10855,1,0
112,64,11189,1,0
200,304,11522,1,0
456,304,11689,2,0,B|408:272|456:224|352:224|464:160|480:120|432:96|352:136|456:232|480:96|448:64|368:112|360:152|368:200|416:216|464:208|496:176|424:144,1,360
96,80,15022,5,0
144,88,15105,1,0
168,128,15189,1,0
192,168,15272,1,0
224,192,15355,1,0
272,184,15439,1,0
312,176,15522,1,0
352,184,15605,1,0
352,232,15689,1,0
336,272,15772,1,0
312,312,15855,1,0
280,344,15939,1,0
240,328,16022,1,0
152,288,16105,1,0
72,240,16189,1,0
128,152,16355,5,0
152,192,16439,1,0
176,232,16522,1,0
264,232,16689,1,0
256,192,16772,1,0
240,152,16855,1,0
328,128,17022,1,0
344,168,17105,1,0
344,216,17189,1,0
432,224,17355,1,0
432,176,17439,1,0
424,136,17522,1,0
