osu file format v9

[General]
AudioFilename: {Runaway}.mp3
AudioLeadIn: 0
PreviewTime: 26198
Countdown: 1
SampleSet: Normal
StackLeniency: 1
Mode: 0
LetterboxInBreaks: 1

[Editor]
Bookmarks: 16,5835,14562,37835,43653,49471,61107,67289,72744,101835,126562
DistanceSpacing: 0.8
BeatDivisor: 4
GridSize: 8

[Metadata]
Title:{Runaway}
Artist:DaGrahamCraka
Creator:Buckdida
Version:Normal
Source:Newgrounds Audio Portal
Tags:Happy Hardcore Rave Newgrounds

[Difficulty]
HPDrainRate:4
CircleSize:5
OverallDifficulty:3
ApproachRate:4
SliderMultiplier:1.3
SliderTickRate:1

[Events]
//Background and Video events
0,0,"runaway_background_by_buckdida-d34newk.png"
//Break Periods
2,52216,59787
2,90398,100515
//Storyboard Layer 0 (Background)
//Storyboard Layer 1 (Fail)
//Storyboard Layer 2 (Pass)
//Storyboard Layer 3 (Foreground)
//Storyboard Sound Samples
//Background Colour Transformations
3,100,163,162,255

[TimingPoints]
5835,363.636363636364,4,1,0,50,1,0
26198,-100,4,1,0,50,0,1
37835,-100,4,1,0,50,0,0
101835,-100,4,2,0,60,0,0
126562,-100,4,1,0,60,0,1
138200,-100,4,1,0,60,0,0

[Colours]
Combo1 : 255,150,0
Combo2 : 5,240,5
Combo3 : 0,255,255
Combo4 : 240,5,5

[HitObjects]
48,72,5834,1,0
128,136,6198,1,0
208,72,6562,1,0
288,136,6925,1,0
368,72,7289,1,0
368,192,7653,1,0
456,136,8016,1,0
456,240,8380,5,0
456,240,8471,1,0
416,176,8744,1,0
344,248,9107,1,0
248,200,9471,1,0
152,152,9835,2,0,B|168:328|24:200|24:376,2,260,4|8|4
56,192,11653,5,4
88,96,12016,1,0
120,192,12380,1,0
88,288,12744,1,0
176,240,13107,1,0
176,144,13471,1,0
264,192,13835,1,0
368,192,14198,1,0
472,192,14562,5,0
344,32,15289,1,0
216,192,16016,1,0
352,352,16744,1,0
152,288,17471,1,0
112,192,17835,5,8
176,112,18198,1,0
240,192,18562,1,8
304,280,18925,1,0
360,192,19289,1,8
416,104,19653,1,0
472,192,20016,1,8
416,280,20380,1,0
360,192,20744,1,8
296,112,21107,1,0
232,192,21471,1,8
176,280,21835,1,0
256,192,22198,12,4,23289
160,256,24016,6,0,B|8:256,3,130
23,204,25289,6,0,B|55:132|135:125|172:213,1,195
96,224,26016,1,0
96,168,26198,6,2,B|96:56,1,97.5
168,40,26744,2,2,B|216:40|280:40,1,97.5
232,112,27289,2,8,B|296:112,1,65
352,120,27653,6,2,B|416:208,1,97.5
328,208,28198,2,2,B|232:224,1,97.5
208,296,28744,2,8,B|289:284,1,65
328,288,29107,6,2,B|432:288,1,97.5
424,208,29653,2,2,B|320:208,1,97.5
376,152,30198,2,8,B|376:56,1,65
336,48,30562,6,2,B|232:48,1,97.5
160,48,31107,2,2,B|56:48,1,97.5
64,128,31653,2,8,B|129:128,1,65
176,280,32380,5,8
384,280,33107,1,8
384,72,33834,1,8
176,72,34562,1,8
352,176,35289,5,8
344,280,35653,1,0
256,328,36016,1,8
248,224,36380,1,0
208,128,36743,1,8
144,208,37107,1,0
64,144,37471,1,8
32,248,37835,6,2,B|184:8|336:384|472:128,1,520
368,104,39653,1,8
448,296,40380,1,8
448,296,40562,1,8
472,248,40744,2,2,B|320:8|168:384|32:128,1,520
128,88,42562,1,8
48,280,43289,1,8
48,280,43471,1,8
200,248,44016,6,8,B|256:304|320:240,2,130
256,160,45107,1,0
316,75,45471,2,8,B|245:22|173:94,2,130
152,200,46925,2,8,B|184:136|256:120|328:136|368:200,1,260
256,216,48016,1,0
152,240,48380,2,8,B|184:304|256:320|328:304|368:240,1,260
256,192,49471,12,4,52016
288,48,61107,5,0
224,128,61471,2,2,B|384:128,1,130
280,200,62198,2,2,B|120:200,1,130
224,272,62925,2,2,B|384:272,1,130
168,184,64016,5,0
224,184,64198,1,0
272,272,64562,1,0
328,272,64744,1,0
416,328,65107,1,0
440,280,65289,1,0
440,232,65471,2,2,B|392:112|256:48|120:112|88:240,1,455,2|8
144,224,66925,6,2,B|191:308|262:211|309:295,2,195,2|2|2
208,144,68380,2,2,B|169:43|70:168|29:49,2,195,2|2|2
264,232,69835,2,2,B|365:193|240:94|359:53,2,195,2|2|2
248,128,71289,2,2,B|147:167|272:266|153:307,2,195
144,128,72744,5,0
160,224,73107,1,8
256,272,73471,1,0
256,168,73835,1,10
352,224,74198,1,0
368,128,74562,1,8
256,104,74925,1,0
256,208,75289,1,10
152,232,75653,5,0
152,128,76016,1,8
256,128,76380,1,0
256,232,76744,1,10
168,176,77107,1,0
272,176,77471,1,8
368,128,77835,1,0
440,200,78198,1,10
408,296,78562,5,0
317,245,78925,1,8
421,244,79289,1,0
332,298,79653,1,10
306,197,80016,1,0
223,134,80380,1,8
327,132,80744,1,0
245,196,81107,1,10
152,160,81471,5,0
152,56,81835,1,8
256,56,82198,1,0
256,160,82562,1,10
360,160,82925,1,0
360,56,83289,1,8
464,56,83653,1,0
464,160,84016,1,10
360,136,84380,6,2,B|344:84|309:84|296:84|264:156,2,130
256,160,85471,1,8
152,184,85835,2,2,B|168:236|203:236|216:236|248:164,2,130
256,128,86925,1,8
256,232,87289,5,0
256,336,87653,1,8
204,245,88016,1,0
308,248,88380,1,8
309,143,88744,1,0
205,143,89107,1,8
200,40,89471,1,0
312,40,89835,1,8
256,128,90198,1,4
32,320,101835,6,2,B|448:64,1,390
464,88,103289,1,0
448,240,103835,1,0
344,312,104289,1,0
224,360,104744,2,2,B|144:360|104:336|72:288|88:184,1,260
296,192,106198,6,2,B|456:64,1,195
376,208,107289,1,8
456,144,107653,1,8
256,80,108380,1,4
72,184,109107,5,2
144,48,109653,2,2,B|368:48,1,195
448,48,110562,2,2,B|448:176|320:72|272:208,1,260
384,48,112016,5,8
352,200,112562,1,8
200,224,113107,1,8
288,216,113471,2,0,B|257:308|201:324|137:308|113:204,1,260,8|0
200,224,114562,5,4
400,264,115289,1,2
336,344,115653,1,2
472,192,116380,2,0,B|424:64|304:240|240:80,1,260
328,32,117471,1,4
408,224,118198,1,2
408,328,118562,1,2
208,280,119289,6,0,L|152:344|72:280|120:224,1,260
216,176,120380,1,4
408,96,121107,1,2
304,96,121471,1,2
96,88,122198,2,0,B|24:144|8:208|32:248|96:312,1,260
192,336,123289,1,4
256,256,123653,2,0,B|160:240|136:160|160:72|216:32|336:32|408:128|320:256|296:216,1,455
256,192,125107,12,0,126198
72,48,126562,6,2,B|176:48,1,97.5
248,48,127107,2,2,B|360:48,1,97.5
424,48,127653,1,8
448,96,127835,1,8
448,144,128016,6,2,B|344:144,1,97.5
272,144,128561,2,2,B|160:144,1,97.5
96,144,129107,1,8
72,192,129289,1,8
72,240,129471,6,2,B|176:240,1,97.5
248,240,130016,2,2,B|360:240,1,97.5
424,240,130562,1,8
448,288,130744,1,8
448,336,130925,6,2,B|344:336,1,97.5
272,336,131470,2,2,B|160:336,1,97.5
96,336,132016,1,8
72,288,132198,1,8
72,235,132380,6,2,B|72:131,1,97.5
152,136,132925,2,2,B|152:24,1,97.5
232,40,133471,1,8
232,88,133653,1,8
232,136,133835,6,2,B|336:136,1,97.5
408,136,134380,2,2,B|408:248,1,97.5
408,312,134926,1,8
360,312,135108,1,8
256,192,135289,12,4,138198
