osu file format v9

[General]
AudioFilename: {Runaway}.mp3
AudioLeadIn: 0
PreviewTime: 26198
Countdown: 1
SampleSet: Normal
StackLeniency: 0.3
Mode: 0
LetterboxInBreaks: 1

[Editor]
Bookmarks: 16,5835,11835,25835,37835,43653,49471,61107,67289,69835,72744,75653,81471,84380,87289,90198,101835,106198,112016,119289,126562
DistanceSpacing: 0.6
BeatDivisor: 4
GridSize: 4

[Metadata]
Title:{Runaway}
Artist:DaGrahamCraka
Creator:Buckdida
Version:Insane
Source:Newgrounds Audio Portal
Tags:Happy Hardcore Rave

[Difficulty]
HPDrainRate:7
CircleSize:5
OverallDifficulty:7
ApproachRate:6
SliderMultiplier:2.1
SliderTickRate:2

[Events]
//Background and Video events
0,0,"runaway_background_by_buckdida-d34newk.png"
//Break Periods
2,52216,60057
2,90398,100785
//Storyboard Layer 0 (Background)
//Storyboard Layer 1 (Fail)
//Storyboard Layer 2 (Pass)
//Storyboard Layer 3 (Foreground)
//Storyboard Sound Samples
//Background Colour Transformations
3,100,163,162,255

[TimingPoints]
5835,363.636363636364,4,1,0,70,1,0
11744,-100,4,1,0,50,0,0
26198,-100,4,1,0,50,0,1
32335,-100,4,1,0,75,0,1
32425,-100,4,1,0,50,0,1
33062,-100,4,1,0,75,0,1
33153,-100,4,1,0,50,0,1
33789,-100,4,1,0,75,0,1
33880,-100,4,1,0,50,0,1
34516,-100,4,1,0,75,0,1
34607,-100,4,1,0,50,0,1
35244,-100,4,1,0,75,0,1
35335,-100,4,1,0,50,0,1
35971,-100,4,1,0,75,0,1
36062,-100,4,1,0,50,0,1
36698,-100,4,1,0,75,0,1
36789,-100,4,1,0,50,0,1
37425,-100,4,1,0,75,0,1
37516,-100,4,1,0,50,0,1
37835,-100,4,1,0,50,0,0
44653,-100,4,1,0,75,0,0
45107,-100,4,1,0,50,0,0
46107,-100,4,1,0,70,0,0
46471,-100,4,1,0,50,0,0
101835,-100,4,2,0,60,0,0
126562,-76.9230769230769,4,1,0,80,0,1
138198,-76.9230769230769,4,1,0,80,0,0

[Colours]
Combo1 : 255,150,0
Combo2 : 5,240,5
Combo3 : 0,255,255
Combo4 : 255,0,0

[HitObjects]
88,192,5835,1,0
184,192,6107,1,0
152,192,6198,1,0
280,192,6562,1,0
236,76,6925,1,0
108,76,7289,1,0
236,76,7653,1,0
280,192,8016,1,0
236,308,8380,1,0
204,308,8471,1,0
140,308,8653,1,0
108,308,8744,1,4
156,192,9107,1,0
284,192,9471,1,0
412,192,9835,1,0
284,192,10198,5,0
348,192,10380,1,0
348,128,10562,1,0
412,128,10744,1,0
412,64,10925,1,0
380,64,11016,1,0
348,64,11107,1,0
316,72,11198,1,0
288,84,11289,1,0
268,108,11380,1,0
256,136,11471,1,0
256,168,11562,1,0
256,200,11653,1,4
256,264,11835,5,0
288,316,12016,1,0
224,316,12198,1,0
192,264,12380,1,0
224,208,12562,1,0
288,208,12744,1,8
316,264,12925,1,2
348,316,13107,1,0
380,264,13289,1,0
412,316,13471,1,0
444,264,13653,1,0
412,208,13835,1,0
348,208,14016,1,0
380,152,14198,1,8
444,152,14380,1,2
412,100,14562,5,0
348,100,14744,1,0
316,152,14925,1,0
284,208,15107,1,0
252,152,15289,1,0
284,100,15471,1,0
220,100,15653,1,8
156,100,15835,1,2
92,100,16016,1,0
60,152,16198,1,0
124,152,16380,1,0
188,152,16562,1,0
220,208,16744,1,0
156,208,16925,1,0
92,208,17107,1,4
184,296,17471,5,0
256,192,17835,1,8
328,296,18198,1,0
364,244,18380,1,0
400,192,18562,1,12
328,88,18925,1,0
256,192,19289,1,8
184,88,19653,1,0
148,140,19835,1,0
112,192,20016,1,12
184,296,20380,1,0
256,192,20744,1,8
324,296,21107,1,0
288,244,21289,1,0
256,192,21471,1,12
256,64,21835,1,0
256,192,22198,12,4,23289
192,192,23653,5,0
312,228,24016,1,0
192,268,24380,1,0
312,304,24744,1,0
256,192,25107,1,0
228,136,25289,1,0
256,120,25380,1,0
284,136,25471,1,0
296,76,25653,1,0
256,28,25835,1,0
216,76,26016,1,0
88,336,26198,5,8
44,252,26471,1,8
128,212,26744,1,8
44,168,27016,1,8
128,120,27289,2,2,B|128:16,1,105
92,68,27653,1,8
180,32,27926,1,8
228,112,28199,1,8
276,32,28471,1,8
324,112,28744,2,2,B|428:112,1,105
428,48,29107,5,8
472,132,29380,1,8
388,176,29653,1,8
472,220,29925,1,8
388,260,30198,2,2,B|388:364,1,105
428,316,30562,1,8
348,364,30835,1,8
304,280,31108,1,8
260,364,31380,1,8
212,280,31653,2,2,B|108:280,1,105
44,280,32016,5,10
44,184,32289,1,2
44,184,32380,1,8
44,120,32562,1,2
136,148,32835,1,2
136,52,33107,1,8
176,100,33289,1,2
240,100,33471,1,2
336,100,33744,1,2
336,100,33835,1,8
336,36,34016,1,2
432,36,34289,1,2
464,124,34562,1,8
400,124,34744,1,2
432,180,34925,5,2
432,276,35198,1,2
432,276,35289,1,8
388,228,35471,1,2
388,324,35744,1,2
308,276,36016,1,8
244,276,36198,1,2
180,276,36380,1,2
84,276,36653,1,2
84,276,36744,1,8
84,212,36925,1,2
180,208,37198,1,2
148,120,37471,1,8
212,120,37653,1,0
256,192,37835,12,2,39289
356,136,39471,5,0
388,192,39653,1,8
420,136,39835,1,0
452,192,40016,1,2
420,248,40198,1,0
356,248,40380,1,8
324,192,40562,1,4
256,192,40744,12,2,42198
156,136,42380,5,0
124,192,42562,1,8
92,136,42744,1,0
60,192,42925,1,2
92,248,43107,1,0
156,248,43289,1,8
188,192,43471,1,4
188,128,43653,6,2,B|220:88|257:72|300:96|339:148,2,157.5,2|10|2
124,200,44471,1,8
224,200,44744,1,8
288,200,44925,1,8
324,252,45108,2,2,B|286:288|260:300|216:292|176:236,2,157.5,2|10|2
400,196,45925,1,8
256,196,46199,1,8
256,196,46380,1,8
218,246,46562,2,8,B|154:193|195:100|294:95|324:154|344:201|292:250,1,315,10|10
256,60,47653,1,8
216,180,48016,2,8,B|151:233|192:326|291:331|321:272|341:225|289:176,1,315,10|10
253,232,49107,1,8
253,232,49289,1,8
256,192,49471,8,4,52016
256,32,61107,5,0
184,92,61380,1,0
184,92,61471,2,2,B|300:92|300:92|376:24,1,210
320,144,62198,2,2,B|204:144|204:144|128:212,1,210
136,332,62925,2,2,B|360:332,1,210
472,332,63653,5,0
472,332,63744,1,0
472,268,63925,1,0
472,268,64016,1,0
472,204,64198,1,0
472,140,64380,1,0
416,168,64562,1,0
416,104,64744,1,0
360,136,64925,1,0
308,104,65107,1,0
308,168,65289,1,0
252,136,65471,5,0
228,116,65562,1,0
196,112,65653,1,0
164,116,65744,1,0
136,128,65835,1,0
112,148,65925,1,0
96,176,66016,1,0
88,208,66107,1,0
92,240,66198,1,0
108,268,66289,1,0
132,288,66380,1,0
164,292,66471,1,0
192,276,66562,1,0
204,248,66653,1,0
196,216,66744,1,0
176,192,66835,1,0
204,176,66925,6,2,B|263:193|316:244|224:308|240:360|240:360|356:360,2,315,2|2|2
324,212,68380,2,2,B|383:195|436:144|344:80|360:28|360:28|476:28,2,315,2|2|2
196,212,69835,2,2,B|137:195|84:144|176:80|160:28|160:28|44:28,2,315,2|2|2
316,176,71289,2,2,B|257:193|204:244|296:308|280:360|280:360|164:360,2,315,2|2|2
416,96,72744,6,0,B|364:44|320:32|272:44|216:120,1,210,0|8
283,137,73289,2,0,B|247:165|223:165|203:161|167:109|131:109|79:149,1,210,0|4
40,100,73835,2,0,B|104:60|144:48|204:80|236:96,2,210,8|2|8
40,164,74744,2,0,B|40:284|40:284|140:284,1,210,0|4
132,348,75289,2,0,B|196:344|220:288|208:220|128:220,2,210,8|2|8
132,284,76198,2,0,B|344:284,1,210,0|4
404,284,76744,2,0,B|404:76,2,210,8|2|8
340,284,77653,2,0,B|340:176|340:176|236:176,1,210,0|4
176,184,78198,2,0,B|176:132|176:112|176:112|200:112|332:112,1,210,8|4
368,80,78744,5,0
368,144,78925,1,8
424,112,79107,1,0
424,176,79289,1,0
424,304,79653,1,10
300,304,80016,1,0
300,240,80198,1,0
244,272,80380,1,8
244,336,80562,1,0
188,304,80744,1,0
64,308,81107,1,10
64,180,81471,5,0
64,116,81653,1,0
64,52,81835,1,8
128,52,82016,1,0
128,116,82198,1,0
236,52,82562,1,10
344,116,82925,1,0
344,52,83107,1,0
408,52,83289,1,8
408,116,83471,1,0
408,180,83653,1,0
284,180,84016,1,10
256,192,84380,12,10,85471
256,192,85835,12,10,86925
256,192,87289,12,4,90198
76,64,101835,6,0,B|284:64,2,210
76,128,102744,1,0
140,128,102925,1,0
204,128,103107,1,0
204,192,103289,2,0,B|204:312,2,105
268,192,103835,2,0,B|268:72,2,105
332,192,104380,2,0,B|332:312,1,105
392,312,104744,2,0,B|456:276|468:228|452:176|376:140,2,210
372,252,105653,1,0
348,192,105835,1,0
332,132,106016,1,0
268,132,106198,6,0,B|268:-12,2,105
204,132,106744,2,0,B|204:272,2,105
140,132,107289,2,0,B|140:-8,1,105
76,28,107653,2,0,B|76:252,2,210
140,28,108562,1,0
204,28,108744,1,0
268,28,108925,1,0
268,92,109107,6,0,B|268:212,2,105
332,92,109653,2,0,B|332:212,2,105
332,28,110198,2,0,B|452:28,1,105
436,92,110562,2,0,B|444:160|448:240|344:240|308:176|252:176|176:216|192:224|188:316,1,420
124,316,111471,1,0
60,316,111653,1,0
60,252,111835,1,0
124,252,112016,2,0,B|124:132,2,105
188,252,112562,2,0,B|308:252,2,105
188,316,113107,2,0,B|308:316,1,105
356,316,113471,5,0
384,300,113562,1,0
404,276,113653,1,0
416,248,113744,1,0
420,212,113835,1,0
412,180,113925,1,0
400,152,114016,1,0
380,128,114107,1,0
352,112,114198,1,0
316,164,114380,1,8
280,216,114562,1,4
88,52,115289,1,2
88,52,115653,1,2
80,304,116380,5,0
112,296,116471,1,0
136,276,116562,1,0
152,248,116653,1,0
168,220,116744,1,0
184,192,116835,1,0
212,176,116925,1,0
244,172,117016,1,0
276,176,117107,1,0
340,180,117289,1,8
404,180,117471,1,4
176,76,118198,1,2
176,76,118562,1,2
368,256,119289,5,0
344,236,119380,1,0
320,216,119471,1,0
296,196,119562,1,0
276,220,119653,1,0
256,244,119744,1,0
280,264,119835,1,0
304,284,119925,1,0
328,304,120016,1,0
392,316,120198,1,8
448,344,120380,1,4
348,112,121107,1,2
348,112,121471,1,2
96,88,122198,5,0
68,104,122289,1,0
48,128,122380,1,0
36,156,122471,1,0
32,192,122562,1,0
40,224,122652,1,0
52,252,122743,1,0
72,276,122834,1,0
100,292,122925,1,0
136,240,123107,1,8
172,188,123289,1,4
292,148,123653,5,0
308,120,123744,1,0
332,100,123835,1,0
360,88,123925,1,0
392,88,124016,1,0
420,104,124107,1,0
444,124,124198,1,0
456,152,124289,1,0
460,184,124380,1,0
452,216,124471,1,0
432,240,124562,1,0
408,260,124653,1,0
376,264,124744,1,0
344,260,124835,1,0
316,248,124925,1,0
296,224,125016,1,0
256,192,125107,12,0,126198
256,28,126562,5,8
208,140,126835,1,8
296,228,127107,1,8
224,328,127380,1,8
336,280,127653,1,2
356,360,127835,1,2
276,364,128016,5,8
224,252,128289,1,8
292,148,128561,1,8
216,52,128834,1,8
92,52,129107,1,2
116,128,129289,1,2
116,208,129471,5,8
116,332,129744,1,8
240,332,130016,1,8
240,208,130289,1,8
348,264,130562,1,2
388,336,130744,1,2
428,264,130925,5,8
428,140,131198,1,8
320,196,131470,1,8
208,148,131743,1,8
320,100,132016,1,2
360,28,132198,1,2
280,28,132380,5,8
156,28,132653,1,8
156,152,132925,1,8
280,152,133198,1,8
173,90,133471,1,2
254,90,133653,1,2
335,89,133835,5,8
457,89,134108,1,8
367,172,134380,1,8
489,173,134653,1,8
428,280,134926,1,2
428,200,135108,1,2
256,192,135289,12,4,138198
