osu file format v9

[General]
AudioFilename: {Runaway}.mp3
AudioLeadIn: 0
PreviewTime: 26198
Countdown: 1
SampleSet: Normal
StackLeniency: 1
Mode: 0
LetterboxInBreaks: 1

[Editor]
Bookmarks: 16,5835,25835,37835,43653,49471,61107,67289,69835,72744,75653,78562,81471,84380,87289,90198,101835,106198,112016,119289,126562
DistanceSpacing: 0.6
BeatDivisor: 4
GridSize: 4

[Metadata]
Title:{Runaway}
Artist:DaGrahamCraka
Creator:Buckdida
Version:Hard
Source:Newgrounds Audio Portal
Tags:Happy Hardcore Rave

[Difficulty]
HPDrainRate:6
CircleSize:5
OverallDifficulty:5
ApproachRate:5
SliderMultiplier:1.8
SliderTickRate:2

[Events]
//Background and Video events
0,0,"runaway_background_by_buckdida-d34newk.png"
//Break Periods
2,52216,59907
2,90398,100635
//Storyboard Layer 0 (Background)
//Storyboard Layer 1 (Fail)
//Storyboard Layer 2 (Pass)
//Storyboard Layer 3 (Foreground)
//Storyboard Sound Samples
//Background Colour Transformations
3,100,163,162,255

[TimingPoints]
5835,363.636363636364,4,1,0,50,1,0
26198,-100,4,1,0,50,0,1
37835,-100,4,1,0,50,0,0
101835,-100,4,2,0,60,0,0
126562,-66.6666666666667,4,1,0,80,0,1
138198,-76.9230769230769,4,1,0,80,0,0

[Colours]
Combo1 : 255,150,0
Combo2 : 5,240,5
Combo3 : 0,255,255
Combo4 : 240,5,5

[HitObjects]
256,192,5834,1,0
336,192,6107,1,0
364,192,6198,1,0
312,96,6562,1,0
420,96,6925,1,0
472,192,7289,1,0
420,288,7653,1,0
312,288,8016,1,0
256,196,8380,5,0
228,196,8471,1,0
172,196,8653,1,0
144,196,8744,1,0
140,304,9107,1,0
56,236,9471,1,0
56,128,9835,5,0
152,80,10198,1,0
188,36,10380,1,0
240,40,10562,1,0
260,92,10744,1,0
208,88,10925,2,0,B|172:144|184:188|220:200|284:156|320:168|348:200|300:292,1,270,0|8
368,260,11653,5,4
272,312,12016,1,0
180,260,12380,1,0
272,200,12744,1,0
368,164,13107,5,0
272,112,13471,1,0
372,68,13835,1,0
472,24,14198,1,0
472,132,14562,5,0
476,240,14925,1,0
388,176,15289,1,0
380,288,15653,1,0
480,328,16016,1,0
376,356,16380,1,0
308,268,16744,1,0
240,348,17107,1,0
148,292,17471,1,0
100,192,17835,5,8
180,116,18198,1,0
256,192,18562,1,8
336,268,18925,1,0
412,188,19289,1,8
336,116,19653,1,0
256,192,20016,1,8
176,268,20380,1,0
100,192,20744,1,8
180,116,21107,1,0
256,192,21471,1,8
256,84,21835,1,0
256,192,22198,8,4,23289
448,216,24016,6,0,B|324:88,3,180
268,88,25289,2,0,B|172:88,1,90
168,140,25653,1,0
224,140,25835,1,0
276,140,26016,1,0
292,192,26198,6,2,B|156:192,1,135
156,272,26744,2,2,B|296:272,1,135
372,272,27289,1,8
372,216,27471,1,8
372,160,27653,2,2,B|228:160,1,135
292,100,28198,2,2,B|152:100,1,135
156,20,28744,1,8
104,40,28925,1,8
48,56,29107,6,2,B|48:200,1,135
128,192,29653,2,2,B|192:192|192:192|192:268,1,135
192,344,30198,1,8
248,344,30380,1,8
304,344,30562,2,2,B|444:344,1,135
480,272,31107,2,2,B|480:132,1,135
420,80,31653,1,8
368,64,31835,1,8
316,80,32016,6,2,B|316:216,2,135
236,80,32835,1,2
156,80,33107,1,8
156,136,33289,1,8
100,132,33471,6,2,B|100:268,2,135
156,192,34289,1,2
236,192,34562,1,8
236,248,34744,1,8
288,248,34925,6,2,B|424:248,2,135
340,184,35744,1,2
292,120,36016,1,8
236,120,36198,1,8
180,120,36380,6,2,B|44:120,2,135
180,200,37199,1,2
128,264,37471,1,8
88,300,37653,1,8
36,324,37835,6,2,B|28:148|152:68|276:140|212:324|348:372|476:360|484:140,1,720
428,44,39653,1,8
372,136,40016,1,0
416,236,40380,1,10
432,288,40562,1,10
476,324,40744,6,2,B|484:148|360:68|236:140|300:324|164:372|36:360|28:140,1,720
92,64,42562,1,8
116,168,42925,1,0
92,272,43289,1,8
140,300,43471,1,8
196,296,43653,6,10,B|260:348|332:284,2,135
140,240,44471,1,8
204,192,44744,1,8
256,192,44925,1,8
312,192,45107,2,10,B|321:147|337:123|376:106|432:111,2,135
256,252,45925,1,0
256,332,46198,1,8
208,308,46380,1,8
184,260,46562,1,8
128,168,46925,2,8,B|172:48|256:31|340:48|396:200,1,360
256,196,48016,1,0
128,232,48380,2,8,B|172:352|256:369|340:352|396:200,1,360
256,192,49471,8,4,52016
256,32,61107,5,0
204,92,61380,1,0
204,92,61471,2,2,B|388:92,1,180
292,148,62198,2,2,B|96:148,1,180
204,204,62925,2,2,B|392:204,1,180
492,208,63653,6,0,B|492:252,1,45
440,256,63925,2,0,B|400:256,1,37.5
356,292,64198,1,0
304,272,64380,1,0
304,216,64562,1,0
256,244,64744,1,0
256,192,64925,1,0
208,216,65107,1,0
152,216,65289,1,0
104,192,65471,6,0,B|136:40|264:8|384:56|408:192,1,450,0|8
360,192,66562,1,8
308,192,66744,1,8
256,192,66925,6,2,B|254:308|112:136|72:364,2,270,2|2|2
364,188,68380,2,2,B|362:72|220:244|180:16,2,270,2|2|2
256,196,69835,2,2,B|258:312|400:140|440:368,2,270,2|2|2
148,188,71289,2,2,B|150:72|292:244|332:16,2,270,2|2|2
144,80,72744,5,0
188,180,73107,1,8
256,264,73471,1,0
324,180,73835,1,8
368,80,74198,1,0
256,80,74562,1,8
144,80,74925,1,0
72,160,75289,1,8
148,240,75653,5,0
212,328,76016,1,8
276,240,76380,1,0
340,328,76744,1,8
404,240,77107,1,0
340,152,77471,1,8
448,152,77835,1,0
396,60,78198,1,8
288,60,78562,6,2,B|96:60,1,180,2|0
108,116,79107,2,2,B|296:116,1,180,2|0
288,172,79653,1,8
372,240,80016,2,2,B|372:52,1,180,2|0
428,60,80562,2,2,B|428:248,1,180,2|0
428,296,81107,1,8
320,296,81471,2,2,B|313:363|266:380|215:360|215:277,1,180,2|0
216,240,82016,2,2,B|209:173|162:156|111:176|111:259,1,180,2|0
112,296,82562,1,8
56,204,82925,2,2,B|84:128|140:100|208:124,1,180,2|0
240,148,83471,2,2,B|276:228|348:216|380:120,1,180,2|0
372,88,84016,1,8
464,148,84380,6,2,B|452:208|432:244|392:268|316:276,2,180,2|2|2
356,180,85471,1,8
256,216,85835,2,2,B|224:255|184:283|138:292|94:284,2,180
156,180,86925,1,8
256,144,87289,5,0
256,252,87653,1,8
200,336,88016,1,0
308,336,88380,1,8
308,228,88744,1,0
200,228,89107,1,8
200,120,89471,1,0
308,120,89835,1,8
256,212,90198,1,4
36,348,101835,6,2,B|476:36,1,540,2|0
476,144,103289,2,2,B|476:332,1,180,2|0
420,324,103835,2,2,B|224:324,1,180,2|0
188,320,104380,2,0,B|296:168,1,180,2|2
356,84,105107,1,8
356,84,105471,1,8
356,300,106198,6,2,B|76:300,1,270
236,360,107289,1,2
344,360,107653,1,2
236,172,108380,1,4
36,96,109107,5,2
32,260,109653,2,2,B|312:260,1,270
412,260,110562,2,0,B|388:32|196:308|200:48,1,360,2|4
416,56,112016,5,8
264,112,112562,1,8
172,244,113107,1,8
284,224,113471,2,0,B|252:356|172:376|84:356|48:204,1,360
92,184,114380,1,8
148,184,114562,1,4
364,200,115289,1,2
288,124,115653,1,2
500,76,116380,2,0,B|484:226|267:63|258:265,1,315
236,152,117289,1,8
208,204,117471,1,4
424,196,118198,1,2
360,284,118562,1,2
148,232,119289,6,0,L|232:132|312:200|212:316,1,360
204,340,120198,1,8
260,340,120380,1,4
308,128,121107,1,2
308,20,121471,1,2
92,28,122198,2,0,B|24:92|8:192|32:296|108:368,1,360
148,344,123107,1,8
200,328,123289,1,4
226,223,123653,2,0,B|112:182|120:85|186:19|254:-9|352:27|386:106|373:193|283:224,1,540,2|8
256,192,125107,8,4,126198
256,348,126562,5,8
288,232,126835,1,8
228,128,127107,1,8
288,24,127380,1,8
176,72,127653,1,2
176,72,127835,1,2
224,8,128016,5,8
288,112,128289,1,8
224,216,128561,1,8
288,320,128834,1,8
168,320,129107,1,2
168,320,129289,1,2
168,240,129471,5,8
284,272,129744,1,8
400,236,130016,1,8
284,204,130289,1,8
288,84,130562,1,2
288,84,130744,1,2
208,84,130925,5,8
88,84,131198,1,8
88,204,131471,1,8
208,204,131744,1,8
312,144,132016,1,2
312,144,132198,1,2
256,88,132380,5,8
368,132,132653,1,8
316,244,132926,1,8
204,292,133199,1,8
144,132,133471,1,2
144,132,133653,1,2
144,212,133835,5,8
264,212,134108,1,8
368,152,134381,1,8
296,56,134654,1,8
184,24,134925,1,2
184,24,135108,1,2
256,192,135289,12,4,138198
