osu file format v9

[General]
AudioFilename: {Runaway}.mp3
AudioLeadIn: 0
PreviewTime: 26198
Countdown: 1
SampleSet: Normal
StackLeniency: 0.4
Mode: 0
LetterboxInBreaks: 1

[Editor]
Bookmarks: 5835,25835,37835,43653,49471,61107,78562,101835,112016,126562
DistanceSpacing: 0.5
BeatDivisor: 4
GridSize: 8

[Metadata]
Title:{Runaway}
Artist:DaGrahamCraka
Creator:Buckdida
Version:Easy
Source:Newgrounds Audio Portal
Tags:Happy Hardcore Rave

[Difficulty]
HPDrainRate:3
CircleSize:5
OverallDifficulty:2
ApproachRate:2
SliderMultiplier:1.1
SliderTickRate:1

[Events]
//Background and Video events
0,0,"runaway_background_by_buckdida-d34newk.png"
//Break Periods
2,52216,59547
2,90398,100275
//Storyboard Layer 0 (Background)
//Storyboard Layer 1 (Fail)
//Storyboard Layer 2 (Pass)
//Storyboard Layer 3 (Foreground)
//Storyboard Sound Samples
//Background Colour Transformations
3,100,163,162,255

[TimingPoints]
5835,363.636363636364,4,1,0,50,1,0
26198,-100,4,1,0,70,0,1
37835,-100,4,1,0,50,0,0
101835,-100,4,2,0,60,0,0
126562,-100,4,1,0,60,0,1
138198,-100,4,1,0,75,0,0

[Colours]
Combo1 : 255,150,0
Combo2 : 5,240,5
Combo3 : 0,255,255
Combo4 : 240,5,5

[HitObjects]
88,144,5834,1,0
200,144,6562,1,0
312,144,7289,1,0
424,144,8016,1,0
424,256,8744,5,0
312,256,9471,1,0
200,256,10198,1,0
88,256,10925,2,0,B|32:224|16:168|32:112|96:72,1,220
144,176,12380,5,0
200,176,12744,1,0
256,176,13107,1,0
360,136,13835,5,0
392,176,14198,1,0
360,216,14562,1,0
360,328,15289,5,0
320,296,15653,1,0
280,328,16016,1,0
216,240,16744,5,0
168,264,17107,1,0
120,240,17471,1,0
88,192,17835,5,8
200,192,18562,1,8
312,192,19289,1,8
424,192,20016,1,8
368,288,20744,5,8
264,328,21471,1,8
200,240,22198,1,8
128,320,22925,1,8
72,304,23289,6,4,B|32:72|160:24|248:64|240:168|232:304|352:376|464:296|432:80,1,770
376,88,26198,5,0
320,88,26562,1,0
264,88,26925,1,0
208,88,27289,1,4
152,88,27653,5,0
152,144,28016,1,0
208,144,28380,1,0
264,144,28744,1,4
320,144,29107,5,0
320,200,29471,1,0
264,200,29835,1,0
208,200,30198,1,4
152,200,30562,5,0
152,256,30925,1,0
208,256,31289,1,0
264,256,31653,1,4
352,192,32380,5,8
304,88,33107,1,8
264,192,33835,1,8
224,88,34562,1,8
184,192,35289,1,8
144,88,36016,1,8
112,192,36744,1,8
36,112,37471,1,8
36,167,37835,6,2,B|484:167,1,440
476,112,39653,1,8
475,220,40380,1,8
476,167,40744,6,2,B|28:167,1,440
36,222,42562,1,8
66,267,42925,1,0
116,289,43289,1,0
144,240,43653,6,8,B|184:304|280:320|360:280,1,220
451,278,45107,2,8,B|427:206|331:174|267:214,1,220
158,201,46562,2,8,B|190:73|342:97,1,220
434,93,48016,2,8,B|418:229|274:197,1,220
256,192,49471,8,4,52016
309,80,61107,5,0
309,136,61471,2,2,B|173:136,1,110
197,192,62198,2,2,B|333:192,1,110
309,248,62925,2,2,B|173:248,1,110
120,176,64016,2,4,B|180:312|268:336|356:304|396:168|396:168,2,385
72,208,66925,5,0
72,152,67289,1,8
120,120,67653,1,0
168,152,68016,1,8
208,192,68380,1,0
248,152,68744,5,8
288,192,69107,1,0
328,152,69471,1,8
368,192,69835,2,4,B|328:360|184:360|104:360|56:176|56:176,2,440
368,136,73107,5,8
368,80,73471,1,0
320,112,73835,1,8
320,168,74198,1,0
312,224,74562,5,8
264,256,74925,1,0
216,224,75289,1,8
228,170,75653,2,2,B|60:170,2,165,2|2|2
284,170,77107,2,2,B|452:170,2,165
284,114,78562,5,0
228,114,78925,1,8
228,170,79289,1,0
172,170,79653,1,8
172,226,80016,5,0
228,226,80380,1,8
228,282,80744,1,0
284,282,81107,1,8
284,226,81471,5,0
340,226,81835,1,8
340,170,82198,1,0
284,170,82562,1,8
284,114,82925,5,0
228,114,83289,1,8
228,170,83653,1,0
172,170,84016,1,8
196,218,84380,6,8,B|60:218,2,110
212,162,85471,1,10
252,202,85835,2,8,B|388:202,2,110
260,146,86925,1,10
316,146,87289,5,0
316,90,87653,1,8
364,122,88016,1,0
364,178,88380,1,8
372,234,88744,5,0
348,282,89107,1,8
300,306,89471,1,0
261,267,89835,1,8
255,212,90198,1,4
40,328,101835,6,2,B|328:144,1,330
280,104,103289,2,2,B|128:200,2,165
328,72,104744,2,2,B|328:304,1,220
432,320,106198,6,2,B|264:320,1,165,2|2
216,256,107289,1,2
216,200,107653,2,2,B|456:200,1,220,2|0
464,96,109107,5,2
384,96,109653,2,2,B|200:96,1,165
219,151,110562,2,0,B|459:151,1,220,2|0
352,224,112016,5,0
272,224,112562,1,0
192,224,113107,1,0
136,224,113471,6,8,B|136:112,2,110
136,280,114562,2,0,B|248:280,1,110,8|0
448,192,116380,6,8,B|320:192,2,110
448,136,117471,2,0,B|328:136,1,110,8|0
152,248,119289,6,8,B|152:136,2,110
200,280,120380,2,0,B|200:160,1,110,8|0
392,56,122198,6,8,B|280:56,2,110
432,96,123289,1,8
400,144,123653,2,4,L|371:202|294:166|271:256|183:208,1,330
136,216,125107,2,0,B|144:96|176:48|256:32|320:48|368:96,1,330
384,128,126562,6,2,B|384:232,1,82.5
384,248,127107,2,2,B|360:296|296:280,1,82.5
272,280,127653,2,8,B|272:216,1,55
272,200,128016,6,2,B|272:96,1,82.5
272,80,128561,2,2,B|248:32|184:48,1,82.5
162,46,129107,2,8,B|98:46,1,55
107,73,129471,6,2,B|107:169,1,82.5
107,193,130016,2,2,B|107:289,1,82.5
147,281,130562,2,8,B|175:300|202:277,1,55
203,249,130925,6,2,B|203:153,1,82.5
203,129,131470,2,2,B|203:33,1,82.5
243,41,132016,2,8,B|271:22|298:45,1,55
296,72,132380,6,2,B|296:168,1,82.5
296,192,132925,2,2,B|392:192,1,82.5
416,192,133471,1,8
416,192,133653,1,8
416,216,133835,2,2,B|416:304,1,82.5
416,336,134380,2,2,B|328:336,1,82.5
296,336,134925,1,8
296,336,135107,1,8
256,192,135289,12,4,138198
